  0
SECTION
  2
HEADER
  9
$ACADVER
  1
AC1021
  9
$ACADMAINTVER
 70
    25
  9
$DWGCODEPAGE
  3
ANSI_1252
  9
$INSBASE
 10
0.0
 20
0.0
 30
0.0
  9
$EXTMIN
 10
0.0
 20
0.0
 30
0.0
  9
$EXTMAX
 10
420.0
 20
594.0
 30
0.0
  9
$LIMMIN
 10
0.0
 20
0.0
  9
$LIMMAX
 10
420.0
 20
594.0
  9
$ORTHOMODE
 70
     0
  9
$REGENMODE
 70
     1
  9
$FILLMODE
 70
     1
  9
$QTEXTMODE
 70
     0
  9
$MIRRTEXT
 70
     1
  9
$LTSCALE
 40
10.0
  9
$ATTMODE
 70
     1
  9
$TEXTSIZE
 40
7.0
  9
$TRACEWID
 40
1.0
  9
$TEXTSTYLE
  7
Standard
  9
$CLAYER
  8
0
  9
$CELTYPE
  6
ByLayer
  9
$CECOLOR
 62
   256
  9
$CELTSCALE
 40
1.0
  9
$DISPSILH
 70
     0
  9
$DIMSCALE
 40
1.0
  9
$DIMASZ
 40
6.604
  9
$DIMEXO
 40
2.0
  9
$DIMDLI
 40
3.75
  9
$DIMRND
 40
0.0
  9
$DIMDLE
 40
0.0
  9
$DIMEXE
 40
2.0
  9
$DIMTP
 40
0.0
  9
$DIMTM
 40
0.0
  9
$DIMTXT
 40
7.0
  9
$DIMCEN
 40
2.5
  9
$DIMTSZ
 40
0.0
  9
$DIMTOL
 70
     0
  9
$DIMLIM
 70
     0
  9
$DIMTIH
 70
     1
  9
$DIMTOH
 70
     1
  9
$DIMSE1
 70
     0
  9
$DIMSE2
 70
     0
  9
$DIMTAD
 70
     1
  9
$DIMZIN
 70
     1
  9
$DIMBLK
  1

  9
$DIMASO
 70
     1
  9
$DIMSHO
 70
     1
  9
$DIMPOST
  1

  9
$DIMAPOST
  1

  9
$DIMALT
 70
     0
  9
$DIMALTD
 70
     3
  9
$DIMALTF
 40
0.0393700787
  9
$DIMLFAC
 40
1.0
  9
$DIMTOFL
 70
     1
  9
$DIMTVP
 40
0.0
  9
$DIMTIX
 70
     0
  9
$DIMSOXD
 70
     0
  9
$DIMSAH
 70
     0
  9
$DIMBLK1
  1

  9
$DIMBLK2
  1

  9
$DIMSTYLE
  2
ISO-25
  9
$DIMCLRD
 70
     0
  9
$DIMCLRE
 70
     0
  9
$DIMCLRT
 70
     0
  9
$DIMTFAC
 40
1.0
  9
$DIMGAP
 40
3.048
  9
$DIMJUST
 70
     0
  9
$DIMSD1
 70
     0
  9
$DIMSD2
 70
     0
  9
$DIMTOLJ
 70
     0
  9
$DIMTZIN
 70
     1
  9
$DIMALTZ
 70
     0
  9
$DIMALTTZ
 70
     0
  9
$DIMUPT
 70
     0
  9
$DIMDEC
 70
     2
  9
$DIMTDEC
 70
     2
  9
$DIMALTU
 70
     2
  9
$DIMALTTD
 70
     3
  9
$DIMTXSTY
  7
Standard
  9
$DIMAUNIT
 70
     0
  9
$DIMADEC
 70
     2
  9
$DIMALTRND
 40
0.0
  9
$DIMAZIN
 70
     0
  9
$DIMDSEP
 70
    44
  9
$DIMATFIT
 70
     3
  9
$DIMFRAC
 70
     0
  9
$DIMLDRBLK
  1

  9
$DIMLUNIT
 70
     2
  9
$DIMLWD
 70
    -2
  9
$DIMLWE
 70
    -2
  9
$DIMTMOVE
 70
     0
  9
$DIMFXL
 40
1.0
  9
$DIMFXLON
 70
     0
  9
$DIMJOGANG
 40
0.7853981634
  9
$DIMTFILL
 70
     0
  9
$DIMTFILLCLR
 70
     0
  9
$DIMARCSYM
 70
     0
  9
$DIMLTYPE
  6

  9
$DIMLTEX1
  6

  9
$DIMLTEX2
  6

  9
$LUNITS
 70
     2
  9
$LUPREC
 70
     2
  9
$SKETCHINC
 40
1.0
  9
$FILLETRAD
 40
10.0
  9
$AUNITS
 70
     0
  9
$AUPREC
 70
     2
  9
$MENU
  1
.
  9
$ELEVATION
 40
0.0
  9
$PELEVATION
 40
0.0
  9
$THICKNESS
 40
0.0
  9
$LIMCHECK
 70
     0
  9
$CHAMFERA
 40
10.0
  9
$CHAMFERB
 40
10.0
  9
$CHAMFERC
 40
20.0
  9
$CHAMFERD
 40
0.0
  9
$SKPOLY
 70
     0
  9
$TDCREATE
 40
2456078.582604248
  9
$TDUCREATE
 40
2456078.082604248
  9
$TDUPDATE
 40
2456078.582604259
  9
$TDUUPDATE
 40
2456078.082604259
  9
$TDINDWG
 40
0.0000000116
  9
$TDUSRTIMER
 40
0.0000000116
  9
$USRTIMER
 70
     1
  9
$ANGBASE
 50
0.0
  9
$ANGDIR
 70
     0
  9
$PDMODE
 70
     0
  9
$PDSIZE
 40
-1.0
  9
$PLINEWID
 40
0.0
  9
$SPLFRAME
 70
     0
  9
$SPLINETYPE
 70
     6
  9
$SPLINESEGS
 70
     8
  9
$HANDSEED
  5
320
  9
$SURFTAB1
 70
     6
  9
$SURFTAB2
 70
     6
  9
$SURFTYPE
 70
     6
  9
$SURFU
 70
     6
  9
$SURFV
 70
     6
  9
$UCSBASE
  2

  9
$UCSNAME
  2

  9
$UCSORG
 10
0.0
 20
0.0
 30
0.0
  9
$UCSXDIR
 10
1.0
 20
0.0
 30
0.0
  9
$UCSYDIR
 10
0.0
 20
1.0
 30
0.0
  9
$UCSORTHOREF
  2

  9
$UCSORTHOVIEW
 70
     0
  9
$UCSORGTOP
 10
0.0
 20
0.0
 30
0.0
  9
$UCSORGBOTTOM
 10
0.0
 20
0.0
 30
0.0
  9
$UCSORGLEFT
 10
0.0
 20
0.0
 30
0.0
  9
$UCSORGRIGHT
 10
0.0
 20
0.0
 30
0.0
  9
$UCSORGFRONT
 10
0.0
 20
0.0
 30
0.0
  9
$UCSORGBACK
 10
0.0
 20
0.0
 30
0.0
  9
$PUCSBASE
  2

  9
$PUCSNAME
  2

  9
$PUCSORG
 10
0.0
 20
0.0
 30
0.0
  9
$PUCSXDIR
 10
1.0
 20
0.0
 30
0.0
  9
$PUCSYDIR
 10
0.0
 20
1.0
 30
0.0
  9
$PUCSORTHOREF
  2

  9
$PUCSORTHOVIEW
 70
     0
  9
$PUCSORGTOP
 10
0.0
 20
0.0
 30
0.0
  9
$PUCSORGBOTTOM
 10
0.0
 20
0.0
 30
0.0
  9
$PUCSORGLEFT
 10
0.0
 20
0.0
 30
0.0
  9
$PUCSORGRIGHT
 10
0.0
 20
0.0
 30
0.0
  9
$PUCSORGFRONT
 10
0.0
 20
0.0
 30
0.0
  9
$PUCSORGBACK
 10
0.0
 20
0.0
 30
0.0
  9
$USERI1
 70
     0
  9
$USERI2
 70
     0
  9
$USERI3
 70
     0
  9
$USERI4
 70
     0
  9
$USERI5
 70
     0
  9
$USERR1
 40
0.0
  9
$USERR2
 40
0.0
  9
$USERR3
 40
0.0
  9
$USERR4
 40
0.0
  9
$USERR5
 40
0.0
  9
$WORLDVIEW
 70
     1
  9
$SHADEDGE
 70
     3
  9
$SHADEDIF
 70
    70
  9
$TILEMODE
 70
     1
  9
$MAXACTVP
 70
    64
  9
$PINSBASE
 10
0.0
 20
0.0
 30
0.0
  9
$PLIMCHECK
 70
     0
  9
$PEXTMIN
 10
1.0000000000E+20
 20
1.0000000000E+20
 30
1.0000000000E+20
  9
$PEXTMAX
 10
-1.0000000000E+20
 20
-1.0000000000E+20
 30
-1.0000000000E+20
  9
$PLIMMIN
 10
0.0
 20
0.0
  9
$PLIMMAX
 10
420.0
 20
297.0
  9
$UNITMODE
 70
     0
  9
$VISRETAIN
 70
     1
  9
$PLINEGEN
 70
     0
  9
$PSLTSCALE
 70
     1
  9
$TREEDEPTH
 70
  3020
  9
$CMLSTYLE
  2
Standard
  9
$CMLJUST
 70
     0
  9
$CMLSCALE
 40
20.0
  9
$PROXYGRAPHICS
 70
     1
  9
$MEASUREMENT
 70
     1
  9
$CELWEIGHT
370
    -1
  9
$ENDCAPS
280
     0
  9
$JOINSTYLE
280
     0
  9
$LWDISPLAY
290
     1
  9
$INSUNITS
 70
     4
  9
$HYPERLINKBASE
  1

  9
$STYLESHEET
  1

  9
$XEDIT
290
     1
  9
$CEPSNTYPE
380
     0
  9
$PSTYLEMODE
290
     1
  9
$FINGERPRINTGUID
  2
{A8548787-AA4E-4BBF-81B2-27D3723927E6}
  9
$VERSIONGUID
  2
{FAEB1C32-E019-11D5-929B-00C0DF256EC4}
  9
$EXTNAMES
290
     1
  9
$PSVPSCALE
 40
0.0
  9
$OLESTARTUP
290
     0
  9
$SORTENTS
280
   127
  9
$INDEXCTL
280
     0
  9
$HIDETEXT
280
     1
  9
$XCLIPFRAME
290
     0
  9
$HALOGAP
280
     0
  9
$OBSCOLOR
 70
   257
  9
$OBSLTYPE
280
     0
  9
$INTERSECTIONDISPLAY
280
     0
  9
$INTERSECTIONCOLOR
 70
   257
  9
$DIMASSOC
280
     2
  9
$PROJECTNAME
  1

  9
$CAMERADISPLAY
290
     0
  9
$LENSLENGTH
 40
50.0
  9
$CAMERAHEIGHT
 40
0.0
  9
$STEPSPERSEC
 40
2.0
  9
$STEPSIZE
 40
6.0
  9
$3DDWFPREC
 40
2.0
  9
$PSOLWIDTH
 40
5.0
  9
$PSOLHEIGHT
 40
80.0
  9
$LOFTANG1
 40
1.5707963268
  9
$LOFTANG2
 40
1.5707963268
  9
$LOFTMAG1
 40
0.0
  9
$LOFTMAG2
 40
0.0
  9
$LOFTPARAM
 70
     7
  9
$LOFTNORMALS
280
     1
  9
$LATITUDE
 40
37.795
  9
$LONGITUDE
 40
-122.394
  9
$NORTHDIRECTION
 40
0.0
  9
$TIMEZONE
 70
 -8000
  9
$LIGHTGLYPHDISPLAY
280
     1
  9
$TILEMODELIGHTSYNCH
280
     1
  9
$SOLIDHIST
280
     1
  9
$SHOWHIST
280
     1
  9
$DWFFRAME
280
     2
  9
$DGNFRAME
280
     2
  9
$REALWORLDSCALE
290
     1
  9
$INTERFERECOLOR
 62
   256
  9
$CSHADOW
280
     0
  9
$SHADOWPLANELOCATION
 40
0.0
  0
ENDSEC
  0
SECTION
  2
CLASSES
  0
CLASS
  1
ACDBDICTIONARYWDFLT
  2
AcDbDictionaryWithDefault
  3
ObjectDBX Classes
 90
        0
 91
        4
280
     0
281
     0
  0
CLASS
  1
VISUALSTYLE
  2
AcDbVisualStyle
  3
ObjectDBX Classes
 90
     4095
 91
        4
280
     0
281
     0
  0
CLASS
  1
MATERIAL
  2
AcDbMaterial
  3
ObjectDBX Classes
 90
     1153
 91
        4
280
     0
281
     0
  0
CLASS
  1
SCALE
  2
AcDbScale
  3
ObjectDBX Classes
 90
     1153
 91
        4
280
     0
281
     0
  0
CLASS
  1
IMAGEDEF
  2
AcDbRasterImageDef
  3
ISM
 90
        0
 91
        4
280
     0
281
     0
  0
CLASS
  1
IMAGE
  2
AcDbRasterImage
  3
ISM
 90
      127
 91
        5
280
     0
281
     1
  0
CLASS
  1
IMAGEDEF_REACTOR
  2
AcDbRasterImageDefReactor
  3
ISM
 90
        1
 91
        4
280
     0
281
     0
  0
CLASS
  1
DICTIONARYVAR
  2
AcDbDictionaryVar
  3
ObjectDBX Classes
 90
        0
 91
        4
280
     0
281
     0
  0
ENDSEC
  0
SECTION
  2
TABLES
  0
TABLE
  2
VPORT
  5
8
330
0
100
AcDbSymbolTable
 70
     1
  0
VPORT
  5
29
330
8
100
AcDbSymbolTableRecord
100
AcDbViewportTableRecord
  2
*Active
 70
     0
 10
0.0
 20
0.0
 11
1.0
 21
1.0
 12
210.0
 22
297.0
 13
0.0
 23
0.0
 14
10.0
 24
10.0
 15
10.0
 25
10.0
 16
0.0
 26
0.0
 36
1.0
 17
0.0
 27
0.0
 37
0.0
 40
594.0
 41
0.7070707071
 42
50.0
 43
0.0
 44
0.0
 50
0.0
 51
0.0
 71
     0
 72
  2000
 73
     1
 74
     3
 75
     0
 76
     0
 77
     0
 78
     0
281
     0
 65
     1
110
0.0
120
0.0
130
0.0
111
1.0
121
0.0
131
0.0
112
0.0
122
1.0
132
0.0
 79
     0
146
0.0
 60
     3
 61
     5
292
     1
282
     1
141
0.0
142
0.0
 63
   250
  0
ENDTAB
  0
TABLE
  2
LTYPE
  5
5
330
0
100
AcDbSymbolTable
 70
     6
  0
LTYPE
  5
14
330
5
100
AcDbSymbolTableRecord
100
AcDbLinetypeTableRecord
  2
ByBlock
 70
     0
  3

 72
    65
 73
     0
 40
0.0
  0
LTYPE
  5
15
330
5
100
AcDbSymbolTableRecord
100
AcDbLinetypeTableRecord
  2
ByLayer
 70
     0
  3

 72
    65
 73
     0
 40
0.0
  0
LTYPE
  5
16
330
5
100
AcDbSymbolTableRecord
100
AcDbLinetypeTableRecord
  2
Continuous
 70
     0
  3
Solid line
 72
    65
 73
     0
 40
0.0
  0
LTYPE
  5
3F
330
5
100
AcDbSymbolTableRecord
100
AcDbLinetypeTableRecord
  2
HIDDEN
 70
     0
  3
Hidden __ __ __ __ __ __ __ __ __ __ __ __ __ __
 72
    65
 73
     2
 40
1.905
 49
1.27
 74
     0
 49
-0.635
 74
     0
  0
LTYPE
  5
40
330
5
100
AcDbSymbolTableRecord
100
AcDbLinetypeTableRecord
  2
PHANTOM
 70
     0
  3
Phantom ______  __  __  ______  __  __  ______
 72
    65
 73
     6
 40
12.7
 49
6.35
 74
     0
 49
-1.27
 74
     0
 49
1.27
 74
     0
 49
-1.27
 74
     0
 49
1.27
 74
     0
 49
-1.27
 74
     0
  0
LTYPE
  5
41
330
5
100
AcDbSymbolTableRecord
100
AcDbLinetypeTableRecord
  2
CENTER
 70
     0
  3
Center ____ _ ____ _ ____ _ ____ _ ____ _ ____
 72
    65
 73
     4
 40
10.16
 49
6.35
 74
     0
 49
-1.27
 74
     0
 49
1.27
 74
     0
 49
-1.27
 74
     0
  0
LTYPE
  5
42
330
5
100
AcDbSymbolTableRecord
100
AcDbLinetypeTableRecord
  2
CENTERX2
 70
     0
  3
Center (2x) ________  __  ________  __  _____
 72
    65
 73
     4
 40
20.32
 49
12.7
 74
     0
 49
-2.54
 74
     0
 49
2.54
 74
     0
 49
-2.54
 74
     0
  0
LTYPE
  5
43
330
5
100
AcDbSymbolTableRecord
100
AcDbLinetypeTableRecord
  2
DOT2
 70
     0
  3
Dot (.5x) ........................................
 72
    65
 73
     2
 40
0.635
 49
0.0
 74
     0
 49
-0.635
 74
     0
  0
ENDTAB
  0
TABLE
  2
LAYER
  5
2
330
0
100
AcDbSymbolTable
 70
     3
  0
LAYER
  5
10
330
2
100
AcDbSymbolTableRecord
100
AcDbLayerTableRecord
  2
0
 70
     0
 62
     7
  6
Continuous
370
    -3
390
F
347
3E
  0
LAYER
  5
44
330
2
100
AcDbSymbolTableRecord
100
AcDbLayerTableRecord
  2
SLD-0
 70
     0
 62
   179
  6
Continuous
370
    -3
390
F
347
3E
  0
LAYER
  5
45
330
2
100
AcDbSymbolTableRecord
100
AcDbLayerTableRecord
  2
FORMAT
 70
     0
 62
   179
  6
Continuous
370
    -3
390
F
347
3E
  0
ENDTAB
  0
TABLE
  2
STYLE
  5
3
330
0
100
AcDbSymbolTable
 70
     5
  0
STYLE
  5
11
330
3
100
AcDbSymbolTableRecord
100
AcDbTextStyleTableRecord
  2
Standard
 70
     0
 40
0.0
 41
1.0
 50
0.0
 71
     0
 42
2.5
  3
txt
  4

  0
STYLE
  5
49
330
3
100
AcDbSymbolTableRecord
100
AcDbTextStyleTableRecord
  2
SLDTEXTSTYLE0
 70
     0
 40
0.0
 41
0.4457894737
 50
0.0
 71
     0
 42
0.2
  3
TXT
  4

  0
STYLE
  5
8E
330
3
100
AcDbSymbolTableRecord
100
AcDbTextStyleTableRecord
  2
SLDTEXTSTYLE1
 70
     0
 40
0.0
 41
0.5526315789
 50
0.0
 71
     0
 42
0.2
  3
TXT
  4

  0
STYLE
  5
90
330
3
100
AcDbSymbolTableRecord
100
AcDbTextStyleTableRecord
  2
SLDTEXTSTYLE2
 70
     0
 40
0.0
 41
0.5065789474
 50
0.0
 71
     0
 42
0.2
  3
TXT
  4

  0
STYLE
  5
A0
330
3
100
AcDbSymbolTableRecord
100
AcDbTextStyleTableRecord
  2
SLDTEXTSTYLE3
 70
     0
 40
0.0
 41
0.75
 50
0.0
 71
     0
 42
0.2
  3
TXT
  4

  0
ENDTAB
  0
TABLE
  2
VIEW
  5
6
330
0
100
AcDbSymbolTable
 70
     0
  0
ENDTAB
  0
TABLE
  2
UCS
  5
7
330
0
100
AcDbSymbolTable
 70
     0
  0
ENDTAB
  0
TABLE
  2
APPID
  5
9
330
0
100
AcDbSymbolTable
 70
     1
  0
APPID
  5
12
330
9
100
AcDbSymbolTableRecord
100
AcDbRegAppTableRecord
  2
ACAD
 70
     0
  0
ENDTAB
  0
TABLE
  2
DIMSTYLE
  5
A
330
0
100
AcDbSymbolTable
 70
     3
100
AcDbDimStyleTable
  0
DIMSTYLE
105
27
330
A
100
AcDbSymbolTableRecord
100
AcDbDimStyleTableRecord
  2
ISO-25
 70
     0
 41
2.5
 42
0.625
 43
3.75
 44
1.25
 73
     0
 74
     0
 77
     1
 78
     8
140
2.5
141
2.5
143
0.0393700787
147
0.625
171
     3
172
     1
271
     2
272
     2
274
     3
278
    44
283
     0
284
     8
340
11
  0
DIMSTYLE
105
14F
102
{ACAD_REACTORS
330
14E
330
159
330
163
330
233
330
23D
330
247
330
2DE
330
2E8
330
2F2
102
}
330
A
100
AcDbSymbolTableRecord
100
AcDbDimStyleTableRecord
  2
SLDDIMSTYLE0
 70
     0
 41
6.604
 44
0.0
 45
0.000000001
 73
     0
 77
     1
 78
    12
140
7.0
147
1.75
173
     1
271
     0
272
     2
284
    12
340
A0
  0
DIMSTYLE
105
252
102
{ACAD_REACTORS
330
251
102
}
330
A
100
AcDbSymbolTableRecord
100
AcDbDimStyleTableRecord
  2
SLDDIMSTYLE1
 70
     0
 41
6.604
 44
0.0
 45
0.000000001
 73
     0
 77
     1
 78
    12
140
7.0
147
1.75
172
     1
173
     1
271
     0
272
     2
284
    12
340
A0
  0
ENDTAB
  0
TABLE
  2
BLOCK_RECORD
  5
1
330
0
100
AcDbSymbolTable
 70
    15
  0
BLOCK_RECORD
  5
1F
330
1
100
AcDbSymbolTableRecord
100
AcDbBlockTableRecord
  2
*Model_Space
340
22
 70
     0
280
     1
281
     0
  0
BLOCK_RECORD
  5
1B
330
1
100
AcDbSymbolTableRecord
100
AcDbBlockTableRecord
  2
*Paper_Space
340
1E
 70
     0
280
     1
281
     0
  0
BLOCK_RECORD
  5
23
330
1
100
AcDbSymbolTableRecord
100
AcDbBlockTableRecord
  2
*Paper_Space0
340
26
 70
     0
280
     1
281
     0
  0
BLOCK_RECORD
  5
46
330
1
100
AcDbSymbolTableRecord
100
AcDbBlockTableRecord
  2
SW_NOTE_0
340
0
102
{BLKREFS
331
8B
102
}
 70
     0
280
     1
281
     0
  0
BLOCK_RECORD
  5
6E
330
1
100
AcDbSymbolTableRecord
100
AcDbBlockTableRecord
  2
SW_NOTE_1
340
0
102
{BLKREFS
331
8C
102
}
 70
     0
280
     1
281
     0
  0
BLOCK_RECORD
  5
96
330
1
100
AcDbSymbolTableRecord
100
AcDbBlockTableRecord
  2
SW_NOTE_0_1
340
0
102
{BLKREFS
331
9B
102
}
 70
     0
280
     1
281
     0
  0
BLOCK_RECORD
  5
9D
330
1
100
AcDbSymbolTableRecord
100
AcDbBlockTableRecord
  2
SW_NOTE_1_1
340
0
102
{BLKREFS
331
A9
102
}
 70
     0
280
     1
281
     0
  0
BLOCK_RECORD
  5
150
330
1
100
AcDbSymbolTableRecord
100
AcDbBlockTableRecord
  2
*D5
340
0
 70
     0
280
     1
281
     0
  0
BLOCK_RECORD
  5
15A
330
1
100
AcDbSymbolTableRecord
100
AcDbBlockTableRecord
  2
*D6
340
0
 70
     0
280
     1
281
     0
  0
BLOCK_RECORD
  5
164
330
1
100
AcDbSymbolTableRecord
100
AcDbBlockTableRecord
  2
*D7
340
0
 70
     0
280
     1
281
     0
  0
BLOCK_RECORD
  5
234
330
1
100
AcDbSymbolTableRecord
100
AcDbBlockTableRecord
  2
*D8
340
0
 70
     0
280
     1
281
     0
  0
BLOCK_RECORD
  5
23E
330
1
100
AcDbSymbolTableRecord
100
AcDbBlockTableRecord
  2
*D9
340
0
 70
     0
280
     1
281
     0
  0
BLOCK_RECORD
  5
248
330
1
100
AcDbSymbolTableRecord
100
AcDbBlockTableRecord
  2
*D10
340
0
 70
     0
280
     1
281
     0
  0
BLOCK_RECORD
  5
253
330
1
100
AcDbSymbolTableRecord
100
AcDbBlockTableRecord
  2
*D11
340
0
 70
     0
280
     1
281
     0
  0
BLOCK_RECORD
  5
2DF
330
1
100
AcDbSymbolTableRecord
100
AcDbBlockTableRecord
  2
*D12
340
0
 70
     0
280
     1
281
     0
  0
BLOCK_RECORD
  5
2E9
330
1
100
AcDbSymbolTableRecord
100
AcDbBlockTableRecord
  2
*D13
340
0
 70
     0
280
     1
281
     0
  0
BLOCK_RECORD
  5
2F3
330
1
100
AcDbSymbolTableRecord
100
AcDbBlockTableRecord
  2
*D14
340
0
 70
     0
280
     1
281
     0
  0
ENDTAB
  0
ENDSEC
  0
SECTION
  2
BLOCKS
  0
BLOCK
  5
20
330
1F
100
AcDbEntity
  8
0
100
AcDbBlockBegin
  2
*Model_Space
 70
     0
 10
0.0
 20
0.0
 30
0.0
  3
*Model_Space
  1

  0
ENDBLK
  5
21
330
1F
100
AcDbEntity
  8
0
100
AcDbBlockEnd
  0
BLOCK
  5
1C
330
1B
100
AcDbEntity
 67
     1
  8
0
100
AcDbBlockBegin
  2
*Paper_Space
 70
     0
 10
0.0
 20
0.0
 30
0.0
  3
*Paper_Space
  1

  0
ENDBLK
  5
1D
330
1B
100
AcDbEntity
 67
     1
  8
0
100
AcDbBlockEnd
  0
BLOCK
  5
24
330
23
100
AcDbEntity
  8
0
100
AcDbBlockBegin
  2
*Paper_Space0
 70
     0
 10
0.0
 20
0.0
 30
0.0
  3
*Paper_Space0
  1

  0
ENDBLK
  5
25
330
23
100
AcDbEntity
  8
0
100
AcDbBlockEnd
  0
BLOCK
  5
47
330
46
100
AcDbEntity
  8
0
100
AcDbBlockBegin
  2
SW_NOTE_0
 70
     0
 10
0.0
 20
0.0
 30
0.0
  3
SW_NOTE_0
  1

  0
MTEXT
  5
6C
330
46
100
AcDbEntity
  8
SLD-0
 48
10.0
100
AcDbMText
 10
0.0
 20
32.010732005
 30
0.0
 40
30.0
 41
0.0
 46
0.0
 71
     1
 72
     1
  1
Disclaimer: This information is intended solely as a guide for use fo Marley NZ products. Before using you should ensure that the product is suitable for use in the specific application. 
  7
SLDTEXTSTYLE0
 73
     1
 44
1.0
  0
MTEXT
  5
6D
330
46
100
AcDbEntity
  8
SLD-0
 48
10.0
100
AcDbMText
 10
0.0
 20
-17.989266879
 30
0.0
 40
30.0
 41
0.0
 46
0.0
 71
     1
 72
     1
  1
Marley NZ makes no warranty regarding the use of this information with non-Marley NZ products. This drawing is the property of Marley NZ Ltd.
  7
SLDTEXTSTYLE0
 73
     1
 44
1.0
  0
ENDBLK
  5
48
330
46
100
AcDbEntity
  8
0
100
AcDbBlockEnd
  0
BLOCK
  5
6F
330
6E
100
AcDbEntity
  8
0
100
AcDbBlockBegin
  2
SW_NOTE_1
 70
     0
 10
0.0
 20
0.0
 30
0.0
  3
SW_NOTE_1
  1

  0
MTEXT
  5
71
330
6E
100
AcDbEntity
  8
SLD-0
 48
10.0
100
AcDbMText
 10
0.0
 20
50.8170336217
 30
0.0
 40
47.625
 41
0.0
 46
0.0
 71
     1
 72
     1
  1
0800 MARLEY
  7
SLDTEXTSTYLE0
 73
     1
 44
1.0
  0
MTEXT
  5
72
330
6E
100
AcDbEntity
  8
SLD-0
 48
10.0
100
AcDbMText
 10
-41.947476566
 20
-12.6829656103
 30
0.0
 40
47.625
 41
0.0
 46
0.0
 71
     1
 72
     1
  1
www.marley.co.nz
  7
SLDTEXTSTYLE0
 73
     1
 44
1.0
  0
ENDBLK
  5
70
330
6E
100
AcDbEntity
  8
0
100
AcDbBlockEnd
  0
BLOCK
  5
97
330
96
100
AcDbEntity
  8
0
100
AcDbBlockBegin
  2
SW_NOTE_0_1
 70
     0
 10
0.0
 20
0.0
 30
0.0
  3
SW_NOTE_0_1
  1

  0
MTEXT
  5
99
330
96
100
AcDbEntity
  8
SLD-0
 62
     0
 48
10.0
100
AcDbMText
 10
0.0
 20
8.1855801476
 30
0.0
 40
6.35
 41
0.0
 46
0.0
 71
     1
 72
     1
  1
FL2
  7
SLDTEXTSTYLE0
 73
     1
 44
1.0
  0
MTEXT
  5
9A
330
96
100
AcDbEntity
  8
SLD-0
 62
     0
 48
10.0
100
AcDbMText
 10
11.9856260717
 20
7.3622375766
 30
0.0
 40
5.29166
 41
0.0
 46
0.0
 71
     1
 72
     1
  1
 External Bracket with Spouting Profile
  7
SLDTEXTSTYLE0
 73
     1
 44
1.0
  0
ENDBLK
  5
98
330
96
100
AcDbEntity
  8
0
100
AcDbBlockEnd
  0
BLOCK
  5
9E
330
9D
100
AcDbEntity
  8
0
100
AcDbBlockBegin
  2
SW_NOTE_1_1
 70
     0
 10
0.0
 20
0.0
 30
0.0
  3
SW_NOTE_1_1
  1

  0
MTEXT
  5
A1
330
9D
100
AcDbEntity
  8
SLD-0
 62
     0
 48
10.0
100
AcDbMText
 10
0.0
 20
8.1855801476
 30
0.0
 40
6.35
 41
0.0
 46
0.0
 71
     1
 72
     1
  1
NOTE: Fixing recomendations
  7
SLDTEXTSTYLE3
 73
     1
 44
1.0
  0
MTEXT
  5
A2
330
9D
100
AcDbEntity
  8
SLD-0
 62
     0
 48
10.0
100
AcDbMText
 10
0.0
 20
-0.2342387971
 30
0.0
 40
5.2916666667
 41
0.0
 46
0.0
 71
     1
 72
     1
  1
1. Screw fixings with timber fascia 
  7
SLDTEXTSTYLE3
 73
     1
 44
1.0
  0
MTEXT
  5
A3
330
9D
100
AcDbEntity
  8
SLD-0
 62
     0
 48
10.0
100
AcDbMText
 10
0.0
 20
-7.2897942674
 30
0.0
 40
5.2916666667
 41
0.0
 46
0.0
 71
     1
 72
     1
  1
-Stainless Steel, grade 304 self tapping screws 6g x 20mm 
  7
SLDTEXTSTYLE3
 73
     1
 44
1.0
  0
MTEXT
  5
A4
330
9D
100
AcDbEntity
  8
SLD-0
 62
     0
 48
10.0
100
AcDbMText
 10
0.0
 20
-14.3453497377
 30
0.0
 40
5.2916666667
 41
0.0
 46
0.0
 71
     1
 72
     1
  1
pan head or wafer head
  7
SLDTEXTSTYLE3
 73
     1
 44
1.0
  0
MTEXT
  5
A5
330
9D
100
AcDbEntity
  8
SLD-0
 62
     0
 48
10.0
100
AcDbMText
 10
0.0
 20
-21.4009052079
 30
0.0
 40
5.2916666667
 41
0.0
 46
0.0
 71
     1
 72
     1
  1
2. Nail fixing with timber fascia
  7
SLDTEXTSTYLE3
 73
     1
 44
1.0
  0
MTEXT
  5
A6
330
9D
100
AcDbEntity
  8
SLD-0
 62
     0
 48
10.0
100
AcDbMText
 10
0.0
 20
-28.4564606782
 30
0.0
 40
5.2916666667
 41
0.0
 46
0.0
 71
     1
 72
     1
  1
-Marley galvanised nails [mcnails]
  7
SLDTEXTSTYLE3
 73
     1
 44
1.0
  0
MTEXT
  5
A7
330
9D
100
AcDbEntity
  8
SLD-0
 62
     0
 48
10.0
100
AcDbMText
 10
0.0
 20
-35.5120161485
 30
0.0
 40
5.2916666667
 41
0.0
 46
0.0
 71
     1
 72
     1
  1
3. Screw fixing with metal fascia
  7
SLDTEXTSTYLE3
 73
     1
 44
1.0
  0
MTEXT
  5
A8
330
9D
100
AcDbEntity
  8
SLD-0
 62
     0
 48
10.0
100
AcDbMText
 10
0.0
 20
-42.5675716188
 30
0.0
 40
5.2916666667
 41
0.0
 46
0.0
 71
     1
 72
     1
  1
- Self drilling tek-screws. 6g pan head or wafer head.
  7
SLDTEXTSTYLE3
 73
     1
 44
1.0
  0
ENDBLK
  5
9F
330
9D
100
AcDbEntity
  8
0
100
AcDbBlockEnd
  0
BLOCK
  5
151
330
150
100
AcDbEntity
  8
0
100
AcDbBlockBegin
  2
*D5
 70
     1
 10
0.0
 20
0.0
 30
0.0
  3
*D5
  1

  0
SOLID
  5
153
330
150
100
AcDbEntity
  8
SLD-0
 48
10.0
100
AcDbTrace
 10
132.9515216814
 20
450.9133312045
 30
0.0
 11
133.9675216814
 21
457.5173312045
 31
0.0
 12
131.9355216814
 22
457.5173312045
 32
0.0
 13
131.9355216814
 23
457.5173312045
 33
0.0
  0
SOLID
  5
154
330
150
100
AcDbEntity
  8
SLD-0
 48
10.0
100
AcDbTrace
 10
132.9515216814
 20
523.9636298907
 30
0.0
 11
131.9355216814
 21
517.3596298907
 31
0.0
 12
133.9675216814
 22
517.3596298907
 32
0.0
 13
133.9675216814
 23
517.3596298907
 33
0.0
  0
LINE
  5
155
330
150
100
AcDbEntity
  8
SLD-0
 48
10.0
100
AcDbLine
 10
152.291268988
 20
450.9133312045
 30
0.0
 11
130.9515216814
 21
450.9133312045
 31
0.0
  0
LINE
  5
156
330
150
100
AcDbEntity
  8
SLD-0
 48
10.0
100
AcDbLine
 10
156.3431957342
 20
523.9636298907
 30
0.0
 11
130.9515216814
 21
523.9636298907
 31
0.0
  0
LINE
  5
157
330
150
100
AcDbEntity
  8
SLD-0
 48
10.0
100
AcDbLine
 10
132.9515216814
 20
450.9133312045
 30
0.0
 11
132.9515216814
 21
523.9636298907
 31
0.0
  0
MTEXT
  5
158
330
150
100
AcDbEntity
  8
SLD-0
 48
10.0
100
AcDbMText
 10
123.9280478522
 20
482.589775114
 30
0.0
 40
7.0
 41
0.0
 46
0.0
 71
     1
 72
     1
  1
73
  7
SLDTEXTSTYLE3
 11
6.123233995736766E-17
 21
1.0
 31
0.0
 73
     1
 44
1.0
  0
ENDBLK
  5
152
330
150
100
AcDbEntity
  8
0
100
AcDbBlockEnd
  0
BLOCK
  5
15B
330
15A
100
AcDbEntity
  8
0
100
AcDbBlockBegin
  2
*D6
 70
     1
 10
0.0
 20
0.0
 30
0.0
  3
*D6
  1

  0
SOLID
  5
15D
330
15A
100
AcDbEntity
  8
SLD-0
 48
10.0
100
AcDbTrace
 10
153.3431957342
 20
429.5367001883
 30
0.0
 11
159.9471957342
 21
428.5207001883
 31
0.0
 12
159.9471957342
 22
430.5527001883
 32
0.0
 13
159.9471957342
 23
430.5527001883
 33
0.0
  0
SOLID
  5
15E
330
15A
100
AcDbEntity
  8
SLD-0
 48
10.0
100
AcDbTrace
 10
298.9431957342
 20
429.5367001883
 30
0.0
 11
292.3391957342
 21
430.5527001883
 31
0.0
 12
292.3391957342
 22
428.5207001883
 32
0.0
 13
292.3391957342
 23
428.5207001883
 33
0.0
  0
LINE
  5
15F
330
15A
100
AcDbEntity
  8
SLD-0
 48
10.0
100
AcDbLine
 10
153.3431957342
 20
480.7603286572
 30
0.0
 11
153.3431957342
 21
427.5367001883
 31
0.0
  0
LINE
  5
160
330
15A
100
AcDbEntity
  8
SLD-0
 48
10.0
100
AcDbLine
 10
298.9431957342
 20
559.2136298907
 30
0.0
 11
298.9431957342
 21
427.5367001883
 31
0.0
  0
LINE
  5
161
330
15A
100
AcDbEntity
  8
SLD-0
 48
10.0
100
AcDbLine
 10
153.3431957342
 20
429.5367001883
 30
0.0
 11
298.9431957342
 21
429.5367001883
 31
0.0
  0
MTEXT
  5
162
330
15A
100
AcDbEntity
  8
SLD-0
 48
10.0
100
AcDbMText
 10
225.7384052051
 20
438.5601740175
 30
0.0
 40
7.0
 41
0.0
 46
0.0
 71
     1
 72
     1
  1
146
  7
SLDTEXTSTYLE3
 73
     1
 44
1.0
  0
ENDBLK
  5
15C
330
15A
100
AcDbEntity
  8
0
100
AcDbBlockEnd
  0
BLOCK
  5
165
330
164
100
AcDbEntity
  8
0
100
AcDbBlockBegin
  2
*D7
 70
     1
 10
0.0
 20
0.0
 30
0.0
  3
*D7
  1

  0
SOLID
  5
167
330
164
100
AcDbEntity
  8
SLD-0
 48
10.0
100
AcDbTrace
 10
319.0962761841
 20
561.2633350037
 30
0.0
 11
318.0802761841
 21
554.6593350037
 31
0.0
 12
320.1122761841
 22
554.6593350037
 32
0.0
 13
320.1122761841
 23
554.6593350037
 33
0.0
  0
SOLID
  5
168
330
164
100
AcDbEntity
  8
SLD-0
 48
10.0
100
AcDbTrace
 10
319.0962761841
 20
450.9133312045
 30
0.0
 11
320.1122761841
 21
457.5173312045
 31
0.0
 12
318.0802761841
 22
457.5173312045
 32
0.0
 13
318.0802761841
 23
457.5173312045
 33
0.0
  0
LINE
  5
169
330
164
100
AcDbEntity
  8
SLD-0
 48
10.0
100
AcDbLine
 10
300.2158838769
 20
561.2633350037
 30
0.0
 11
321.0962761841
 21
561.2633350037
 31
0.0
  0
LINE
  5
16A
330
164
100
AcDbEntity
  8
SLD-0
 48
10.0
100
AcDbLine
 10
156.291268988
 20
450.9133312045
 30
0.0
 11
321.0962761841
 21
450.9133312045
 31
0.0
  0
LINE
  5
16B
330
164
100
AcDbEntity
  8
SLD-0
 48
10.0
100
AcDbLine
 10
319.0962761841
 20
561.2633350037
 30
0.0
 11
319.0962761841
 21
450.9133312045
 31
0.0
  0
MTEXT
  5
16C
330
164
100
AcDbEntity
  8
SLD-0
 48
10.0
100
AcDbMText
 10
310.072802355
 20
493.1144347963
 30
0.0
 40
7.0
 41
0.0
 46
0.0
 71
     1
 72
     1
  1
110
  7
SLDTEXTSTYLE3
 11
-7.044195017643634E-15
 21
1.0
 31
0.0
 73
     1
 44
1.0
  0
ENDBLK
  5
166
330
164
100
AcDbEntity
  8
0
100
AcDbBlockEnd
  0
BLOCK
  5
235
330
234
100
AcDbEntity
  8
0
100
AcDbBlockBegin
  2
*D8
 70
     1
 10
0.0
 20
0.0
 30
0.0
  3
*D8
  1

  0
SOLID
  5
237
330
234
100
AcDbEntity
  8
SLD-0
 48
10.0
100
AcDbTrace
 10
130.620000291
 20
365.7960583632
 30
0.0
 11
124.016000291
 21
366.8120583632
 31
0.0
 12
124.016000291
 22
364.7800583632
 32
0.0
 13
124.016000291
 23
364.7800583632
 33
0.0
  0
SOLID
  5
238
330
234
100
AcDbEntity
  8
SLD-0
 48
10.0
100
AcDbTrace
 10
70.840000291
 20
365.7960583632
 30
0.0
 11
77.444000291
 21
364.7800583632
 31
0.0
 12
77.444000291
 22
366.8120583632
 32
0.0
 13
77.444000291
 23
366.8120583632
 33
0.0
  0
LINE
  5
239
330
234
100
AcDbEntity
  8
SLD-0
 48
10.0
100
AcDbLine
 10
130.620000291
 20
291.520802268
 30
0.0
 11
130.620000291
 21
367.7960583632
 31
0.0
  0
LINE
  5
23A
330
234
100
AcDbEntity
  8
SLD-0
 48
10.0
100
AcDbLine
 10
70.840000291
 20
291.520802268
 30
0.0
 11
70.840000291
 21
367.7960583632
 31
0.0
  0
LINE
  5
23B
330
234
100
AcDbEntity
  8
SLD-0
 48
10.0
100
AcDbLine
 10
130.620000291
 20
365.7960583632
 30
0.0
 11
70.840000291
 21
365.7960583632
 31
0.0
  0
MTEXT
  5
23C
330
234
100
AcDbEntity
  8
SLD-0
 48
10.0
100
AcDbMText
 10
95.6016800908
 20
374.8195321924
 30
0.0
 40
7.0
 41
0.0
 46
0.0
 71
     1
 72
     1
  1
60
  7
SLDTEXTSTYLE3
 73
     1
 44
1.0
  0
ENDBLK
  5
236
330
234
100
AcDbEntity
  8
0
100
AcDbBlockEnd
  0
BLOCK
  5
23F
330
23E
100
AcDbEntity
  8
0
100
AcDbBlockBegin
  2
*D9
 70
     1
 10
0.0
 20
0.0
 30
0.0
  3
*D9
  1

  0
SOLID
  5
241
330
23E
100
AcDbEntity
  8
SLD-0
 48
10.0
100
AcDbTrace
 10
124.600000291
 20
213.3438725657
 30
0.0
 11
117.996000291
 21
214.3598725657
 31
0.0
 12
117.996000291
 22
212.3278725657
 32
0.0
 13
117.996000291
 23
212.3278725657
 33
0.0
  0
SOLID
  5
242
330
23E
100
AcDbEntity
  8
SLD-0
 48
10.0
100
AcDbTrace
 10
76.860000291
 20
213.3438725657
 30
0.0
 11
83.464000291
 21
212.3278725657
 31
0.0
 12
83.464000291
 22
214.3598725657
 32
0.0
 13
83.464000291
 23
214.3598725657
 33
0.0
  0
LINE
  5
243
330
23E
100
AcDbEntity
  8
SLD-0
 48
10.0
100
AcDbLine
 10
124.600000291
 20
266.725802268
 30
0.0
 11
124.600000291
 21
211.3438725657
 31
0.0
  0
LINE
  5
244
330
23E
100
AcDbEntity
  8
SLD-0
 48
10.0
100
AcDbLine
 10
76.860000291
 20
266.725802268
 30
0.0
 11
76.860000291
 21
211.3438725657
 31
0.0
  0
LINE
  5
245
330
23E
100
AcDbEntity
  8
SLD-0
 48
10.0
100
AcDbLine
 10
124.600000291
 20
213.3438725657
 30
0.0
 11
76.860000291
 21
213.3438725657
 31
0.0
  0
MTEXT
  5
246
330
23E
100
AcDbEntity
  8
SLD-0
 48
10.0
100
AcDbMText
 10
95.6016800908
 20
222.3673463948
 30
0.0
 40
7.0
 41
0.0
 46
0.0
 71
     1
 72
     1
  1
48
  7
SLDTEXTSTYLE3
 73
     1
 44
1.0
  0
ENDBLK
  5
240
330
23E
100
AcDbEntity
  8
0
100
AcDbBlockEnd
  0
BLOCK
  5
249
330
248
100
AcDbEntity
  8
0
100
AcDbBlockBegin
  2
*D10
 70
     1
 10
0.0
 20
0.0
 30
0.0
  3
*D10
  1

  0
SOLID
  5
24B
330
248
100
AcDbEntity
  8
SLD-0
 48
10.0
100
AcDbTrace
 10
138.273422962
 20
383.2981971749
 30
0.0
 11
131.669422962
 21
384.3141971749
 31
0.0
 12
131.669422962
 22
382.2821971749
 32
0.0
 13
131.669422962
 23
382.2821971749
 33
0.0
  0
SOLID
  5
24C
330
248
100
AcDbEntity
  8
SLD-0
 48
10.0
100
AcDbTrace
 10
62.873422962
 20
383.2981971749
 30
0.0
 11
69.477422962
 21
382.2821971749
 31
0.0
 12
69.477422962
 22
384.3141971749
 32
0.0
 13
69.477422962
 23
384.3141971749
 33
0.0
  0
LINE
  5
24D
330
248
100
AcDbEntity
  8
SLD-0
 48
10.0
100
AcDbLine
 10
138.273422962
 20
298.0339183477
 30
0.0
 11
138.273422962
 21
385.2981971749
 31
0.0
  0
LINE
  5
24E
330
248
100
AcDbEntity
  8
SLD-0
 48
10.0
100
AcDbLine
 10
62.873422962
 20
298.0339183477
 30
0.0
 11
62.873422962
 21
385.2981971749
 31
0.0
  0
LINE
  5
24F
330
248
100
AcDbEntity
  8
SLD-0
 48
10.0
100
AcDbLine
 10
138.273422962
 20
383.2981971749
 30
0.0
 11
62.873422962
 21
383.2981971749
 31
0.0
  0
MTEXT
  5
250
330
248
100
AcDbEntity
  8
SLD-0
 48
10.0
100
AcDbMText
 10
95.6016800908
 20
392.321671004
 30
0.0
 40
7.0
 41
0.0
 46
0.0
 71
     1
 72
     1
  1
75
  7
SLDTEXTSTYLE3
 73
     1
 44
1.0
  0
ENDBLK
  5
24A
330
248
100
AcDbEntity
  8
0
100
AcDbBlockEnd
  0
BLOCK
  5
254
330
253
100
AcDbEntity
  8
0
100
AcDbBlockBegin
  2
*D11
 70
     1
 10
0.0
 20
0.0
 30
0.0
  3
*D11
  1

  0
SOLID
  5
256
330
253
100
AcDbEntity
  8
SLD-0
 48
10.0
100
AcDbTrace
 10
132.0589625907
 20
290.9597645678
 30
0.0
 11
137.4471162634
 21
294.911077261
 31
0.0
 12
136.010275284
 22
296.3479182404
 32
0.0
 13
136.010275284
 23
296.3479182404
 33
0.0
  0
LINE
  5
257
330
253
100
AcDbEntity
  8
SLD-0
 48
10.0
100
AcDbLine
 10
132.0589625907
 20
290.9597645678
 30
0.0
 11
162.9175995327
 21
321.8184015097
 31
0.0
  0
LINE
  5
258
330
253
100
AcDbEntity
  8
SLD-0
 48
10.0
100
AcDbLine
 10
132.0589625907
 20
290.9597645678
 30
0.0
 11
129.1810379913
 21
288.0818399683
 31
0.0
  0
MTEXT
  5
259
330
253
100
AcDbEntity
  8
SLD-0
 48
10.0
100
AcDbMText
 10
143.2192174694
 20
314.7843734056
 30
0.0
 40
7.0
 41
0.0
 46
0.0
 71
     1
 72
     1
  1
%%c
  7
SLDTEXTSTYLE3
 11
0.7071067811865465
 21
0.7071067811865486
 31
0.0
 73
     1
 44
1.0
  0
MTEXT
  5
25A
330
253
100
AcDbEntity
  8
SLD-0
 48
10.0
100
AcDbMText
 10
150.6834069819
 20
322.2485624242
 30
0.0
 40
7.0
 41
0.0
 46
0.0
 71
     1
 72
     1
  1
4
  7
SLDTEXTSTYLE3
 11
0.7071067811865465
 21
0.7071067811865486
 31
0.0
 73
     1
 44
1.0
  0
ENDBLK
  5
255
330
253
100
AcDbEntity
  8
0
100
AcDbBlockEnd
  0
BLOCK
  5
2E0
330
2DF
100
AcDbEntity
  8
0
100
AcDbBlockBegin
  2
*D12
 70
     1
 10
0.0
 20
0.0
 30
0.0
  3
*D12
  1

  0
SOLID
  5
2E2
330
2DF
100
AcDbEntity
  8
SLD-0
 48
10.0
100
AcDbTrace
 10
221.519719234
 20
213.3438725657
 30
0.0
 11
228.123719234
 21
212.3278725657
 31
0.0
 12
228.123719234
 22
214.3598725657
 32
0.0
 13
228.123719234
 23
214.3598725657
 33
0.0
  0
SOLID
  5
2E3
330
2DF
100
AcDbEntity
  8
SLD-0
 48
10.0
100
AcDbTrace
 10
367.119719234
 20
213.3438725657
 30
0.0
 11
360.515719234
 21
214.3598725657
 31
0.0
 12
360.515719234
 22
212.3278725657
 32
0.0
 13
360.515719234
 23
212.3278725657
 33
0.0
  0
LINE
  5
2E4
330
2DF
100
AcDbEntity
  8
SLD-0
 48
10.0
100
AcDbLine
 10
221.519719234
 20
264.5675010346
 30
0.0
 11
221.519719234
 21
211.3438725657
 31
0.0
  0
LINE
  5
2E5
330
2DF
100
AcDbEntity
  8
SLD-0
 48
10.0
100
AcDbLine
 10
367.119719234
 20
343.020802268
 30
0.0
 11
367.119719234
 21
211.3438725657
 31
0.0
  0
LINE
  5
2E6
330
2DF
100
AcDbEntity
  8
SLD-0
 48
10.0
100
AcDbLine
 10
221.519719234
 20
213.3438725657
 30
0.0
 11
367.119719234
 21
213.3438725657
 31
0.0
  0
MTEXT
  5
2E7
330
2DF
100
AcDbEntity
  8
SLD-0
 48
10.0
100
AcDbMText
 10
284.8291276976
 20
222.3673463948
 30
0.0
 40
7.0
 41
0.0
 46
0.0
 71
     1
 72
     1
  1
146
  7
SLDTEXTSTYLE3
 73
     1
 44
1.0
  0
ENDBLK
  5
2E1
330
2DF
100
AcDbEntity
  8
0
100
AcDbBlockEnd
  0
BLOCK
  5
2EA
330
2E9
100
AcDbEntity
  8
0
100
AcDbBlockBegin
  2
*D13
 70
     1
 10
0.0
 20
0.0
 30
0.0
  3
*D13
  1

  0
SOLID
  5
2EC
330
2E9
100
AcDbEntity
  8
SLD-0
 48
10.0
100
AcDbTrace
 10
202.2487648082
 20
307.770802268
 30
0.0
 11
201.2327648082
 21
301.166802268
 31
0.0
 12
203.2647648082
 22
301.166802268
 32
0.0
 13
203.2647648082
 23
301.166802268
 33
0.0
  0
SOLID
  5
2ED
330
2E9
100
AcDbEntity
  8
SLD-0
 48
10.0
100
AcDbTrace
 10
202.2487648082
 20
234.7205035818
 30
0.0
 11
203.2647648082
 21
241.3245035818
 31
0.0
 12
201.2327648082
 22
241.3245035818
 32
0.0
 13
201.2327648082
 23
241.3245035818
 33
0.0
  0
LINE
  5
2EE
330
2E9
100
AcDbEntity
  8
SLD-0
 48
10.0
100
AcDbLine
 10
220.519719234
 20
307.770802268
 30
0.0
 11
200.2487648082
 21
307.770802268
 31
0.0
  0
LINE
  5
2EF
330
2E9
100
AcDbEntity
  8
SLD-0
 48
10.0
100
AcDbLine
 10
220.4677924878
 20
234.7205035818
 30
0.0
 11
200.2487648082
 21
234.7205035818
 31
0.0
  0
LINE
  5
2F0
330
2E9
100
AcDbEntity
  8
SLD-0
 48
10.0
100
AcDbLine
 10
202.2487648082
 20
307.770802268
 30
0.0
 11
202.2487648082
 21
234.7205035818
 31
0.0
  0
MTEXT
  5
2F1
330
2E9
100
AcDbEntity
  8
SLD-0
 48
10.0
100
AcDbMText
 10
193.225290979
 20
268.1925295889
 30
0.0
 40
7.0
 41
0.0
 46
0.0
 71
     1
 72
     1
  1
73
  7
SLDTEXTSTYLE3
 11
-7.044195017643634E-15
 21
1.0
 31
0.0
 73
     1
 44
1.0
  0
ENDBLK
  5
2EB
330
2E9
100
AcDbEntity
  8
0
100
AcDbBlockEnd
  0
BLOCK
  5
2F4
330
2F3
100
AcDbEntity
  8
0
100
AcDbBlockBegin
  2
*D14
 70
     1
 10
0.0
 20
0.0
 30
0.0
  3
*D14
  1

  0
SOLID
  5
2F6
330
2F3
100
AcDbEntity
  8
SLD-0
 48
10.0
100
AcDbTrace
 10
387.2727996839
 20
234.7205035818
 30
0.0
 11
388.2887996839
 21
241.3245035818
 31
0.0
 12
386.2567996839
 22
241.3245035818
 32
0.0
 13
386.2567996839
 23
241.3245035818
 33
0.0
  0
SOLID
  5
2F7
330
2F3
100
AcDbEntity
  8
SLD-0
 48
10.0
100
AcDbTrace
 10
387.2727996839
 20
345.070507381
 30
0.0
 11
386.2567996839
 21
338.466507381
 31
0.0
 12
388.2887996839
 22
338.466507381
 32
0.0
 13
388.2887996839
 23
338.466507381
 33
0.0
  0
LINE
  5
2F8
330
2F3
100
AcDbEntity
  8
SLD-0
 48
10.0
100
AcDbLine
 10
224.4677924878
 20
234.7205035818
 30
0.0
 11
389.2727996839
 21
234.7205035818
 31
0.0
  0
LINE
  5
2F9
330
2F3
100
AcDbEntity
  8
SLD-0
 48
10.0
100
AcDbLine
 10
368.3924073767
 20
345.070507381
 30
0.0
 11
389.2727996839
 21
345.070507381
 31
0.0
  0
LINE
  5
2FA
330
2F3
100
AcDbEntity
  8
SLD-0
 48
10.0
100
AcDbLine
 10
387.2727996839
 20
234.7205035818
 30
0.0
 11
387.2727996839
 21
345.070507381
 31
0.0
  0
MTEXT
  5
2FB
330
2F3
100
AcDbEntity
  8
SLD-0
 48
10.0
100
AcDbMText
 10
378.2493258547
 20
269.5579529018
 30
0.0
 40
7.0
 41
0.0
 46
0.0
 71
     1
 72
     1
  1
110
  7
SLDTEXTSTYLE3
 11
6.123233995736766E-17
 21
1.0
 31
0.0
 73
     1
 44
1.0
  0
ENDBLK
  5
2F5
330
2F3
100
AcDbEntity
  8
0
100
AcDbBlockEnd
  0
ENDSEC
  0
SECTION
  2
ENTITIES
  0
IMAGE
  5
75
330
1F
100
AcDbEntity
  8
0
 92
      140
310
8C0000000100000084000000060000000500000035FF55B920C33340E4B0FBB2CCED494000000000000000002B54CAA98D036440E4B0FBB2CCED494000000000000000002B54CAA98D0364403DE4A927F5A95240000000000000000035FF55B920C333403DE4A927F5A95240000000000000000035FF55B920C33340E4B0FB
310
B2CCED49400000000000000000
100
AcDbRasterImage
 90
        0
 10
19.7622180781
 20
51.8578094224
 30
0.0
 11
0.3562152913661852
 21
0.0
 31
0.0
 12
0.0
 22
0.3562152913661857
 32
0.0
 13
394.0
 23
64.0
340
74
 70
     7
280
     0
281
    50
282
    50
283
     0
360
76
 71
     1
 91
        2
 14
-0.5
 24
-0.5
 14
393.5
 24
63.5
  0
LINE
  5
77
330
1F
100
AcDbEntity
  8
SLD-0
  6
Continuous
 62
   250
420
  1644836
 48
10.0
370
    40
100
AcDbLine
 10
20.1576871308
 20
10.4295603132
 30
0.0
 11
410.1576871308
 21
10.4295603132
 31
0.0
  0
LINE
  5
78
330
1F
100
AcDbEntity
  8
SLD-0
  6
Continuous
 62
   250
420
  1644836
 48
10.0
370
    40
100
AcDbLine
 10
0.1576871308
 20
0.4295603132
 30
0.0
 11
420.1576871308
 21
0.4295603132
 31
0.0
  0
LINE
  5
79
330
1F
100
AcDbEntity
  8
SLD-0
  6
Continuous
 62
   250
420
  1644836
 48
10.0
370
    40
100
AcDbLine
 10
0.1576871308
 20
0.4295603132
 30
0.0
 11
0.1576871308
 21
594.4295603132
 31
0.0
  0
LINE
  5
7A
330
1F
100
AcDbEntity
  8
SLD-0
  6
Continuous
 62
   250
420
  1644836
 48
10.0
370
    40
100
AcDbLine
 10
0.1576871308
 20
594.4295603132
 30
0.0
 11
420.1576871308
 21
594.4295603132
 31
0.0
  0
LINE
  5
7B
330
1F
100
AcDbEntity
  8
SLD-0
  6
Continuous
 62
   250
420
  1644836
 48
10.0
370
    40
100
AcDbLine
 10
420.1576871308
 20
0.4295603132
 30
0.0
 11
420.1576871308
 21
594.4295603132
 31
0.0
  0
LINE
  5
7C
330
1F
100
AcDbEntity
  8
SLD-0
  6
Continuous
 62
   250
420
  1644836
 48
10.0
370
    40
100
AcDbLine
 10
410.1576871308
 20
70.13238513
 30
0.0
 11
233.823390649
 21
70.13238513
 31
0.0
  0
LINE
  5
7D
330
1F
100
AcDbEntity
  8
SLD-0
  6
Continuous
 62
   250
420
  1644836
 48
10.0
370
    40
100
AcDbLine
 10
20.1576871308
 20
584.4295603132
 30
0.0
 11
410.1576871308
 21
584.4295603132
 31
0.0
  0
LINE
  5
7E
330
1F
100
AcDbEntity
  8
SLD-0
  6
Continuous
 62
   250
420
  1644836
 48
10.0
370
    40
100
AcDbLine
 10
410.1576871308
 20
10.4295603132
 30
0.0
 11
361.9766236968
 21
10.4295603132
 31
0.0
  0
LINE
  5
7F
330
1F
100
AcDbEntity
  8
SLD-0
  6
Continuous
 62
   250
420
  1644836
 48
10.0
370
    40
100
AcDbLine
 10
20.1576871308
 20
10.4295603132
 30
0.0
 11
20.1576871308
 21
584.4295603132
 31
0.0
  0
LINE
  5
80
330
1F
100
AcDbEntity
  8
SLD-0
  6
Continuous
 62
   250
420
  1644836
 48
10.0
370
    40
100
AcDbLine
 10
20.1576871308
 20
22.4714997202
 30
0.0
 11
410.1576871308
 21
22.4714997202
 31
0.0
  0
LINE
  5
81
330
1F
100
AcDbEntity
  8
SLD-0
  6
Continuous
 62
   250
420
  1644836
 48
10.0
370
    40
100
AcDbLine
 10
410.1576871308
 20
86.7418545154
 30
0.0
 11
20.2216418234
 21
86.7418545154
 31
0.0
  0
LINE
  5
82
330
1F
100
AcDbEntity
  8
SLD-0
  6
Continuous
 62
   250
420
  1644836
 48
10.0
370
    40
100
AcDbLine
 10
420.1576871308
 20
584.4295603132
 30
0.0
 11
420.1576871308
 21
594.4295603132
 31
0.0
  0
LINE
  5
83
330
1F
100
AcDbEntity
  8
SLD-0
  6
Continuous
 62
   250
420
  1644836
 48
10.0
370
    40
100
AcDbLine
 10
159.5108409238
 20
44.3624900698
 30
0.0
 11
159.5108409238
 21
86.7418545154
 31
0.0
  0
LINE
  5
84
330
1F
100
AcDbEntity
  8
SLD-0
  6
Continuous
 62
   250
420
  1644836
 48
10.0
370
    40
100
AcDbLine
 10
20.2216418234
 20
120.7418545154
 30
0.0
 11
20.2216418234
 21
10.2418545154
 31
0.0
  0
LINE
  5
85
330
1F
100
AcDbEntity
  8
SLD-0
  6
Continuous
 62
   250
420
  1644836
 48
10.0
370
    40
100
AcDbLine
 10
20.1576871308
 20
44.4295603132
 30
0.0
 11
410.1576871308
 21
44.2418545154
 31
0.0
  0
LINE
  5
86
330
1F
100
AcDbEntity
  8
SLD-0
  6
Continuous
 62
   250
420
  1644836
 48
10.0
370
    40
100
AcDbLine
 10
233.8161032378
 20
86.7418545154
 30
0.0
 11
233.8347128952
 21
44.3267182194
 31
0.0
  0
LINE
  5
87
330
1F
100
AcDbEntity
  8
SLD-0
  6
Continuous
 62
   250
420
  1644836
 48
10.0
370
    40
100
AcDbLine
 10
321.7576871308
 20
10.4295603132
 30
0.0
 11
321.7576871308
 21
22.4714997202
 31
0.0
  0
LINE
  5
88
330
1F
100
AcDbEntity
  8
SLD-0
  6
Continuous
 62
   250
420
  1644836
 48
10.0
370
    40
100
AcDbLine
 10
384.1576871308
 20
22.4714997202
 30
0.0
 11
384.1576871308
 21
44.4295603132
 31
0.0
  0
LINE
  5
89
330
1F
100
AcDbEntity
  8
SLD-0
  6
Continuous
 62
   250
420
  1644836
 48
10.0
370
    40
100
AcDbLine
 10
410.1576871308
 20
27.4295603132
 30
0.0
 11
384.1576871308
 21
27.4295603132
 31
0.0
  0
LINE
  5
8A
330
1F
100
AcDbEntity
  8
SLD-0
  6
Continuous
 62
   250
420
  1644836
 48
10.0
370
    40
100
AcDbLine
 10
410.1576871308
 20
10.4295603132
 30
0.0
 11
410.1576871308
 21
584.4295603132
 31
0.0
  0
INSERT
  5
8B
330
1F
100
AcDbEntity
  8
0
  6
Continuous
 62
     7
 48
10.0
100
AcDbBlockReference
  2
SW_NOTE_0
 10
24.6101203674
 20
33.6779209004
 30
0.0
 41
0.1
 42
0.1
 43
0.1
  0
INSERT
  5
8C
330
1F
100
AcDbEntity
  8
0
  6
Continuous
 62
     7
 48
10.0
100
AcDbBlockReference
  2
SW_NOTE_1
 10
174.393222364
 20
65.793871431
 30
0.0
 41
0.1
 42
0.1
 43
0.1
  0
MTEXT
  5
8D
330
1F
100
AcDbEntity
  8
SLD-0
 62
   250
420
  1644836
 48
10.0
100
AcDbMText
 10
263.973568211
 20
80.2030519812
 30
0.0
 40
6.35
 41
0.0
 46
0.0
 71
     1
 72
     1
  1
FL2 External Bracket
  7
SLDTEXTSTYLE0
 73
     1
 44
1.0
  0
MTEXT
  5
8F
330
1F
100
AcDbEntity
  8
SLD-0
 62
   250
420
  1644836
 48
10.0
100
AcDbMText
 10
391.9996568234
 20
37.737972039
 30
0.0
 40
5.8208333334
 41
0.0
 46
0.0
 71
     1
 72
     1
  1
A4
  7
SLDTEXTSTYLE1
 73
     1
 44
1.0
  0
MTEXT
  5
91
330
1F
100
AcDbEntity
  8
SLD-0
 62
   250
420
  1644836
 48
10.0
100
AcDbMText
 10
328.0562145392
 20
17.0826681713
 30
0.0
 40
3.0
 41
0.0
 46
0.0
 71
     1
 72
     1
  1
SHEET 1 OF 1
  7
SLDTEXTSTYLE2
 73
     1
 44
1.0
  0
MTEXT
  5
92
330
1F
100
AcDbEntity
  8
SLD-0
 62
   250
420
  1644836
 48
10.0
100
AcDbMText
 10
28.7594622712
 20
17.0826681713
 30
0.0
 40
3.0
 41
0.0
 46
0.0
 71
     1
 72
     1
  1
SCALE:
  7
SLDTEXTSTYLE1
 73
     1
 44
1.0
  0
MTEXT
  5
93
330
1F
100
AcDbEntity
  8
SLD-0
 62
   250
420
  1644836
 48
10.0
100
AcDbMText
 10
185.4072293958
 20
80.3029323193
 30
0.0
 40
3.0
 41
0.0
 46
0.0
 71
     1
 72
     1
  1
CONTACT:
  7
SLDTEXTSTYLE1
 73
     1
 44
1.0
  0
MTEXT
  5
94
330
1F
100
AcDbEntity
  8
SLD-0
 62
   250
420
  1644836
 48
10.0
100
AcDbMText
 10
47.0733942744
 20
18.0325537128
 30
0.0
 40
4.2333333334
 41
0.0
 46
0.0
 71
     1
 72
     1
  1
1:2
  7
SLDTEXTSTYLE0
 73
     1
 44
1.0
  0
MTEXT
  5
95
330
1F
100
AcDbEntity
  8
SLD-0
 62
   250
420
  1644836
 48
10.0
100
AcDbMText
 10
244.2883150776
 20
77.5943535709
 30
0.0
 40
3.0
 41
0.0
 46
0.0
 71
     1
 72
     1
  1
DWG NO.
  7
SLDTEXTSTYLE1
 73
     1
 44
1.0
  0
INSERT
  5
9B
330
1F
100
AcDbEntity
  8
SLD-0
 62
   250
420
  1644836
 48
10.0
100
AcDbBlockReference
  2
SW_NOTE_0_1
 10
243.2533295608
 20
51.2971817136
 30
0.0
  0
MTEXT
  5
9C
330
1F
100
AcDbEntity
  8
SLD-0
 62
   250
420
  1644836
 48
10.0
100
AcDbMText
 10
257.9750245986
 20
16.9829951985
 30
0.0
 40
3.0
 41
0.0
 46
0.0
 71
     1
 72
     1
  1
DATE: 30/04/12
  7
SLDTEXTSTYLE1
 73
     1
 44
1.0
  0
INSERT
  5
A9
330
1F
100
AcDbEntity
  8
SLD-0
 48
10.0
100
AcDbBlockReference
  2
SW_NOTE_1_1
 10
28.7594622712
 20
147.052075245
 30
0.0
  0
LINE
  5
AA
330
1F
100
AcDbEntity
  8
0
  6
Continuous
 62
     7
 48
10.0
370
    15
100
AcDbLine
 10
260.8852230625
 20
454.3457169845
 30
0.0
 11
261.1229179101
 21
454.4492498457
 31
0.0
  0
SPLINE
  5
AB
330
1F
100
AcDbEntity
  8
0
  6
Continuous
 62
     7
 48
10.0
370
    15
100
AcDbSpline
210
0.0
220
0.0
230
1.0
 70
    24
 71
     3
 72
    11
 73
     7
 74
     0
 42
0.00000001
 43
0.00000001
 40
0.0
 40
0.0
 40
0.0
 40
0.0
 40
0.2500041860853949
 40
0.5000000002681915
 40
0.7499958144691808
 40
1.0
 40
1.0
 40
1.0
 40
1.0
 10
153.343195734178
 20
516.7039243232407
 30
0.0
 10
153.343195734178
 20
516.2721732370603
 30
0.0
 10
153.343195734178
 20
515.4086855227694
 30
0.0
 10
153.343195734178
 20
513.8022393311494
 30
0.0
 10
153.343195734178
 20
512.0967553000992
 30
0.0
 10
153.343195734178
 20
510.9851142657713
 30
0.0
 10
153.343195734178
 20
510.4292844426936
 30
0.0
  0
LWPOLYLINE
  5
AC
330
1F
100
AcDbEntity
  8
0
  6
Continuous
 62
     7
 48
10.0
370
    15
100
AcDbPolyline
 90
        9
 70
   128
 43
0.0
 10
154.3431957342
 20
510.1454009038
 10
154.1481054122
 20
510.1508556464
 10
153.9605123018
 20
510.1670102515
 10
153.7876255012
 20
510.1932439066
 10
153.636088953
 20
510.2285484672
 10
153.5117261219
 20
510.2715671988
 10
153.4193162017
 20
510.3206469156
 10
153.3624104538
 20
510.3739015117
 10
153.3431957342
 20
510.4292844427
  0
LINE
  5
AD
330
1F
100
AcDbEntity
  8
0
  6
Continuous
 62
     7
 48
10.0
370
    15
100
AcDbLine
 10
154.3431957342
 20
510.1454009038
 30
0.0
 11
154.3431957342
 21
517.4110311044
 31
0.0
  0
ARC
  5
AE
330
1F
100
AcDbEntity
  8
0
  6
Continuous
 62
     7
 48
100.0
370
    15
100
AcDbCircle
 10
154.2181957342
 20
516.527147628
 30
0.0
 40
0.8926785535680946
100
AcDbArc
 50
81.9505330245
 51
168.5782463411
  0
LINE
  5
AF
330
1F
100
AcDbEntity
  8
0
  6
Continuous
 62
     7
 48
10.0
370
    15
100
AcDbLine
 10
158.3431957342
 20
510.1454009038
 30
0.0
 11
154.3431957342
 21
510.1454009038
 31
0.0
  0
LINE
  5
B0
330
1F
100
AcDbEntity
  8
0
  6
Continuous
 62
     7
 48
10.0
370
    15
100
AcDbLine
 10
158.3431957342
 20
510.1454009038
 30
0.0
 11
158.3431957342
 21
517.4110311044
 31
0.0
  0
LINE
  5
B1
330
1F
100
AcDbEntity
  8
0
  6
Continuous
 62
     7
 48
10.0
370
    15
100
AcDbLine
 10
158.3431957342
 20
517.4110311044
 30
0.0
 11
154.3431957342
 21
517.4110311044
 31
0.0
  0
LINE
  5
B2
330
1F
100
AcDbEntity
  8
0
  6
Continuous
 62
     7
 48
10.0
370
    15
100
AcDbLine
 10
158.3431957342
 20
517.4110311044
 30
0.0
 11
158.3431957342
 21
523.9636298907
 31
0.0
  0
LINE
  5
B3
330
1F
100
AcDbEntity
  8
0
  6
Continuous
 62
     7
 48
10.0
370
    15
100
AcDbLine
 10
158.3431957342
 20
482.4764451183
 30
0.0
 11
158.3431957342
 21
510.1454009038
 31
0.0
  0
LINE
  5
B4
330
1F
100
AcDbEntity
  8
0
  6
Continuous
 62
     7
 48
10.0
370
    15
100
AcDbLine
 10
158.3431957342
 20
477.4636298907
 30
0.0
 11
158.3431957342
 21
482.4764451183
 31
0.0
  0
LINE
  5
B5
330
1F
100
AcDbEntity
  8
0
  6
Continuous
 62
     7
 48
10.0
370
    15
100
AcDbLine
 10
154.3431957342
 20
482.4764451183
 30
0.0
 11
154.3431957342
 21
510.1454009038
 31
0.0
  0
LINE
  5
B6
330
1F
100
AcDbEntity
  8
0
  6
Continuous
 62
     7
 48
10.0
370
    15
100
AcDbLine
 10
158.3431957342
 20
482.4764451183
 30
0.0
 11
154.3431957342
 21
482.4764451183
 31
0.0
  0
LINE
  5
B7
330
1F
100
AcDbEntity
  8
0
  6
Continuous
 62
     7
 48
10.0
370
    15
100
AcDbLine
 10
153.3431957342
 20
510.4292844427
 30
0.0
 11
153.3431957342
 21
482.7603286572
 31
0.0
  0
LWPOLYLINE
  5
B8
330
1F
100
AcDbEntity
  8
0
  6
Continuous
 62
     7
 48
10.0
370
    15
100
AcDbPolyline
 90
        9
 70
   128
 43
0.0
 10
154.3431957342
 20
482.4764451183
 10
154.1481054122
 20
482.4818998609
 10
153.9605123018
 20
482.498054466
 10
153.7876255012
 20
482.5242881212
 10
153.636088953
 20
482.5595926818
 10
153.5117261219
 20
482.6026114134
 10
153.4193162017
 20
482.6516911302
 10
153.3624104538
 20
482.7049457262
 10
153.3431957342
 20
482.7603286572
  0
LINE
  5
B9
330
1F
100
AcDbEntity
  8
0
  6
Continuous
 62
     7
 48
10.0
370
    15
100
AcDbLine
 10
153.3431957342
 20
463.2019586246
 30
0.0
 11
153.3431957342
 21
451.911982101
 31
0.0
  0
LINE
  5
BA
330
1F
100
AcDbEntity
  8
0
  6
Continuous
 62
     7
 48
10.0
370
    15
100
AcDbLine
 10
153.3431957342
 20
465.0007644644
 30
0.0
 11
153.3431957342
 21
463.2019586246
 31
0.0
  0
LINE
  5
BB
330
1F
100
AcDbEntity
  8
0
  6
Continuous
 62
     7
 48
10.0
370
    15
100
AcDbLine
 10
153.3431957342
 20
478.4636298907
 30
0.0
 11
153.3431957342
 21
465.0007644644
 31
0.0
  0
SPLINE
  5
BC
330
1F
100
AcDbEntity
  8
0
  6
Continuous
 62
     7
 48
10.0
370
    15
100
AcDbSpline
210
0.0
220
0.0
230
1.0
 70
    24
 71
     3
 72
    11
 73
     7
 74
     0
 42
0.00000001
 43
0.00000001
 40
0.0
 40
0.0
 40
0.0
 40
0.0
 40
0.249999922450328
 40
0.5000000002482631
 40
0.750000078015547
 40
1.0
 40
1.0
 40
1.0
 40
1.0
 10
153.343195734178
 20
482.7603286572338
 30
0.0
 10
153.343195734178
 20
482.1616686675989
 30
0.0
 10
153.343195734178
 20
480.9643483163272
 30
0.0
 10
153.343195734178
 20
479.5827365996491
 30
0.0
 10
153.343195734178
 20
478.6428278077042
 30
0.0
 10
153.343195734178
 20
478.5233625172888
 30
0.0
 10
153.343195734178
 20
478.4636298906918
 30
0.0
  0
LINE
  5
BD
330
1F
100
AcDbEntity
  8
0
  6
Continuous
 62
     7
 48
10.0
370
    15
100
AcDbLine
 10
153.3431957342
 20
522.9636298907
 30
0.0
 11
153.3431957342
 21
516.7039243232
 31
0.0
  0
LINE
  5
BE
330
1F
100
AcDbEntity
  8
0
  6
Continuous
 62
     7
 48
10.0
370
    15
100
AcDbLine
 10
154.3431957342
 20
517.4110311044
 30
0.0
 11
154.3431957342
 21
523.9636298907
 31
0.0
  0
ARC
  5
BF
330
1F
100
AcDbEntity
  8
0
  6
Continuous
 62
     7
 48
100.0
370
    15
100
AcDbCircle
 10
154.3431957342
 20
522.9636298907
 30
0.0
 40
1.0
100
AcDbArc
 50
90.0
 51
180.0
  0
LINE
  5
C0
330
1F
100
AcDbEntity
  8
0
  6
Continuous
 62
     7
 48
10.0
370
    15
100
AcDbLine
 10
158.3431957342
 20
523.9636298907
 30
0.0
 11
154.3431957342
 21
523.9636298907
 31
0.0
  0
ARC
  5
C1
330
1F
100
AcDbEntity
  8
0
  6
Continuous
 62
     7
 48
100.0
370
    15
100
AcDbCircle
 10
154.3431957342
 20
478.4636298907
 30
0.0
 40
1.0
100
AcDbArc
 50
180.0
 51
270.0
  0
LINE
  5
C2
330
1F
100
AcDbEntity
  8
0
  6
Continuous
 62
     7
 48
10.0
370
    15
100
AcDbLine
 10
154.3431957342
 20
477.4636298907
 30
0.0
 11
154.3431957342
 21
482.4764451183
 31
0.0
  0
LINE
  5
C3
330
1F
100
AcDbEntity
  8
0
  6
Continuous
 62
     7
 48
10.0
370
    15
100
AcDbLine
 10
158.3431957342
 20
477.4636298907
 30
0.0
 11
154.3431957342
 21
477.4636298907
 31
0.0
  0
LINE
  5
C4
330
1F
100
AcDbEntity
  8
0
  6
Continuous
 62
     7
 48
10.0
370
    15
100
AcDbLine
 10
158.3431957342
 20
523.9636298907
 30
0.0
 11
169.4431957342
 21
523.9636298907
 31
0.0
  0
LINE
  5
C5
330
1F
100
AcDbEntity
  8
0
  6
Continuous
 62
     7
 48
10.0
370
    15
100
AcDbLine
 10
158.3431957342
 20
521.0136298907
 30
0.0
 11
165.5831957342
 21
521.0136298907
 31
0.0
  0
LINE
  5
C6
330
1F
100
AcDbEntity
  8
0
  6
Continuous
 62
     7
 48
10.0
370
    15
100
AcDbLine
 10
165.5831957342
 20
521.0136298907
 30
0.0
 11
165.5883174927
 21
520.9995579749
 31
0.0
  0
LINE
  5
C7
330
1F
100
AcDbEntity
  8
0
  6
Continuous
 62
     7
 48
10.0
370
    15
100
AcDbLine
 10
166.3476157319
 20
519.2750031897
 30
0.0
 11
169.3647941926
 21
520.969595812
 31
0.0
  0
LINE
  5
C8
330
1F
100
AcDbEntity
  8
0
  6
Continuous
 62
     7
 48
10.0
370
    15
100
AcDbLine
 10
169.4431957342
 20
523.9636298907
 30
0.0
 11
169.3647941926
 21
520.969595812
 31
0.0
  0
SPLINE
  5
C9
330
1F
100
AcDbEntity
  8
0
  6
Continuous
 62
     7
 48
10.0
370
    15
100
AcDbSpline
210
0.0
220
0.0
230
1.0
 70
    24
 71
     3
 72
    11
 73
     7
 74
     0
 42
0.00000001
 43
0.00000001
 40
0.0
 40
0.0
 40
0.0
 40
0.0
 40
0.2499267886957064
 40
0.4998972244398678
 40
0.7499254613144807
 40
1.0
 40
1.0
 40
1.0
 40
1.0
 10
294.283195734178
 20
542.2147467960345
 30
0.0
 10
294.283195734178
 20
542.4028446056979
 30
0.0
 10
294.283195734178
 20
542.779073074301
 30
0.0
 10
294.283195734178
 20
543.2381515985587
 30
0.0
 10
294.283195734178
 20
543.5530540120092
 30
0.0
 10
294.283195734178
 20
543.5934366848599
 30
0.0
 10
294.283195734178
 20
543.6136298906919
 30
0.0
  0
SPLINE
  5
CA
330
1F
100
AcDbEntity
  8
0
  6
Continuous
 62
     7
 48
10.0
370
    15
100
AcDbSpline
210
0.0
220
0.0
230
1.0
 70
    24
 71
     3
 72
    11
 73
     7
 74
     0
 42
0.00000001
 43
0.00000001
 40
0.0
 40
0.0
 40
0.0
 40
0.0
 40
0.2613571981390084
 40
0.5301379647896197
 40
0.7808621042012537
 40
1.0
 40
1.0
 40
1.0
 40
1.0
 10
294.283195734178
 20
543.4571172505626
 30
0.0
 10
294.283195734178
 20
544.8369583484636
 30
0.0
 10
294.283195734178
 20
547.6358334381224
 30
0.0
 10
294.283195734178
 20
551.528860896612
 30
0.0
 10
294.283195734178
 20
554.9819931749803
 30
0.0
 10
294.283195734178
 20
556.9361755352916
 30
0.0
 10
294.283195734178
 20
557.8475822426966
 30
0.0
  0
LINE
  5
CB
330
1F
100
AcDbEntity
  8
0
  6
Continuous
 62
     7
 48
10.0
370
    15
100
AcDbLine
 10
294.2831957342
 20
558.6219796687
 30
0.0
 11
294.2831957342
 21
558.3361774088
 31
0.0
  0
LINE
  5
CC
330
1F
100
AcDbEntity
  8
0
  6
Continuous
 62
     7
 48
10.0
370
    15
100
AcDbLine
 10
294.2831957342
 20
558.6253339715
 30
0.0
 11
294.2831957342
 21
559.1265002294
 31
0.0
  0
SPLINE
  5
CD
330
1F
100
AcDbEntity
  8
0
  6
Continuous
 62
     7
 48
10.0
370
    15
100
AcDbSpline
210
0.0
220
0.0
230
1.0
 70
     8
 71
     3
 72
    11
 73
     7
 74
     0
 42
0.00000001
 43
0.00000001
 40
0.0
 40
0.0
 40
0.0
 40
0.0
 40
0.2509300871828814
 40
0.5008233166442215
 40
0.750348180586012
 40
1.0
 40
1.0
 40
1.0
 40
1.0
 10
297.9260148626099
 20
557.7768879908684
 30
0.0
 10
297.861514792229
 20
556.6199032515899
 30
0.0
 10
297.7327811695111
 20
554.3107145012989
 30
0.0
 10
297.5478822540575
 20
550.4897000316474
 30
0.0
 10
297.3657626376167
 20
546.4496908272771
 30
0.0
 10
297.2579504890835
 20
543.632960981521
 30
0.0
 10
297.2040307048995
 20
542.2242378695694
 30
0.0
  0
LINE
  5
CE
330
1F
100
AcDbEntity
  8
0
  6
Continuous
 62
     7
 48
10.0
370
    15
100
AcDbLine
 10
294.5239735994
 20
558.2990902775
 30
0.0
 11
297.9260155653
 21
557.7768895549
 31
0.0
  0
LINE
  5
CF
330
1F
100
AcDbEntity
  8
0
  6
Continuous
 62
     7
 48
10.0
370
    15
100
AcDbLine
 10
294.2831956074
 20
542.2242322342
 30
0.0
 11
294.2832086459
 21
543.2590032365
 31
0.0
  0
SPLINE
  5
D0
330
1F
100
AcDbEntity
  8
0
  6
Continuous
 62
     7
 48
10.0
370
    15
100
AcDbSpline
210
0.0
220
0.0
230
1.0
 70
    24
 71
     3
 72
     9
 73
     5
 74
     0
 42
0.00000001
 43
0.00000001
 40
0.0
 40
0.0
 40
0.0
 40
0.0
 40
0.4340316572188554
 40
1.0
 40
1.0
 40
1.0
 40
1.0
 10
297.2040607412645
 20
542.224217690857
 30
0.0
 10
296.781017835974
 20
542.224217690857
 30
0.0
 10
295.8063356941199
 20
542.224217690857
 30
0.0
 10
294.8345657482895
 20
542.224217690857
 30
0.0
 10
294.2845747224834
 20
542.224217690857
 30
0.0
  0
SPLINE
  5
D1
330
1F
100
AcDbEntity
  8
0
  6
Continuous
 62
     7
 48
10.0
370
    15
100
AcDbSpline
210
0.0
220
0.0
230
1.0
 70
     8
 71
     3
 72
     9
 73
     5
 74
     0
 42
0.00000001
 43
0.00000001
 40
0.0
 40
0.0
 40
0.0
 40
0.0
 40
0.4667247929025103
 40
1.0
 40
1.0
 40
1.0
 40
1.0
 10
297.9260156991415
 20
557.7768880292386
 30
0.0
 10
297.9548981818049
 20
557.8615458040726
 30
0.0
 10
298.0167815081303
 20
558.0429327287043
 30
0.0
 10
298.0558601053205
 20
558.2609569776301
 30
0.0
 10
298.0766997523302
 20
558.3772239041283
 30
0.0
  0
LINE
  5
D2
330
1F
100
AcDbEntity
  8
0
  6
Continuous
 62
     7
 48
10.0
370
    15
100
AcDbLine
 10
298.0767001752
 20
558.3772269403
 30
0.0
 11
294.7014946639
 21
558.9350405483
 31
0.0
  0
LINE
  5
D3
330
1F
100
AcDbEntity
  8
0
  6
Continuous
 62
     7
 48
10.0
370
    15
100
AcDbLine
 10
294.4189917091
 20
558.7059155942
 30
0.0
 11
294.7014946384
 21
558.9350403854
 31
0.0
  0
LINE
  5
D4
330
1F
100
AcDbEntity
  8
0
  6
Continuous
 62
     7
 48
10.0
370
    15
100
AcDbLine
 10
294.4189917091
 20
558.7059155942
 30
0.0
 11
294.2877178276
 21
558.6245488133
 31
0.0
  0
SPLINE
  5
D5
330
1F
100
AcDbEntity
  8
0
  6
Continuous
 62
     7
 48
10.0
370
    15
100
AcDbSpline
210
0.0
220
0.0
230
1.0
 70
    24
 71
     3
 72
    11
 73
     7
 74
     0
 42
0.00000001
 43
0.00000001
 40
0.0
 40
0.0
 40
0.0
 40
0.0
 40
0.2499999999999954
 40
0.4999999999999881
 40
0.7499999999999949
 40
1.0
 40
1.0
 40
1.0
 40
1.0
 10
288.3067127580428
 20
558.9994750218732
 30
0.0
 10
288.2761007146597
 20
558.9415476577672
 30
0.0
 10
288.2148766278934
 20
558.825692929555
 30
0.0
 10
288.1376568153839
 20
558.6795693879332
 30
0.0
 10
288.0836338403626
 20
558.577341369209
 30
0.0
 10
288.0766106788974
 20
558.5640513961656
 30
0.0
 10
288.0730990981648
 20
558.5574064096438
 30
0.0
  0
SPLINE
  5
D6
330
1F
100
AcDbEntity
  8
0
  6
Continuous
 62
     7
 48
10.0
370
    15
100
AcDbSpline
210
0.0
220
0.0
230
1.0
 70
    24
 71
     3
 72
    11
 73
     7
 74
     0
 42
0.00000001
 43
0.00000001
 40
0.0
 40
0.0
 40
0.0
 40
0.0
 40
0.249999999999999
 40
0.5000000000000162
 40
0.7500000000000097
 40
1.0
 40
1.0
 40
1.0
 40
1.0
 10
287.8073979906655
 20
558.9733070437516
 30
0.0
 10
287.8149034769351
 20
558.9737003896194
 30
0.0
 10
287.8299144494744
 20
558.9744870813552
 30
0.0
 10
287.9453805965308
 20
558.9805384057046
 30
0.0
 10
288.110426564905
 20
558.9891880983869
 30
0.0
 10
288.2412840269969
 20
558.9960460473776
 30
0.0
 10
288.3067127580428
 20
558.999475021873
 30
0.0
  0
ARC
  5
D7
330
1F
100
AcDbEntity
  8
0
  6
Continuous
 62
     7
 48
100.0
370
    15
100
AcDbCircle
 10
288.306712758
 20
558.9994750219
 30
0.0
 40
0.5000000000000293
100
AcDbArc
 50
183.0
 51
242.1455341401
  0
LINE
  5
D8
330
1F
100
AcDbEntity
  8
0
  6
Continuous
 62
     7
 48
10.0
370
    15
100
AcDbLine
 10
294.2831957342
 20
559.1265002294
 30
0.0
 11
291.9802258424
 21
559.283887157
 31
0.0
  0
LINE
  5
D9
330
1F
100
AcDbEntity
  8
0
  6
Continuous
 62
     7
 48
10.0
370
    15
100
AcDbLine
 10
294.5543920879
 20
561.5135644771
 30
0.0
 11
294.4189917091
 21
558.7059155942
 31
0.0
  0
LINE
  5
DA
330
1F
100
AcDbEntity
  8
0
  6
Continuous
 62
     7
 48
10.0
370
    15
100
AcDbLine
 10
288.152024241
 20
561.9511077592
 30
0.0
 11
294.5543920879
 21
561.5135644771
 31
0.0
  0
LINE
  5
DB
330
1F
100
AcDbEntity
  8
0
  6
Continuous
 62
     7
 48
10.0
370
    15
100
AcDbLine
 10
288.306712758
 20
558.9994750219
 30
0.0
 11
288.152024241
 21
561.9511077592
 31
0.0
  0
LINE
  5
DC
330
1F
100
AcDbEntity
  8
0
  6
Continuous
 62
     7
 48
10.0
370
    15
100
AcDbLine
 10
294.2831957342
 20
558.6253339715
 30
0.0
 11
291.9461349333
 21
558.7850507009
 31
0.0
  0
LINE
  5
DD
330
1F
100
AcDbEntity
  8
0
  6
Continuous
 62
     7
 48
10.0
370
    15
100
AcDbLine
 10
291.9461349332
 20
558.7850507009
 30
0.0
 11
291.9802258423
 21
559.283887157
 31
0.0
  0
SPLINE
  5
DE
330
1F
100
AcDbEntity
  8
0
  6
Continuous
 62
     7
 48
10.0
370
    15
100
AcDbSpline
210
0.0
220
0.0
230
1.0
 70
    24
 71
     3
 72
    11
 73
     7
 74
     0
 42
0.00000001
 43
0.00000001
 40
0.0
 40
0.0
 40
0.0
 40
0.0
 40
0.2499341106528898
 40
0.4998540768541873
 40
0.7491349915850626
 40
1.0
 40
1.0
 40
1.0
 40
1.0
 10
288.1520242410213
 20
561.9511077591828
 30
0.0
 10
288.086395147463
 20
561.9555929074411
 30
0.0
 10
287.9551406744755
 20
561.9645629501312
 30
0.0
 10
287.7895611597752
 20
561.975878795463
 30
0.0
 10
287.6713925068477
 20
561.9839545420434
 30
0.0
 10
287.6568384467686
 20
561.9849491789289
 30
0.0
 10
287.649538368461
 20
561.9854480725099
 30
0.0
  0
LINE
  5
DF
330
1F
100
AcDbEntity
  8
0
  6
Continuous
 62
     7
 48
10.0
370
    15
100
AcDbLine
 10
287.8073979907
 20
558.9733070438
 30
0.0
 11
287.6495383685
 21
561.9854480725
 31
0.0
  0
LINE
  5
E0
330
1F
100
AcDbEntity
  8
0
  6
Continuous
 62
     7
 48
10.0
370
    15
100
AcDbLine
 10
294.824953641
 20
561.4950740696
 30
0.0
 11
294.5543920879
 21
561.5135644771
 31
0.0
  0
LINE
  5
E1
330
1F
100
AcDbEntity
  8
0
  6
Continuous
 62
     7
 48
10.0
370
    15
100
AcDbLine
 10
294.824953641
 20
561.4950740696
 30
0.0
 11
298.2158838769
 21
561.2633350037
 31
0.0
  0
LINE
  5
E2
330
1F
100
AcDbEntity
  8
0
  6
Continuous
 62
     7
 48
10.0
370
    15
100
AcDbLine
 10
298.9431957342
 20
561.2136298907
 30
0.0
 11
298.2158838769
 21
561.2633350037
 31
0.0
  0
LINE
  5
E3
330
1F
100
AcDbEntity
  8
0
  6
Continuous
 62
     7
 48
10.0
370
    15
100
AcDbLine
 10
290.3406480452
 20
557.3591073361
 30
0.0
 11
288.0730990982
 21
558.5574064096
 31
0.0
  0
LINE
  5
E4
330
1F
100
AcDbEntity
  8
0
  6
Continuous
 62
     7
 48
10.0
370
    15
100
AcDbLine
 10
294.824953641
 20
561.4950740696
 30
0.0
 11
294.7014946384
 21
558.9350403854
 31
0.0
  0
ARC
  5
E5
330
1F
100
AcDbEntity
  8
0
  6
Continuous
 62
     7
 48
100.0
370
    15
100
AcDbCircle
 10
291.9120440242
 20
558.2862142449
 30
0.0
 40
0.5000000000000292
100
AcDbArc
 50
86.090436479
 51
143.9319428341
  0
LINE
  5
E6
330
1F
100
AcDbEntity
  8
0
  6
Continuous
 62
     7
 48
10.0
370
    15
100
AcDbLine
 10
298.2158838769
 20
561.2633350037
 30
0.0
 11
298.0766996187
 21
558.3772239721
 31
0.0
  0
ARC
  5
E7
330
1F
100
AcDbEntity
  8
0
  6
Continuous
 62
     7
 48
100.0
370
    15
100
AcDbCircle
 10
298.0284085111
 20
558.5833336351
 30
0.0
 40
0.8129199241789239
100
AcDbArc
 50
262.763985482
 51
342.7386265051
  0
LINE
  5
E8
330
1F
100
AcDbEntity
  8
0
  6
Continuous
 62
     7
 48
10.0
370
    15
100
AcDbLine
 10
298.0766996187
 20
558.3772239721
 30
0.0
 11
298.8047153837
 21
558.3421150199
 31
0.0
  0
LINE
  5
E9
330
1F
100
AcDbEntity
  8
0
  6
Continuous
 62
     7
 48
10.0
370
    15
100
AcDbLine
 10
298.9431957342
 20
561.2136298907
 30
0.0
 11
298.8047153749
 21
558.342114838
 31
0.0
  0
LINE
  5
EA
330
1F
100
AcDbEntity
  8
0
  6
Continuous
 62
     7
 48
10.0
370
    15
100
AcDbLine
 10
297.2040606953
 20
542.2242176909
 30
0.0
 11
297.3231957342
 21
542.2242176909
 31
0.0
  0
LINE
  5
EB
330
1F
100
AcDbEntity
  8
0
  6
Continuous
 62
     7
 48
10.0
370
    15
100
AcDbLine
 10
297.3231957342
 20
542.2242391641
 30
0.0
 11
297.3231957342
 21
541.4689071784
 31
0.0
  0
LINE
  5
EC
330
1F
100
AcDbEntity
  8
0
  6
Continuous
 62
     7
 48
10.0
370
    15
100
AcDbLine
 10
297.3231957342
 20
541.4689009371
 30
0.0
 11
297.1501871234
 21
540.68833722
 31
0.0
  0
LINE
  5
ED
330
1F
100
AcDbEntity
  8
0
  6
Continuous
 62
     7
 48
10.0
370
    15
100
AcDbLine
 10
297.1501871234
 20
540.68833722
 30
0.0
 11
297.176297129
 21
540.4777286768
 31
0.0
  0
SPLINE
  5
EE
330
1F
100
AcDbEntity
  8
0
  6
Continuous
 62
     7
 48
10.0
370
    15
100
AcDbSpline
210
0.0
220
0.0
230
1.0
 70
    24
 71
     3
 72
    11
 73
     7
 74
     0
 42
0.00000001
 43
0.00000001
 40
0.0
 40
0.0
 40
0.0
 40
0.0
 40
0.2521455624216727
 40
0.504299489088316
 40
0.7563051306774209
 40
1.0
 40
1.0
 40
1.0
 40
1.0
 10
297.1761966720742
 20
540.4777286563591
 30
0.0
 10
297.2829322938198
 20
540.4777286563591
 30
0.0
 10
297.4964070779756
 20
540.4777286563591
 30
0.0
 10
297.7454646321952
 20
540.4777286563591
 30
0.0
 10
297.9120939349639
 20
540.4777286563591
 30
0.0
 10
297.9329449785795
 20
540.4777286563591
 30
0.0
 10
297.9431957090856
 20
540.4777286563591
 30
0.0
  0
SPLINE
  5
EF
330
1F
100
AcDbEntity
  8
0
  6
Continuous
 62
     7
 48
10.0
370
    15
100
AcDbSpline
210
0.0
220
0.0
230
1.0
 70
    24
 71
     3
 72
    13
 73
     9
 74
     0
 42
0.00000001
 43
0.00000001
 40
0.0
 40
0.0
 40
0.0
 40
0.0
 40
0.1667331345040087
 40
0.3339870513143992
 40
0.5000324246316968
 40
0.6668340684637843
 40
0.8323817519131894
 40
1.0
 40
1.0
 40
1.0
 40
1.0
 10
298.8047153749072
 20
558.3421148379559
 30
0.0
 10
298.7627969347545
 20
557.472898203053
 30
0.0
 10
298.6788291243734
 20
555.7317499801263
 30
0.0
 10
298.543280566904
 20
552.9210284799846
 30
0.0
 10
298.4009293990528
 20
549.9692487228315
 30
0.0
 10
298.2526746911514
 20
546.8950537422616
 30
0.0
 10
298.099476592044
 20
543.7183530898847
 30
0.0
 10
297.9955047420299
 20
541.5624030768419
 30
0.0
 10
297.943195734115
 20
540.4777286550524
 30
0.0
  0
SPLINE
  5
F0
330
1F
100
AcDbEntity
  8
0
  6
Continuous
 62
     7
 48
10.0
370
    15
100
AcDbSpline
210
0.0
220
0.0
230
1.0
 70
     8
 71
     3
 72
    12
 73
     8
 74
     0
 42
0.00000001
 43
0.00000001
 40
0.0
 40
0.0
 40
0.0
 40
0.0
 40
0.1376834059673575
 40
0.2719007360177623
 40
0.5408570433921943
 40
0.8099670612814236
 40
1.0
 40
1.0
 40
1.0
 40
1.0
 10
293.8940025726722
 20
543.5978331009296
 30
0.0
 10
293.7846963699795
 20
543.5786210654144
 30
0.0
 10
293.5688356658181
 20
543.5406806428903
 30
0.0
 10
293.1601581952217
 20
543.3772131689171
 30
0.0
 10
292.706623971047
 20
543.0542145280937
 30
0.0
 10
292.3452295515527
 20
542.5613451487053
 30
0.0
 10
292.2376578956043
 20
542.199919859655
 30
0.0
 10
292.1931354704892
 20
542.050330916131
 30
0.0
  0
LINE
  5
F1
330
1F
100
AcDbEntity
  8
0
  6
Continuous
 62
     7
 48
10.0
370
    15
100
AcDbLine
 10
274.1085045056
 20
468.2096859137
 30
0.0
 11
266.8377546408
 21
472.1502797174
 31
0.0
  0
SPLINE
  5
F2
330
1F
100
AcDbEntity
  8
0
  6
Continuous
 62
     7
 48
10.0
370
    15
100
AcDbSpline
210
0.0
220
0.0
230
1.0
 70
     8
 71
     3
 72
    44
 73
    40
 74
     0
 42
0.00000001
 43
0.00000001
 40
0.0
 40
0.0
 40
0.0
 40
0.0
 40
0.0236166501276126
 40
0.0544454386528541
 40
0.0924939495549798
 40
0.1377696787745125
 40
0.1902705553015912
 40
0.2500049872981212
 40
0.2642996046973288
 40
0.2789742391633767
 40
0.2940290056029682
 40
0.3094639226137938
 40
0.3252789323853975
 40
0.3414741639513301
 40
0.3580498148861727
 40
0.3750060054665897
 40
0.4016289839280011
 40
0.4253327088354861
 40
0.4461150104967097
 40
0.4639743277410678
 40
0.4789096769170671
 40
0.4909205370938237
 40
0.5000067078188456
 40
0.5141716795965527
 40
0.5283380996325824
 40
0.5425056897798031
 40
0.5566742177892684
 40
0.5708437364761036
 40
0.585014413904607
 40
0.6518397286947443
 40
0.7712697150693982
 40
0.8906014811464178
 40
0.9062326894051727
 40
0.9218604846751963
 40
0.9374854004235245
 40
0.9619191187977467
 40
0.9804871904903928
 40
0.9931814193883944
 40
1.0
 40
1.0
 40
1.0
 40
1.0
 10
274.1085044710109
 20
468.2096859315911
 30
0.0
 10
274.3877004884386
 20
468.7385320566911
 30
0.0
 10
275.0313544172067
 20
469.9577252574773
 30
0.0
 10
276.0721733026052
 20
472.0559018363456
 30
0.0
 10
277.2974400777981
 20
474.6736113763237
 30
0.0
 10
278.6691556330288
 20
477.8269667190917
 30
0.0
 10
280.1545871328764
 20
481.527272888584
 30
0.0
 10
281.2626206866908
 20
484.5322194586793
 30
0.0
 10
282.0074391590403
 20
486.6498999902107
 30
0.0
 10
282.3711449985043
 20
487.7029775490437
 30
0.0
 10
282.7384224562738
 20
488.785315214896
 30
0.0
 10
283.1092338140693
 20
489.8968998874814
 30
0.0
 10
283.4836097677488
 20
491.0376951175458
 30
0.0
 10
283.8615916142912
 20
492.2076700556337
 30
0.0
 10
284.2432729058796
 20
493.4067849872709
 30
0.0
 10
284.6991558550713
 20
494.8592029066525
 30
0.0
 10
285.2016038905467
 20
496.4860687301928
 30
0.0
 10
285.7253538175743
 20
498.2077101427259
 30
0.0
 10
286.1801021095873
 20
499.71855885718
 30
0.0
 10
286.5683774428154
 20
501.0177100509609
 30
0.0
 10
286.8918292640693
 20
502.1045739700001
 30
0.0
 10
287.1514111933875
 20
502.9788066179234
 30
0.0
 10
287.4054118768647
 20
503.8343778348972
 30
0.0
 10
287.674934773032
 20
504.7422753797105
 30
0.0
 10
287.980852316516
 20
505.7735605812425
 30
0.0
 10
288.2870164238217
 20
506.8049003731311
 30
0.0
 10
288.5937430173203
 20
507.8361904953866
 30
0.0
 10
288.9008132620102
 20
508.867492951986
 30
0.0
 10
289.5881907943562
 20
511.176386902661
 30
0.0
 10
291.031494826451
 20
516.0407591713558
 30
0.0
 10
293.1424031278077
 20
523.4846277537067
 30
0.0
 10
294.6789764580162
 20
529.7421693283167
 30
0.0
 10
295.4689284221834
 20
533.4716979353901
 30
0.0
 10
295.7056936341461
 20
534.6347043510502
 30
0.0
 10
295.9754950646769
 20
536.0182981633682
 30
0.0
 10
296.2436619069026
 20
537.4779330853817
 30
0.0
 10
296.4810985166053
 20
538.8675791891485
 30
0.0
 10
296.6348080508171
 20
539.8191092429616
 30
0.0
 10
296.7102824300388
 20
540.3071774813036
 30
0.0
 10
296.7366562917105
 20
540.4777286582348
 30
0.0
  0
LINE
  5
F3
330
1F
100
AcDbEntity
  8
0
  6
Continuous
 62
     7
 48
10.0
370
    15
100
AcDbLine
 10
296.7366563411
 20
540.4777286564
 30
0.0
 11
297.1761975483
 21
540.4777286564
 31
0.0
  0
SPLINE
  5
F4
330
1F
100
AcDbEntity
  8
0
  6
Continuous
 62
     7
 48
10.0
370
    15
100
AcDbSpline
210
0.0
220
0.0
230
1.0
 70
     8
 71
     3
 72
    13
 73
     9
 74
     0
 42
0.00000001
 43
0.00000001
 40
0.0
 40
0.0
 40
0.0
 40
0.0
 40
0.166678697747017
 40
0.3333528400716376
 40
0.5000222237752853
 40
0.666686659187044
 40
0.8333459711585047
 40
1.0
 40
1.0
 40
1.0
 40
1.0
 10
293.5035600993173
 20
543.4088612261787
 30
0.0
 10
292.5434640574773
 20
539.2768383756915
 30
0.0
 10
290.6232982137612
 20
531.0129056052212
 30
0.0
 10
286.9945923524695
 20
518.8101747730674
 30
0.0
 10
282.8313653280192
 20
506.7828333298904
 30
0.0
 10
278.0760060101283
 20
494.9773430773993
 30
0.0
 10
272.8025306221064
 20
483.3909351346813
 30
0.0
 10
268.8259922913647
 20
475.8971252633406
 30
0.0
 10
266.8377546407373
 20
472.1502797173895
 30
0.0
  0
SPLINE
  5
F5
330
1F
100
AcDbEntity
  8
0
  6
Continuous
 62
     7
 48
10.0
370
    15
100
AcDbSpline
210
0.0
220
0.0
230
1.0
 70
     8
 71
     3
 72
    17
 73
    13
 74
     0
 42
0.00000001
 43
0.00000001
 40
0.0
 40
0.0
 40
0.0
 40
0.0
 40
0.0375065689419805
 40
0.1875641219139254
 40
0.2625803858294481
 40
0.4126379408240216
 40
0.4876542050500119
 40
0.5626704693896607
 40
0.637686733845386
 40
0.7877442933786173
 40
0.8627605581865011
 40
1.0
 40
1.0
 40
1.0
 40
1.0
 10
292.1931354704893
 20
542.0503309161311
 30
0.0
 10
291.986863075844
 20
541.142552953047
 30
0.0
 10
290.955329089449
 20
536.6029061300584
 30
0.0
 10
289.3242209590784
 20
530.2902162993253
 30
0.0
 10
286.7221433997314
 20
521.3500432417596
 30
0.0
 10
284.412900433583
 20
514.2657604761736
 30
0.0
 10
281.8821433487607
 20
507.2600291195737
 30
0.0
 10
279.8735625019122
 20
502.0472735207564
 30
0.0
 10
277.0501735988964
 20
495.1541018918026
 30
0.0
 10
274.0046416087134
 20
488.3540730517736
 30
0.0
 10
270.0866179859333
 20
480.2581905293375
 30
0.0
 10
267.6042802919697
 20
475.6103050671182
 30
0.0
 10
265.9992603613637
 20
472.6050939630142
 30
0.0
  0
ARC
  5
F6
330
1F
100
AcDbEntity
  8
0
  6
Continuous
 62
     7
 48
100.0
370
    15
100
AcDbCircle
 10
475.8568211588
 20
858.1853439635
 30
0.0
 40
438.9897959990988
100
AcDbArc
 50
241.4421259127
 51
241.566626525
  0
ARC
  5
F7
330
1F
100
AcDbEntity
  8
0
  6
Continuous
 62
     7
 48
100.0
370
    15
100
AcDbCircle
 10
178.3485527342
 20
477.9456054219
 30
0.0
 40
11.80000070028795
100
AcDbArc
 50
188.5404562953
 51
262.5733144296
  0
ARC
  5
F8
330
1F
100
AcDbEntity
  8
0
  6
Continuous
 62
     7
 48
100.0
370
    15
100
AcDbCircle
 10
465.1329077342
 20
521.0128554219
 30
0.0
 40
301.8000939536835
100
AcDbArc
 50
179.9998529696
 51
188.5404561144
  0
LINE
  5
F9
330
1F
100
AcDbEntity
  8
0
  6
Continuous
 62
     7
 48
10.0
370
    15
100
AcDbLine
 10
154.3431957342
 20
464.9757722733
 30
0.0
 11
154.3431957342
 21
477.4636298907
 31
0.0
  0
LINE
  5
FA
330
1F
100
AcDbEntity
  8
0
  6
Continuous
 62
     7
 48
10.0
370
    15
100
AcDbLine
 10
187.9700990067
 20
464.9757722733
 30
0.0
 11
154.3431957342
 21
464.9757722733
 31
0.0
  0
ARC
  5
FB
330
1F
100
AcDbEntity
  8
0
  6
Continuous
 62
     7
 48
100.0
370
    15
100
AcDbCircle
 10
221.3633310169
 20
807.9376388104
 30
0.0
 40
344.5837341528687
100
AcDbArc
 50
262.5733144296
 51
264.4388010155
  0
SPLINE
  5
FC
330
1F
100
AcDbEntity
  8
0
  6
Continuous
 62
     7
 48
10.0
370
    15
100
AcDbSpline
210
0.0
220
0.0
230
1.0
 70
     8
 71
     3
 72
    16
 73
    12
 74
     0
 42
0.00000001
 43
0.00000001
 40
0.0
 40
0.0
 40
0.0
 40
0.0
 40
0.074926170572378
 40
0.1497161416291856
 40
0.2246180040775225
 40
0.3443313448021905
 40
0.4642585955621393
 40
0.5895061939690546
 40
0.6919556322173921
 40
0.7944644771658886
 40
0.9999999999999999
 40
0.9999999999999999
 40
0.9999999999999999
 40
0.9999999999999999
 10
265.9992603629822
 20
472.6050939655568
 30
0.0
 10
265.5931821445747
 20
471.9606083836596
 30
0.0
 10
264.7817638698228
 20
470.6728087547692
 30
0.0
 10
263.1301281021273
 20
469.0793396849703
 30
0.0
 10
260.9200841083817
 20
467.4680762826662
 30
0.0
 10
258.0529609219506
 20
466.0297741716371
 30
0.0
 10
254.5229345742886
 20
464.8906310481777
 30
0.0
 10
251.0456342976458
 20
464.2663350843948
 30
0.0
 10
247.7074502490068
 20
463.9910449519945
 30
0.0
 10
243.547349676039
 20
463.8864715282352
 30
0.0
 10
240.4259067499883
 20
463.8181192057587
 30
0.0
 10
238.3431957157925
 20
463.7725126899238
 30
0.0
  0
SPLINE
  5
FD
330
1F
100
AcDbEntity
  8
0
  6
Continuous
 62
     7
 48
10.0
370
    15
100
AcDbSpline
210
0.0
220
0.0
230
1.0
 70
     8
 71
     3
 72
    21
 73
    17
 74
     0
 42
0.00000001
 43
0.00000001
 40
0.0
 40
0.0
 40
0.0
 40
0.0
 40
0.0688972421029362
 40
0.1383654145469146
 40
0.2066249065710102
 40
0.2661683546206842
 40
0.3378619090092378
 40
0.4266635860649957
 40
0.4921294025598496
 40
0.558064179597221
 40
0.6308525099946101
 40
0.6976401321167438
 40
0.7879477742085274
 40
0.8595724428402463
 40
0.9289767602413866
 40
1.0
 40
1.0
 40
1.0
 40
1.0
 10
274.8206274114056
 20
467.8546940959757
 30
0.0
 10
275.6235944813854
 20
469.4133629268696
 30
0.0
 10
277.236182563493
 20
472.5436167998151
 30
0.0
 10
279.3521666121283
 20
477.3580867295429
 30
0.0
 10
281.2027752417
 20
482.022350119008
 30
0.0
 10
282.9239259510146
 20
486.7955136334305
 30
0.0
 10
284.689584716327
 20
492.1054754279211
 30
0.0
 10
286.3835536164873
 20
497.5963833515962
 30
0.0
 10
287.9797422048501
 20
502.9639545618085
 30
0.0
 10
289.4555702580237
 20
507.9432547841096
 30
0.0
 10
290.9500381012112
 20
512.9528521488379
 30
0.0
 10
292.5819022523963
 20
518.5688159615315
 30
0.0
 10
294.1221836422966
 20
524.1807853270266
 30
0.0
 10
295.5241452155233
 20
529.8970022971884
 30
0.0
 10
296.665946235594
 20
535.1709105077948
 30
0.0
 10
297.2485403895947
 20
538.6952456275495
 30
0.0
 10
297.5431956917195
 20
540.4777283771091
 30
0.0
  0
SPLINE
  5
FE
330
1F
100
AcDbEntity
  8
0
  6
Continuous
 62
     7
 48
10.0
370
    15
100
AcDbSpline
210
0.0
220
0.0
230
1.0
 70
     8
 71
     3
 72
    11
 73
     7
 74
     0
 42
0.00000001
 43
0.00000001
 40
0.0
 40
0.0
 40
0.0
 40
0.0
 40
0.2426777030335041
 40
0.500132480614622
 40
0.7575150386313229
 40
1.0
 40
1.0
 40
1.0
 40
1.0
 10
274.8206273842794
 20
467.8546941077528
 30
0.0
 10
274.8100171437111
 20
467.8574529005185
 30
0.0
 10
274.7881505862609
 20
467.8631384738206
 30
0.0
 10
274.6287515439607
 20
467.9403475404096
 30
0.0
 10
274.3953674671709
 20
468.0589440754616
 30
0.0
 10
274.2022065618198
 20
468.1604470011576
 30
0.0
 10
274.1085045050636
 20
468.2096859135929
 30
0.0
  0
ARC
  5
FF
330
1F
100
AcDbEntity
  8
0
  6
Continuous
 62
     7
 48
100.0
370
    15
100
AcDbCircle
 10
295.8252500826
 20
542.5326062583
 30
0.0
 40
1.998065637541416
100
AcDbArc
 50
147.2458988869
 51
189.1492574519
  0
LINE
  5
100
330
1F
100
AcDbEntity
  8
0
  6
Continuous
 62
     7
 48
10.0
370
    15
100
AcDbLine
 10
292.2038542875
 20
542.0522393473
 30
0.0
 11
292.1931362286
 21
542.0503306648
 31
0.0
  0
LINE
  5
101
330
1F
100
AcDbEntity
  8
0
  6
Continuous
 62
     7
 48
10.0
370
    15
100
AcDbLine
 10
294.2831957342
 20
542.214746796
 30
0.0
 11
293.8526048189
 21
542.2149009801
 31
0.0
  0
ARC
  5
102
330
1F
100
AcDbEntity
  8
0
  6
Continuous
 62
     7
 48
100.0
370
    15
100
AcDbCircle
 10
154.0933518866
 20
474.9976409286
 30
0.0
 40
10.02498245842997
100
AcDbArc
 50
265.7086215669
 51
271.4280803331
  0
LINE
  5
103
330
1F
100
AcDbEntity
  8
0
  6
Continuous
 62
     7
 48
10.0
370
    15
100
AcDbLine
 10
238.343195725
 20
463.7725126904
 30
0.0
 11
238.3431957342
 21
462.9770991179
 31
0.0
  0
SPLINE
  5
104
330
1F
100
AcDbEntity
  8
0
  6
Continuous
 62
     7
 48
10.0
370
    15
100
AcDbSpline
210
0.0
220
0.0
230
1.0
 70
     8
 71
     3
 72
    23
 73
    19
 74
     0
 42
0.00000001
 43
0.00000001
 40
0.0
 40
0.0
 40
0.0
 40
0.0
 40
0.0285773070736225
 40
0.0625036741013443
 40
0.0881573249374936
 40
0.1250065369731803
 40
0.1744645490181026
 40
0.2160284904294406
 40
0.2500057126938169
 40
0.3048199462275655
 40
0.3531921600900008
 40
0.4002363049043937
 40
0.4503511862033845
 40
0.5000187135740773
 40
0.62497509037005
 40
0.7499637021202316
 40
0.8818282015321381
 40
1.0
 40
1.0
 40
1.0
 40
1.0
 10
266.8377547000044
 20
472.1502796962399
 30
0.0
 10
266.6874579792614
 20
471.8915672192767
 30
0.0
 10
266.3587322099781
 20
471.3257168295112
 30
0.0
 10
265.8131641558616
 20
470.579350121534
 30
0.0
 10
265.1620628194431
 20
469.8077779241669
 30
0.0
 10
264.3415540888619
 20
468.9692081404472
 30
0.0
 10
263.3214507054149
 20
468.0994001699635
 30
0.0
 10
262.2556219360844
 20
467.3386229453807
 30
0.0
 10
261.0960625165532
 20
466.6184466290381
 30
0.0
 10
259.8257038306775
 20
465.9461061529227
 30
0.0
 10
258.3876988054225
 20
465.3076547874817
 30
0.0
 10
256.9608711940022
 20
464.7720884316944
 30
0.0
 10
255.4943584113185
 20
464.3100473029218
 30
0.0
 10
253.2164131524051
 20
463.7198467998312
 30
0.0
 10
250.1157906322641
 20
463.200153590439
 30
0.0
 10
246.1233668383899
 20
462.9411789725844
 30
0.0
 10
242.1970374528367
 20
462.9453197727811
 30
0.0
 10
239.5800381920756
 20
462.9669001920082
 30
0.0
 10
238.3431957341782
 20
462.9770994989623
 30
0.0
  0
SPLINE
  5
105
330
1F
100
AcDbEntity
  8
0
  6
Continuous
 62
     7
 48
10.0
370
    15
100
AcDbSpline
210
0.0
220
0.0
230
1.0
 70
     8
 71
     3
 72
    41
 73
    37
 74
     0
 42
0.00000001
 43
0.00000001
 40
0.0
 40
0.0
 40
0.0
 40
0.0
 40
0.0003905786564372
 40
0.001144469278469
 40
0.0037423636469053
 40
0.0132989146061182
 40
0.0233288917701087
 40
0.0312489034063959
 40
0.0624963137330692
 40
0.1249919033530168
 40
0.1610425776171927
 40
0.2066533005191512
 40
0.2499867828612674
 40
0.3005500401183207
 40
0.3422210871526882
 40
0.3749897875589459
 40
0.4179364424950975
 40
0.4619865178313748
 40
0.4999926338037914
 40
0.5519809407944376
 40
0.5833161054656932
 40
0.6249877759188753
 40
0.6666674422525997
 40
0.7083285657681336
 40
0.7499858371642838
 40
0.785772875681407
 40
0.8146106478223323
 40
0.8365192562321138
 40
0.8515152230595838
 40
0.8714299612124733
 40
0.8917966981659756
 40
0.9119581926364702
 40
0.9313240665710114
 40
0.9522917698785348
 40
0.9798951847523827
 40
0.9999999999999999
 40
0.9999999999999999
 40
0.9999999999999999
 40
0.9999999999999999
 10
238.3431955840815
 20
452.1464913184993
 30
0.0
 10
238.3486468713841
 20
452.1464849940623
 30
0.0
 10
238.3646201734147
 20
452.1464664622666
 30
0.0
 10
238.4168437962832
 20
452.1474643975629
 30
0.0
 10
238.5969567701991
 20
452.1512180130569
 30
0.0
 10
238.9064796486867
 20
452.158901196787
 30
0.0
 10
239.2902638524055
 20
452.1678451482207
 30
0.0
 10
239.9766614517424
 20
452.1847995440426
 30
0.0
 10
241.3949367827994
 20
452.2230444909206
 30
0.0
 10
243.2054096611811
 20
452.277130066805
 30
0.0
 10
245.2158904396453
 20
452.3458489778378
 30
0.0
 10
246.9582925999945
 20
452.4266776024853
 30
0.0
 10
248.9006651012309
 20
452.5571987384551
 30
0.0
 10
250.7840934060528
 20
452.7362389758856
 30
0.0
 10
252.5139959254321
 20
452.961042527663
 30
0.0
 10
254.1304040208249
 20
453.2263527082026
 30
0.0
 10
255.7683069990341
 20
453.5601431562905
 30
0.0
 10
257.4583217713562
 20
453.9946179598048
 30
0.0
 10
259.2424495935243
 20
454.5578178786327
 30
0.0
 10
260.8224182822489
 20
455.1711200158655
 30
0.0
 10
262.4037394906547
 20
455.9079390642673
 30
0.0
 10
263.8159531166598
 20
456.6628406648024
 30
0.0
 10
265.2984398631085
 20
457.5843314517597
 30
0.0
 10
266.7148911288363
 20
458.6041555802753
 30
0.0
 10
267.9940625870157
 20
459.6671288196959
 30
0.0
 10
269.0681582615976
 20
460.6908986574509
 30
0.0
 10
269.8905345282139
 20
461.5755209987458
 30
0.0
 10
270.4809324043878
 20
462.2777246351517
 30
0.0
 10
270.9678520443296
 20
462.9032821560093
 30
0.0
 10
271.4193766326026
 20
463.5285827273337
 30
0.0
 10
271.8859777768153
 20
464.2310702949547
 30
0.0
 10
272.3203516916229
 20
464.9448525998641
 30
0.0
 10
272.7413437660657
 20
465.6761952811929
 30
0.0
 10
273.2025446481156
 20
466.5041221701821
 30
0.0
 10
273.6600618000946
 20
467.3460081598748
 30
0.0
 10
273.9665761704471
 20
467.936852393799
 30
0.0
 10
274.0957449694361
 20
468.1858411769276
 30
0.0
  0
LINE
  5
106
330
1F
100
AcDbEntity
  8
0
  6
Continuous
 62
     7
 48
10.0
370
    15
100
AcDbLine
 10
274.0957449027
 20
468.1858412037
 30
0.0
 11
274.1085045056
 21
468.2096859137
 31
0.0
  0
LINE
  5
107
330
1F
100
AcDbEntity
  8
0
  6
Continuous
 62
     7
 48
10.0
370
    15
100
AcDbLine
 10
238.3431957342
 20
462.9770991179
 30
0.0
 11
238.3430868762
 21
452.1464857059
 31
0.0
  0
SPLINE
  5
108
330
1F
100
AcDbEntity
  8
0
  6
Continuous
 62
     7
 48
10.0
370
    15
100
AcDbSpline
210
0.0
220
0.0
230
1.0
 70
     8
 71
     3
 72
    11
 73
     7
 74
     0
 42
0.00000001
 43
0.00000001
 40
0.0
 40
0.0
 40
0.0
 40
0.0
 40
0.1983159710803522
 40
0.396802794019982
 40
0.6981068145553778
 40
1.0
 40
1.0
 40
1.0
 40
1.0
 10
238.3431957156821
 20
463.772512710376
 30
0.0
 10
235.0120895136246
 20
463.6358541072355
 30
0.0
 10
228.3470073170014
 20
463.3624191677417
 30
0.0
 10
216.6101453192234
 20
463.3192526512406
 30
0.0
 10
203.1327694665481
 20
463.6924357317815
 30
0.0
 10
193.0276125195697
 20
464.5477149652076
 30
0.0
 10
187.9700990067464
 20
464.9757722732717
 30
0.0
  0
LINE
  5
109
330
1F
100
AcDbEntity
  8
0
  6
Continuous
 62
     7
 48
10.0
370
    15
100
AcDbLine
 10
154.3431957337
 20
462.9770991179
 30
0.0
 11
154.3431957342
 21
464.9757722733
 31
0.0
  0
LINE
  5
10A
330
1F
100
AcDbEntity
  8
0
  6
Continuous
 62
     7
 48
10.0
370
    15
100
AcDbLine
 10
154.3431957337
 20
462.9770991179
 30
0.0
 11
238.3431957342
 21
462.9770991179
 31
0.0
  0
ARC
  5
10B
330
1F
100
AcDbEntity
  8
0
  6
Continuous
 62
     7
 48
100.0
370
    15
100
AcDbCircle
 10
154.1058361833
 20
464.2575490859
 30
0.0
 40
1.302264057979323
100
AcDbArc
 50
234.1527324997
 51
280.5018245553
  0
LINE
  5
10C
330
1F
100
AcDbEntity
  8
0
  6
Continuous
 62
     7
 48
10.0
370
    15
100
AcDbLine
 10
274.8077862222
 20
467.8306899022
 30
0.0
 11
274.8206274114
 21
467.854694096
 31
0.0
  0
LINE
  5
10D
330
1F
100
AcDbEntity
  8
0
  6
Continuous
 62
     7
 48
10.0
370
    15
100
AcDbLine
 10
154.3431957332
 20
451.6871240857
 30
0.0
 11
154.3431957337
 21
462.9770991179
 31
0.0
  0
SPLINE
  5
10E
330
1F
100
AcDbEntity
  8
0
  6
Continuous
 62
     7
 48
10.0
370
    15
100
AcDbSpline
210
0.0
220
0.0
230
1.0
 70
     8
 71
     3
 72
    25
 73
    21
 74
     0
 42
0.00000001
 43
0.00000001
 40
0.0
 40
0.0
 40
0.0
 40
0.0
 40
0.0244533535324569
 40
0.0501763286303337
 40
0.0710614677354692
 40
0.0941756981039822
 40
0.1252469488371075
 40
0.1438269787600465
 40
0.1713458183060857
 40
0.2010580898179618
 40
0.2257554706848138
 40
0.2459271612725179
 40
0.2699987449408328
 40
0.2949391667227863
 40
0.3185416247172265
 40
0.4393377798033861
 40
0.5616777575154137
 40
0.7077824340769971
 40
0.853871713195938
 40
1.0
 40
1.0
 40
1.0
 40
1.0
 10
238.3119857473831
 20
452.1455145977486
 30
0.0
 10
237.6276473950368
 20
452.1254067361058
 30
0.0
 10
236.2234397465401
 20
452.084147009807
 30
0.0
 10
234.2345213588324
 20
452.0336645988695
 30
0.0
 10
232.2830857742952
 20
451.9841799072084
 30
0.0
 10
230.1820318360011
 20
451.9282003288806
 30
0.0
 10
228.1455144544075
 20
451.873191414862
 30
0.0
 10
225.9857442646548
 20
451.8141221293284
 30
0.0
 10
223.8640156677077
 20
451.755829495196
 30
0.0
 10
221.5710855143777
 20
451.6926626862161
 30
0.0
 10
219.483770723938
 20
451.6354738111369
 30
0.0
 10
217.5543118895725
 20
451.5829741356168
 30
0.0
 10
215.6180284746931
 20
451.5310799689775
 30
0.0
 10
213.5856943440514
 20
451.4777496246852
 30
0.0
 10
208.8461521561989
 20
451.3563344642045
 30
0.0
 10
201.3800540019859
 20
451.1830410568062
 30
0.0
 10
190.4832191402674
 20
451.0118193353247
 30
0.0
 10
178.8768469582823
 20
450.9790325252765
 30
0.0
 10
166.604182304043
 20
451.1463212754942
 30
0.0
 10
158.4305549518969
 20
451.5068404405594
 30
0.0
 10
154.3431957331885
 20
451.6871240856735
 30
0.0
  0
LINE
  5
10F
330
1F
100
AcDbEntity
  8
0
  6
Continuous
 62
     7
 48
10.0
370
    15
100
AcDbLine
 10
238.3430868762
 20
452.1464834748
 30
0.0
 11
238.3119857474
 21
452.1455145977
 31
0.0
  0
ARC
  5
110
330
1F
100
AcDbEntity
  8
0
  6
Continuous
 62
     7
 48
100.0
370
    15
100
AcDbCircle
 10
154.1058361836
 20
452.9675740478
 30
0.0
 40
1.302264058702917
100
AcDbArc
 50
234.1527325078
 51
280.5018245593
  0
SPLINE
  5
111
330
1F
100
AcDbEntity
  8
0
  6
Continuous
 62
     7
 48
10.0
370
    15
100
AcDbSpline
210
0.0
220
0.0
230
1.0
 70
     8
 71
     3
 72
    11
 73
     7
 74
     0
 42
0.00000001
 43
0.00000001
 40
0.0
 40
0.0
 40
0.0
 40
0.0
 40
0.2425837430040383
 40
0.4999999999999905
 40
0.7574162569959577
 40
1.0
 40
1.0
 40
1.0
 40
1.0
 10
266.0119610754698
 20
472.6282763361585
 30
0.0
 10
266.0276997923542
 20
472.6237697809395
 30
0.0
 10
266.060139552516
 20
472.6144811221793
 30
0.0
 10
266.2975647520003
 20
472.4957650345577
 30
0.0
 10
266.6454787701422
 20
472.3139550825641
 30
0.0
 10
266.9336111546776
 20
472.1586549453651
 30
0.0
 10
267.0734036193201
 20
472.0833083682235
 30
0.0
  0
ARC
  5
112
330
1F
100
AcDbEntity
  8
0
  6
Continuous
 62
     7
 48
100.0
370
    15
100
AcDbCircle
 10
260.8813374084
 20
461.3213117721
 30
0.0
 40
12.38987014572506
100
AcDbArc
 50
60.0828892743
 51
65.602756318
  0
LINE
  5
113
330
1F
100
AcDbEntity
  8
0
  6
Continuous
 62
     7
 48
10.0
370
    15
100
AcDbLine
 10
267.0733973836
 20
472.0833117694
 30
0.0
 11
267.0607430922
 21
472.0602049936
 31
0.0
  0
SPLINE
  5
114
330
1F
100
AcDbEntity
  8
0
  6
Continuous
 62
     7
 48
10.0
370
    15
100
AcDbSpline
210
0.0
220
0.0
230
1.0
 70
     8
 71
     3
 72
    11
 73
     7
 74
     0
 42
0.00000001
 43
0.00000001
 40
0.0
 40
0.0
 40
0.0
 40
0.0
 40
0.2425813186456758
 40
0.5000000000000129
 40
0.7574186813543198
 40
1.0
 40
1.0
 40
1.0
 40
1.0
 10
274.8077862374909
 20
467.8306899307566
 30
0.0
 10
274.7971828671839
 20
467.8334444517694
 30
0.0
 10
274.7753275768298
 20
467.8391219726686
 30
0.0
 10
274.6160102336259
 20
467.9163288765326
 30
0.0
 10
274.3826554058957
 20
468.0349785861187
 30
0.0
 10
274.1894708251674
 20
468.1365584265106
 30
0.0
 10
274.0957448844973
 20
468.1858411697709
 30
0.0
  0
SPLINE
  5
115
330
1F
100
AcDbEntity
  8
0
  6
Continuous
 62
     7
 48
10.0
370
    15
100
AcDbSpline
210
0.0
220
0.0
230
1.0
 70
     8
 71
     3
 72
    24
 73
    20
 74
     0
 42
0.00000001
 43
0.00000001
 40
0.0
 40
0.0
 40
0.0
 40
0.0
 40
0.0999072503114092
 40
0.2002160703715968
 40
0.303566964152083
 40
0.4051781331054069
 40
0.4999747005546878
 40
0.5621920866183174
 40
0.6249673672258391
 40
0.6882746331953119
 40
0.7499541531120221
 40
0.7829332082574231
 40
0.8147548535953859
 40
0.8454278726613113
 40
0.8749820012269841
 40
0.9062327088055708
 40
0.937493419405727
 40
0.9687448335188157
 40
1.0
 40
1.0
 40
1.0
 40
1.0
 10
238.3742605210966
 20
451.3718289957
 30
0.0
 10
239.7962542717518
 20
451.407977823956
 30
0.0
 10
242.6459573709936
 20
451.48042077799
 30
0.0
 10
246.9656425920903
 20
451.6206234945374
 30
0.0
 10
251.300644603505
 20
451.9599166716658
 30
0.0
 10
255.5209808548878
 20
452.6296898145559
 30
0.0
 10
259.0799236486653
 20
453.6103741643733
 30
0.0
 10
261.9856142877222
 20
454.7825500076274
 30
0.0
 10
264.3664923047094
 20
456.0234957905586
 30
0.0
 10
266.6082190532521
 20
457.4871019700566
 30
0.0
 10
268.3598074259497
 20
458.9041804128861
 30
0.0
 10
269.6618207746483
 20
460.1488324324857
 30
0.0
 10
270.5869164659368
 20
461.1453547372633
 30
0.0
 10
271.4187512441594
 20
462.1583864981907
 30
0.0
 10
272.1838103539398
 20
463.212604694198
 30
0.0
 10
272.8864004265548
 20
464.3190887505942
 30
0.0
 10
273.5500105241823
 20
465.4766926941119
 30
0.0
 10
274.18180929194
 20
466.6520929572285
 30
0.0
 10
274.5991188948706
 20
467.4378085312921
 30
0.0
 10
274.807786222211
 20
467.8306899021932
 30
0.0
  0
SPLINE
  5
116
330
1F
100
AcDbEntity
  8
0
  6
Continuous
 62
     7
 48
10.0
370
    15
100
AcDbSpline
210
0.0
220
0.0
230
1.0
 70
     8
 71
     3
 72
    11
 73
     7
 74
     0
 42
0.00000001
 43
0.00000001
 40
0.0
 40
0.0
 40
0.0
 40
0.0
 40
0.2443874078928404
 40
0.5021643994621752
 40
0.7587645426767433
 40
1.0
 40
1.0
 40
1.0
 40
1.0
 10
238.3742605243796
 20
451.3718288467669
 30
0.0
 10
238.3731500245702
 20
451.3822779554559
 30
0.0
 10
238.3708681824954
 20
451.4037486622938
 30
0.0
 10
238.3633389789652
 20
451.5765339040433
 30
0.0
 10
238.353756946619
 20
451.8308926937844
 30
0.0
 10
238.3466429493694
 20
452.0434757811865
 30
0.0
 10
238.3431957302914
 20
452.1464868520164
 30
0.0
  0
SPLINE
  5
117
330
1F
100
AcDbEntity
  8
0
  6
Continuous
 62
     7
 48
10.0
370
    15
100
AcDbSpline
210
0.0
220
0.0
230
1.0
 70
     8
 71
     3
 72
     9
 73
     5
 74
     0
 42
0.00000001
 43
0.00000001
 40
0.0
 40
0.0
 40
0.0
 40
0.0
 40
0.1849108878481083
 40
1.0
 40
1.0
 40
1.0
 40
1.0
 10
261.5101361051072
 20
454.6363662808903
 30
0.0
 10
261.4792335146493
 20
454.621045417339
 30
0.0
 10
261.3121119848277
 20
454.538190028294
 30
0.0
 10
261.1415595435569
 20
454.4625530110947
 30
0.0
 10
261.0025441056261
 20
454.4009021018999
 30
0.0
  0
SPLINE
  5
118
330
1F
100
AcDbEntity
  8
0
  6
Continuous
 62
     7
 48
10.0
370
    15
100
AcDbSpline
210
0.0
220
0.0
230
1.0
 70
     8
 71
     3
 72
    21
 73
    17
 74
     0
 42
0.00000001
 43
0.00000001
 40
0.0
 40
0.0
 40
0.0
 40
0.0
 40
0.0049101674756591
 40
0.0363086140634086
 40
0.0685861968966733
 40
0.1092383737199452
 40
0.1643921849850456
 40
0.234188956705402
 40
0.2963030050174262
 40
0.3669406798716757
 40
0.4462411580266357
 40
0.5342962698215097
 40
0.6822227948198492
 40
0.8094725269593649
 40
0.9154172372891511
 40
1.0
 40
1.0
 40
1.0
 40
1.0
 10
260.8846507507173
 20
454.3469680141462
 30
0.0
 10
260.8506535422932
 20
454.3313431513277
 30
0.0
 10
260.5992585489408
 20
454.2158038918865
 30
0.0
 10
260.1161139377908
 20
454.0160052227164
 30
0.0
 10
259.3757160676451
 20
453.7264154696668
 30
0.0
 10
258.4544173758805
 20
453.403366297873
 30
0.0
 10
257.2474026893373
 20
453.0336692373612
 30
0.0
 10
255.8649765831567
 20
452.6829748365687
 30
0.0
 10
254.3527625346718
 20
452.3714413578784
 30
0.0
 10
252.7575718391334
 20
452.1098104708299
 30
0.0
 10
250.9571005128463
 20
451.8866847716702
 30
0.0
 10
248.5628658615332
 20
451.6769896420391
 30
0.0
 10
245.7968162738271
 20
451.5432344257343
 30
0.0
 10
242.8926022277246
 20
451.4721047334189
 30
0.0
 10
240.4706169455569
 20
451.4288341254525
 30
0.0
 10
239.0187412146884
 20
451.3893531464926
 30
0.0
 10
238.3741955306993
 20
451.3718259614539
 30
0.0
  0
LINE
  5
119
330
1F
100
AcDbEntity
  8
0
  6
Continuous
 62
     7
 48
10.0
370
    15
100
AcDbLine
 10
238.3431957342
 20
451.3708612547
 30
0.0
 11
238.3742605211
 21
451.3718289957
 31
0.0
  0
ARC
  5
11A
330
1F
100
AcDbEntity
  8
0
  6
Continuous
 62
     7
 48
100.0
370
    15
100
AcDbCircle
 10
139.6306325721
 20
452.285804975
 30
0.0
 40
14.72473882811561
100
AcDbArc
 50
354.6517774917
 51
357.6698163058
  0
SPLINE
  5
11B
330
1F
100
AcDbEntity
  8
0
  6
Continuous
 62
     7
 48
10.0
370
    15
100
AcDbSpline
210
0.0
220
0.0
230
1.0
 70
     8
 71
     3
 72
    30
 73
    26
 74
     0
 42
0.00000001
 43
0.00000001
 40
0.0
 40
0.0
 40
0.0
 40
0.0
 40
0.1019853490119297
 40
0.2076172387709291
 40
0.3093128782676458
 40
0.3572714997393038
 40
0.4069865568549936
 40
0.458470748314971
 40
0.5085717774504791
 40
0.550441552804057
 40
0.6084806586414475
 40
0.6728898323778528
 40
0.743723775151744
 40
0.8063264272475893
 40
0.8280120386539849
 40
0.8497164059069804
 40
0.8714406973186084
 40
0.8897931581679585
 40
0.9110625377893771
 40
0.9253050002176954
 40
0.9305171649418716
 40
0.9542597972587228
 40
0.974871211884619
 40
0.990120510562981
 40
0.9999999999999999
 40
0.9999999999999999
 40
0.9999999999999999
 40
0.9999999999999999
 10
154.2912688910945
 20
450.9133297114075
 30
0.0
 10
157.1463480663633
 20
450.7806168786276
 30
0.0
 10
162.9585913011477
 20
450.5104459946901
 30
0.0
 10
171.6254497800947
 20
450.302343263962
 30
0.0
 10
178.7798422939179
 20
450.2278380348943
 30
0.0
 10
184.3674043084551
 20
450.2227895990068
 30
0.0
 10
188.547681021713
 20
450.2414379962167
 30
0.0
 10
192.7878417168801
 20
450.2817768441045
 30
0.0
 10
196.8079151500496
 20
450.3378272985319
 30
0.0
 10
201.0114303760085
 20
450.4109912294907
 30
0.0
 10
205.6155857130345
 20
450.506115118612
 30
0.0
 10
211.0309122497086
 20
450.6349382465064
 30
0.0
 10
216.5737459568284
 20
450.7800831970285
 30
0.0
 10
220.9194861964878
 20
450.8991939853749
 30
0.0
 10
223.8888519956186
 20
450.9809997549942
 30
0.0
 10
225.7130190082998
 20
451.0311813203716
 30
0.0
 10
227.4438145345612
 20
451.0785453041335
 30
0.0
 10
229.1624366801621
 20
451.125123714413
 30
0.0
 10
230.671465785538
 20
451.1656692675276
 30
0.0
 10
231.8123851829725
 20
451.1955724543135
 30
0.0
 10
233.0225879773707
 20
451.2275470745059
 30
0.0
 10
234.4112544591217
 20
451.2630177024955
 30
0.0
 10
236.081119799794
 20
451.305795244936
 30
0.0
 10
237.3625312298158
 20
451.3409482900457
 30
0.0
 10
238.066447910821
 20
451.3624196849366
 30
0.0
 10
238.3431957341781
 20
451.3708612547428
 30
0.0
  0
SPLINE
  5
11C
330
1F
100
AcDbEntity
  8
0
  6
Continuous
 62
     7
 48
10.0
370
    15
100
AcDbSpline
210
0.0
220
0.0
230
1.0
 70
     8
 71
     3
 72
    11
 73
     7
 74
     0
 42
0.00000001
 43
0.00000001
 40
0.0
 40
0.0
 40
0.0
 40
0.0
 40
0.2428078807820959
 40
0.5000000000000157
 40
0.7571921192179064
 40
1.0
 40
1.0
 40
1.0
 40
1.0
 10
238.343195733107
 20
451.3708612547106
 30
0.0
 10
238.3420893934202
 20
451.3811756728039
 30
0.0
 10
238.3398111731186
 20
451.4024155478442
 30
0.0
 10
238.3322852278025
 20
451.5740224703473
 30
0.0
 10
238.3226506373099
 20
451.828351852209
 30
0.0
 10
238.3154718692414
 20
452.0418409344546
 30
0.0
 10
238.3119857463187
 20
452.145514597715
 30
0.0
  0
SPLINE
  5
11D
330
1F
100
AcDbEntity
  8
0
  6
Continuous
 62
     7
 48
10.0
370
    15
100
AcDbSpline
210
0.0
220
0.0
230
1.0
 70
     8
 71
     3
 72
    11
 73
     7
 74
     0
 42
0.00000001
 43
0.00000001
 40
0.0
 40
0.0
 40
0.0
 40
0.0
 40
0.2500000000000005
 40
0.5000000000000047
 40
0.7499999999999912
 40
1.0
 40
1.0
 40
1.0
 40
1.0
 10
153.3431957341791
 20
451.9119821009687
 30
0.0
 10
153.3572301062234
 20
451.7852816933478
 30
0.0
 10
153.3852988503122
 20
451.5318808781061
 30
0.0
 10
153.6021515531246
 20
451.2084679892877
 30
0.0
 10
153.9138674483907
 20
450.97511376925
 30
0.0
 10
154.1654688421715
 20
450.9339243748936
 30
0.0
 10
154.2912695390619
 20
450.9133296777155
 30
0.0
  0
LINE
  5
11E
330
1F
100
AcDbEntity
  8
0
  6
Continuous
 62
     7
 48
10.0
370
    15
100
AcDbLine
 10
191.7375823811
 20
464.6927983449
 30
0.0
 11
182.3672767715
 21
465.5675793776
 31
0.0
  0
LINE
  5
11F
330
1F
100
AcDbEntity
  8
0
  6
Continuous
 62
     7
 48
10.0
370
    15
100
AcDbLine
 10
182.3672767715
 20
465.5675793776
 30
0.0
 11
178.5808328827
 21
466.0200936389
 31
0.0
  0
LINE
  5
120
330
1F
100
AcDbEntity
  8
0
  6
Continuous
 62
     7
 48
10.0
370
    15
100
AcDbLine
 10
178.5808328827
 20
466.0200936389
 30
0.0
 11
176.8233684847
 21
466.24458711
 31
0.0
  0
LINE
  5
121
330
1F
100
AcDbEntity
  8
0
  6
Continuous
 62
     7
 48
10.0
370
    15
100
AcDbLine
 10
166.6785558627
 20
476.1988407733
 30
0.0
 11
166.6600933017
 21
476.3321435113
 31
0.0
  0
LINE
  5
122
330
1F
100
AcDbEntity
  8
0
  6
Continuous
 62
     7
 48
10.0
370
    15
100
AcDbLine
 10
298.804715471
 20
558.3421168298
 30
0.0
 11
298.0766997693
 21
558.3772257789
 31
0.0
  0
ARC
  5
123
330
1F
100
AcDbEntity
  8
0
  6
Continuous
 62
     7
 48
100.0
370
    15
100
AcDbCircle
 10
466.6406480452
 20
521.3342567953
 30
0.0
 40
301.8000935944588
100
AcDbArc
 50
180.0821941808
 51
188.5404561189
  0
LINE
  5
124
330
1F
100
AcDbEntity
  8
0
  6
Continuous
 62
     7
 48
10.0
370
    15
100
AcDbLine
 10
164.8408657153
 20
520.9013068801
 30
0.0
 11
166.3406477511
 21
521.0984503365
 31
0.0
  0
ARC
  5
125
330
1F
100
AcDbEntity
  8
0
  6
Continuous
 62
     7
 48
100.0
370
    15
100
AcDbCircle
 10
466.6406480452
 20
521.3342567953
 30
0.0
 40
300.3000928760094
100
AcDbArc
 50
180.0449907162
 51
180.5723947538
  0
LINE
  5
126
330
1F
100
AcDbEntity
  8
0
  6
Continuous
 62
     7
 48
10.0
370
    15
100
AcDbLine
 10
166.3555405534
 20
518.3342567953
 30
0.0
 11
169.6406480452
 21
518.3342567953
 31
0.0
  0
ARC
  5
127
330
1F
100
AcDbEntity
  8
0
  6
Continuous
 62
     7
 48
100.0
370
    15
100
AcDbCircle
 10
169.6406480452
 20
516.8342567953
 30
0.0
 40
1.50000000000009
100
AcDbArc
 50
221.8103148958
 51
90.0
  0
LINE
  5
128
330
1F
100
AcDbEntity
  8
0
  6
Continuous
 62
     7
 48
10.0
370
    15
100
AcDbLine
 10
168.5226140564
 20
515.8342567953
 30
0.0
 11
166.3909256784
 21
515.8342567953
 31
0.0
  0
ARC
  5
129
330
1F
100
AcDbEntity
  8
0
  6
Continuous
 62
     7
 48
100.0
370
    15
100
AcDbCircle
 10
466.6406480452
 20
521.3342567953
 30
0.0
 40
300.3000935944588
100
AcDbArc
 50
181.0494316024
 51
188.5404561175
  0
ARC
  5
12A
330
1F
100
AcDbEntity
  8
0
  6
Continuous
 62
     7
 48
100.0
370
    15
100
AcDbCircle
 10
179.8562930452
 20
478.2670067953
 30
0.0
 40
10.30000019061726
100
AcDbArc
 50
188.5404564099
 51
262.5733826396
  0
ARC
  5
12B
330
1F
100
AcDbEntity
  8
0
  6
Continuous
 62
     7
 48
100.0
370
    15
100
AcDbCircle
 10
217.3406480452
 20
765.8342567953
 30
0.0
 40
300.3000005141502
100
AcDbArc
 50
262.5733758069
 51
277.4178578109
  0
ARC
  5
12C
330
1F
100
AcDbEntity
  8
0
  6
Continuous
 62
     7
 48
100.0
370
    15
100
AcDbCircle
 10
254.7810030452
 20
478.2612747953
 30
0.0
 40
10.30000059669568
100
AcDbArc
 50
277.4178573392
 51
333.6818543099
  0
ARC
  5
12D
330
1F
100
AcDbEntity
  8
0
  6
Continuous
 62
     7
 48
100.0
370
    15
100
AcDbCircle
 10
-5.1593519548
 20
606.8342567953
 30
0.0
 40
300.3000003516928
100
AcDbArc
 50
333.6818528876
 51
347.7978990469
  0
ARC
  5
12E
330
1F
100
AcDbEntity
  8
0
  6
Continuous
 62
     7
 48
100.0
370
    15
100
AcDbCircle
 10
290.7998340452
 20
542.8342567953
 30
0.0
 40
2.499999724032091
100
AcDbArc
 50
119.3272092101
 51
167.7979160703
  0
ARC
  5
12F
330
1F
100
AcDbEntity
  8
0
  6
Continuous
 62
     7
 48
100.0
370
    15
100
AcDbCircle
 10
288.8406480452
 20
546.3216036392
 30
0.0
 40
1.5
100
AcDbArc
 50
299.3272092101
 51
0.0
  0
LINE
  5
130
330
1F
100
AcDbEntity
  8
0
  6
Continuous
 62
     7
 48
10.0
370
    15
100
AcDbLine
 10
290.3406480452
 20
546.3216036392
 30
0.0
 11
290.3406480452
 21
549.2284354933
 31
0.0
  0
ARC
  5
131
330
1F
100
AcDbEntity
  8
0
  6
Continuous
 62
     7
 48
100.0
370
    15
100
AcDbCircle
 10
285.7430031262
 20
549.2284354933
 30
0.0
 40
4.597644918963397
100
AcDbArc
 50
0.0
 51
59.9028564265
  0
ARC
  5
132
330
1F
100
AcDbEntity
  8
0
  6
Continuous
 62
     7
 48
100.0
370
    15
100
AcDbCircle
 10
285.3406480452
 20
548.5342567953
 30
0.0
 40
5.400000000000042
100
AcDbArc
 50
59.9028564265
 51
90.0
  0
LINE
  5
133
330
1F
100
AcDbEntity
  8
0
  6
Continuous
 62
     7
 48
10.0
370
    15
100
AcDbLine
 10
285.3406480452
 20
553.9342567953
 30
0.0
 11
282.6406480452
 21
553.9342567953
 31
0.0
  0
ARC
  5
134
330
1F
100
AcDbEntity
  8
0
  6
Continuous
 62
     7
 48
100.0
370
    15
100
AcDbCircle
 10
282.6406480452
 20
552.5342567953
 30
0.0
 40
1.399999999999977
100
AcDbArc
 50
90.0
 51
180.0
  0
LINE
  5
135
330
1F
100
AcDbEntity
  8
0
  6
Continuous
 62
     7
 48
10.0
370
    15
100
AcDbLine
 10
281.2406480452
 20
552.5342567953
 30
0.0
 11
281.2406480452
 21
551.1342567953
 31
0.0
  0
ARC
  5
136
330
1F
100
AcDbEntity
  8
0
  6
Continuous
 62
     7
 48
100.0
370
    15
100
AcDbCircle
 10
282.6406480452
 20
551.1342567953
 30
0.0
 40
1.399999999999977
100
AcDbArc
 50
180.0
 51
270.0
  0
LINE
  5
137
330
1F
100
AcDbEntity
  8
0
  6
Continuous
 62
     7
 48
10.0
370
    15
100
AcDbLine
 10
282.6406480452
 20
549.7342567953
 30
0.0
 11
283.7241329062
 21
549.7342567953
 31
0.0
  0
ARC
  5
138
330
1F
100
AcDbEntity
  8
0
  6
Continuous
 62
     7
 48
100.0
370
    15
100
AcDbCircle
 10
284.6406480452
 20
549.3342567953
 30
0.0
 40
1.0
100
AcDbArc
 50
270.0
 51
156.4218215218
  0
LINE
  5
139
330
1F
100
AcDbEntity
  8
0
  6
Continuous
 62
     7
 48
10.0
370
    15
100
AcDbLine
 10
284.6406480452
 20
548.3342567953
 30
0.0
 11
282.6406480452
 21
548.3342567953
 31
0.0
  0
ARC
  5
13A
330
1F
100
AcDbEntity
  8
0
  6
Continuous
 62
     7
 48
100.0
370
    15
100
AcDbCircle
 10
282.6406480452
 20
551.1342567953
 30
0.0
 40
2.800000000000011
100
AcDbArc
 50
180.0
 51
270.0
  0
LINE
  5
13B
330
1F
100
AcDbEntity
  8
0
  6
Continuous
 62
     7
 48
10.0
370
    15
100
AcDbLine
 10
279.8406480452
 20
551.1342567953
 30
0.0
 11
279.8406480452
 21
552.5342567953
 31
0.0
  0
ARC
  5
13C
330
1F
100
AcDbEntity
  8
0
  6
Continuous
 62
     7
 48
100.0
370
    15
100
AcDbCircle
 10
282.6406480452
 20
552.5342567953
 30
0.0
 40
2.800000000000068
100
AcDbArc
 50
90.0
 51
180.0
  0
LINE
  5
13D
330
1F
100
AcDbEntity
  8
0
  6
Continuous
 62
     7
 48
10.0
370
    15
100
AcDbLine
 10
282.6406480452
 20
555.3342567953
 30
0.0
 11
283.8519730452
 21
555.3342567953
 31
0.0
  0
LINE
  5
13E
330
1F
100
AcDbEntity
  8
0
  6
Continuous
 62
     7
 48
10.0
370
    15
100
AcDbLine
 10
283.8519730452
 20
555.3342567953
 30
0.0
 11
284.1406480452
 21
555.8342567953
 31
0.0
  0
LINE
  5
13F
330
1F
100
AcDbEntity
  8
0
  6
Continuous
 62
     7
 48
10.0
370
    15
100
AcDbLine
 10
284.1406480452
 20
555.8342567953
 30
0.0
 11
284.4293230452
 21
555.3342567953
 31
0.0
  0
LINE
  5
140
330
1F
100
AcDbEntity
  8
0
  6
Continuous
 62
     7
 48
10.0
370
    15
100
AcDbLine
 10
284.4293230452
 20
555.3342567953
 30
0.0
 11
285.3406480452
 21
555.3342567953
 31
0.0
  0
ARC
  5
141
330
1F
100
AcDbEntity
  8
0
  6
Continuous
 62
     7
 48
100.0
370
    15
100
AcDbCircle
 10
285.3406480452
 20
548.5342567953
 30
0.0
 40
6.800000000000068
100
AcDbArc
 50
44.7532917458
 51
90.0
  0
ARC
  5
142
330
1F
100
AcDbEntity
  8
0
  6
Continuous
 62
     7
 48
100.0
370
    15
100
AcDbCircle
 10
290.2406480452
 20
553.3922399159
 30
0.0
 40
0.1000000000000342
100
AcDbArc
 50
224.7532917459
 51
0.0
  0
LINE
  5
143
330
1F
100
AcDbEntity
  8
0
  6
Continuous
 62
     7
 48
10.0
370
    15
100
AcDbLine
 10
290.3406480452
 20
553.3922399159
 30
0.0
 11
290.3406480452
 21
558.7342567953
 31
0.0
  0
LINE
  5
144
330
1F
100
AcDbEntity
  8
0
  6
Continuous
 62
     7
 48
10.0
370
    15
100
AcDbLine
 10
290.3406480452
 20
558.7342567953
 30
0.0
 11
292.3406480452
 21
558.4709518001
 31
0.0
  0
LINE
  5
145
330
1F
100
AcDbEntity
  8
0
  6
Continuous
 62
     7
 48
10.0
370
    15
100
AcDbLine
 10
292.3406480452
 20
558.4709518001
 30
0.0
 11
292.3406480452
 21
543.8342567953
 31
0.0
  0
LINE
  5
146
330
1F
100
AcDbEntity
  8
0
  6
Continuous
 62
     7
 48
10.0
370
    15
100
AcDbLine
 10
292.3406480452
 20
543.8342567953
 30
0.0
 11
290.7998340452
 21
543.8342566573
 31
0.0
  0
ARC
  5
147
330
1F
100
AcDbEntity
  8
0
  6
Continuous
 62
     7
 48
100.0
370
    15
100
AcDbCircle
 10
290.7998340452
 20
542.8342567953
 30
0.0
 40
0.999999862016125
100
AcDbArc
 50
90.0
 51
167.797944071
  0
ARC
  5
148
330
1F
100
AcDbEntity
  8
0
  6
Continuous
 62
     7
 48
100.0
370
    15
100
AcDbCircle
 10
-5.1593519548
 20
606.8342567953
 30
0.0
 40
301.8000003516929
100
AcDbArc
 50
333.6818528025
 51
347.7978990387
  0
ARC
  5
149
330
1F
100
AcDbEntity
  8
0
  6
Continuous
 62
     7
 48
100.0
370
    15
100
AcDbCircle
 10
254.7810030452
 20
478.2612747953
 30
0.0
 40
11.80000059669572
100
AcDbArc
 50
277.4178600601
 51
333.681851953
  0
ARC
  5
14A
330
1F
100
AcDbEntity
  8
0
  6
Continuous
 62
     7
 48
100.0
370
    15
100
AcDbCircle
 10
217.3406480452
 20
765.8342567953
 30
0.0
 40
301.8000005141502
100
AcDbArc
 50
262.5733758069
 51
277.4178579149
  0
ARC
  5
14B
330
1F
100
AcDbEntity
  8
0
  6
Continuous
 62
     7
 48
100.0
370
    15
100
AcDbCircle
 10
179.8562930452
 20
478.2670067953
 30
0.0
 40
11.80000019061732
100
AcDbArc
 50
188.5404564099
 51
262.5733817711
  0
SPLINE
  5
14C
330
1F
100
AcDbEntity
  8
0
  6
Continuous
 62
     8
 48
10.0
370
    15
100
AcDbSpline
210
0.0
220
0.0
230
1.0
 70
     8
 71
     3
 72
    11
 73
     7
 74
     0
 42
0.00000001
 43
0.00000001
 40
0.0
 40
0.0
 40
0.0
 40
0.0
 40
0.2706952737484619
 40
0.5413913859092343
 40
0.8120874969288517
 40
1.0
 40
1.0
 40
1.0
 40
1.0
 10
291.9802258423513
 20
559.2838871570232
 30
0.0
 10
291.8655529460023
 20
559.2804128484479
 30
0.0
 10
291.6362067981329
 20
559.2734642205363
 30
0.0
 10
291.3256214751374
 20
559.1162577039426
 30
0.0
 10
291.0951781163682
 20
558.9017958063639
 30
0.0
 10
291.0228363874721
 20
558.7220126215692
 30
0.0
 10
290.9931947389384
 20
558.6483473932527
 30
0.0
  0
LINE
  5
14D
330
1F
100
AcDbEntity
  8
0
  6
Continuous
 62
     8
 48
10.0
370
    15
100
AcDbLine
 10
290.3406480452
 20
557.924630409
 30
0.0
 11
288.306712758
 21
558.9994750219
 31
0.0
  0
DIMENSION
  5
14E
330
1F
100
AcDbEntity
  8
SLD-0
 48
10.0
100
AcDbDimension
  2
*D5
 10
132.9515216814
 20
523.9636298907
 30
0.0
 11
132.9515216814
 21
487.7614859293
 31
0.0
 70
   160
 71
     2
 42
-1.0
 73
     0
 74
     0
 75
     0
  3
SLDDIMSTYLE0
100
AcDbAlignedDimension
 13
154.291268988
 23
450.9133312045
 33
0.0
 14
158.3431957342
 24
523.9636298907
 34
0.0
 50
90.0
100
AcDbRotatedDimension
  0
DIMENSION
  5
159
330
1F
100
AcDbEntity
  8
SLD-0
 48
10.0
100
AcDbDimension
  2
*D6
 10
298.9431957342
 20
429.5367001883
 30
0.0
 11
233.4959714281
 21
429.5367001883
 31
0.0
 70
   160
 71
     2
 42
-1.0
 73
     0
 74
     0
 75
     0
  3
SLDDIMSTYLE0
100
AcDbAlignedDimension
 13
153.3431957342
 23
482.7603286572
 33
0.0
 14
298.9431957342
 24
561.2136298907
 34
0.0
100
AcDbRotatedDimension
  0
DIMENSION
  5
163
330
1F
100
AcDbEntity
  8
SLD-0
 48
10.0
100
AcDbDimension
  2
*D7
 10
319.0962761841
 20
450.9133312045
 30
0.0
 11
319.0962761841
 21
500.8720010192
 31
0.0
 70
   160
 71
     2
 42
-1.0
 73
     0
 74
     0
 75
     0
  3
SLDDIMSTYLE0
100
AcDbAlignedDimension
 13
298.2158838769
 23
561.2633350037
 33
0.0
 14
154.291268988
 24
450.9133312045
 34
0.0
 50
90.0
100
AcDbRotatedDimension
  0
SPLINE
  5
16D
330
1F
100
AcDbEntity
  8
0
  6
Continuous
 62
     7
 48
10.0
370
    15
100
AcDbSpline
210
0.0
220
0.0
230
1.0
 70
     8
 71
     3
 72
    12
 73
     8
 74
     0
 42
0.00000001
 43
0.00000001
 40
0.0
 40
0.0
 40
0.0
 40
0.0
 40
0.0465941276790469
 40
0.2756057828335887
 40
0.5129476415265023
 40
0.7548725236734052
 40
1.0
 40
1.0
 40
1.0
 40
1.0
 10
121.2302729565868
 20
341.037163052512
 30
0.0
 10
121.2423469692678
 20
341.0357140016011
 30
0.0
 10
121.3137651475373
 20
341.0271428182666
 30
0.0
 10
121.446777423583
 20
341.0724479411544
 30
0.0
 10
121.5990640005861
 20
341.177705192368
 30
0.0
 10
121.7085602020261
 20
341.3408713867282
 30
0.0
 10
121.7225118400728
 20
341.4683382220651
 30
0.0
 10
121.7295335283277
 20
341.5324907163871
 30
0.0
  0
SPLINE
  5
16E
330
1F
100
AcDbEntity
  8
0
  6
Continuous
 62
     7
 48
10.0
370
    15
100
AcDbSpline
210
0.0
220
0.0
230
1.0
 70
     8
 71
     3
 72
    13
 73
     9
 74
     0
 42
0.00000001
 43
0.00000001
 40
0.0
 40
0.0
 40
0.0
 40
0.0
 40
0.2145353965764746
 40
0.454227900718194
 40
0.5832862272820154
 40
0.7175682919859696
 40
0.8566266337327074
 40
1.0
 40
1.0
 40
1.0
 40
1.0
 10
79.73002668548968
 20
341.5375603365737
 30
0.0
 10
79.73507659352494
 20
341.480834277869
 30
0.0
 10
79.74576857798199
 20
341.3607302811738
 30
0.0
 10
79.82773061158433
 20
341.2245133827175
 30
0.0
 10
79.92409350930913
 20
341.1329832603075
 30
0.0
 10
80.01516991488876
 20
341.0774279545276
 30
0.0
 10
80.1193499272921
 20
341.0395995992369
 30
0.0
 10
80.19274306680533
 20
341.0348657182652
 30
0.0
 10
80.23000029102754
 20
341.032462615387
 30
0.0
  0
SPLINE
  5
16F
330
1F
100
AcDbEntity
  8
0
  6
Continuous
 62
     7
 48
10.0
370
    15
100
AcDbSpline
210
0.0
220
0.0
230
1.0
 70
     8
 71
     3
 72
    29
 73
    25
 74
     0
 42
0.00000001
 43
0.00000001
 40
0.0
 40
0.0
 40
0.0
 40
0.0
 40
0.0847493027857155
 40
0.1834166763491551
 40
0.2759080473244993
 40
0.3569688062885454
 40
0.4214629574619908
 40
0.4514896413531552
 40
0.4634008280046306
 40
0.4734265351664759
 40
0.4820655754523167
 40
0.4861725183182689
 40
0.490336849317239
 40
0.4994548771637967
 40
0.5104023319255274
 40
0.5389799752365556
 40
0.5764622679515532
 40
0.6216224496571889
 40
0.6727895896943428
 40
0.7855581296137416
 40
0.8986675281740744
 40
0.9501164949087791
 40
0.9954323121980629
 40
0.9999999999999999
 40
0.9999999999999999
 40
0.9999999999999999
 40
0.9999999999999999
 10
88.70769154785098
 20
246.7824200994078
 30
0.0
 10
88.73578289401378
 20
246.6584523427084
 30
0.0
 10
88.79657892628771
 20
246.3901580540138
 30
0.0
 10
88.89123727254707
 20
245.9517249048729
 30
0.0
 10
88.99023510429622
 20
245.4929434441463
 30
0.0
 10
89.08740005569715
 20
245.0482625505167
 30
0.0
 10
89.17408732863872
 20
244.6592056926326
 30
0.0
 10
89.24580260974457
 20
244.3404821722719
 30
0.0
 10
89.29174423215782
 20
244.1365017692295
 30
0.0
 10
89.3242733677099
 20
243.9920089914255
 30
0.0
 10
89.3533997770668
 20
243.8625212295833
 30
0.0
 10
89.37621227754295
 20
243.7610696523677
 30
0.0
 10
89.3995177682088
 20
243.6574346870696
 30
0.0
 10
89.42956471804092
 20
243.5239307420483
 30
0.0
 10
89.47945353147493
 20
243.3029622852511
 30
0.0
 10
89.53980855320043
 20
243.038263553876
 30
0.0
 10
89.6101558550916
 20
242.7357307234837
 30
0.0
 10
89.68377234012986
 20
242.4267523161504
 30
0.0
 10
89.78918931564095
 20
241.9946838761131
 30
0.0
 10
89.92024734984696
 20
241.4714056683383
 30
0.0
 10
90.05394631339306
 20
240.9312250379222
 30
0.0
 10
90.17326698942482
 20
240.4302241309306
 30
0.0
 10
90.2327629258653
 20
240.1755087971753
 30
0.0
 10
90.27263680591332
 20
240.0026875334308
 30
0.0
 10
90.27628794139746
 20
239.9868627918278
 30
0.0
  0
LINE
  5
170
330
1F
100
AcDbEntity
  8
0
  6
Continuous
 62
     7
 48
10.0
370
    15
100
AcDbLine
 10
92.4454919989
 20
234.0324497778
 30
0.0
 11
109.0153549857
 21
234.0324497778
 31
0.0
  0
LINE
  5
171
330
1F
100
AcDbEntity
  8
0
  6
Continuous
 62
     7
 48
10.0
370
    15
100
AcDbLine
 10
88.6225597608
 20
247.1610770349
 30
0.0
 11
88.6283148784
 21
247.1610770349
 31
0.0
  0
SPLINE
  5
172
330
1F
100
AcDbEntity
  8
0
  6
Continuous
 62
     7
 48
10.0
370
    15
100
AcDbSpline
210
0.0
220
0.0
230
1.0
 70
     8
 71
     3
 72
    11
 73
     7
 74
     0
 42
0.00000001
 43
0.00000001
 40
0.0
 40
0.0
 40
0.0
 40
0.0
 40
0.2377338210830918
 40
0.4888973226796745
 40
0.7458994837269713
 40
1.0
 40
1.0
 40
1.0
 40
1.0
 10
109.0062690834293
 20
234.0406011556578
 30
0.0
 10
109.0881053751145
 20
234.0456321538689
 30
0.0
 10
109.2564009239794
 20
234.0559783534322
 30
0.0
 10
109.4973541965838
 20
234.1525645458595
 30
0.0
 10
109.7149769096406
 20
234.3049050070458
 30
0.0
 10
109.8181018504398
 20
234.4481281526873
 30
0.0
 10
109.8693715891057
 20
234.5193331705137
 30
0.0
  0
LINE
  5
173
330
1F
100
AcDbEntity
  8
0
  6
Continuous
 62
     7
 48
10.0
370
    15
100
AcDbLine
 10
110.2005507576
 20
235.7785019438
 30
0.0
 11
110.2070893051
 21
235.8068408685
 31
0.0
  0
LINE
  5
174
330
1F
100
AcDbEntity
  8
0
  6
Continuous
 62
     7
 48
10.0
370
    15
100
AcDbLine
 10
109.8934581253
 20
234.5609963062
 30
0.0
 11
109.9530802337
 21
234.7723650961
 31
0.0
  0
LINE
  5
175
330
1F
100
AcDbEntity
  8
0
  6
Continuous
 62
     7
 48
10.0
370
    15
100
AcDbLine
 10
109.8478577182
 20
234.4856767429
 30
0.0
 11
109.8723193306
 21
234.5273194644
 31
0.0
  0
SPLINE
  5
176
330
1F
100
AcDbEntity
  8
0
  6
Continuous
 62
     7
 48
10.0
370
    15
100
AcDbSpline
210
0.0
220
0.0
230
1.0
 70
     8
 71
     3
 72
    10
 73
     6
 74
     0
 42
0.00000001
 43
0.00000001
 40
0.0
 40
0.0
 40
0.0
 40
0.0
 40
0.2919781714355199
 40
0.620512613110859
 40
1.0
 40
1.0
 40
1.0
 40
1.0
 10
109.9971957992122
 20
234.8971091480396
 30
0.0
 10
110.0017151280174
 20
234.9184823308492
 30
0.0
 10
110.0113196149305
 20
234.9639046631093
 30
0.0
 10
110.0482879892843
 20
235.0914440307948
 30
0.0
 10
110.0899291508469
 20
235.2557503187875
 30
0.0
 10
110.1122480892621
 20
235.3438156316978
 30
0.0
  0
SPLINE
  5
177
330
1F
100
AcDbEntity
  8
0
  6
Continuous
 62
     7
 48
10.0
370
    15
100
AcDbSpline
210
0.0
220
0.0
230
1.0
 70
     8
 71
     3
 72
    25
 73
    21
 74
     0
 42
0.00000001
 43
0.00000001
 40
0.0
 40
0.0
 40
0.0
 40
0.0
 40
0.0827223589901816
 40
0.1567219954790785
 40
0.2219742512812987
 40
0.278471194909318
 40
0.3262152542688538
 40
0.3648233421811217
 40
0.4005103952224619
 40
0.435462689423752
 40
0.4696805014043067
 40
0.5037660863008123
 40
0.5371293371504161
 40
0.5757237339251593
 40
0.6238360799845254
 40
0.6814660873275935
 40
0.747330712804302
 40
0.8223749184727711
 40
0.9065980590831441
 40
1.0
 40
1.0
 40
1.0
 40
1.0
 10
91.25149213738202
 20
235.8104146311615
 30
0.0
 10
91.2612216679532
 20
235.7682374363773
 30
0.0
 10
91.27965479129256
 20
235.6883304534167
 30
0.0
 10
91.30132042546205
 20
235.5944806466317
 30
0.0
 10
91.32128914502904
 20
235.5079739783623
 30
0.0
 10
91.33982643838524
 20
235.4276525631809
 30
0.0
 10
91.355911698486
 20
235.3579484238946
 30
0.0
 10
91.36980325477684
 20
235.2977459401749
 30
0.0
 10
91.38222570997857
 20
235.2439084120888
 30
0.0
 10
91.39403398800368
 20
235.1927320365834
 30
0.0
 10
91.40545199906771
 20
235.1432468790477
 30
0.0
 10
91.41639649454858
 20
235.0958147931828
 30
0.0
 10
91.42740852711556
 20
235.0480898709721
 30
0.0
 10
91.43935148632629
 20
234.9963380055553
 30
0.0
 10
91.45287484359612
 20
234.9377469410021
 30
0.0
 10
91.4676062670434
 20
234.8739295734017
 30
0.0
 10
91.48264543211207
 20
234.8087878507419
 30
0.0
 10
91.49667338915638
 20
234.7480368647719
 30
0.0
 10
91.50866683353739
 20
234.6961104907935
 30
0.0
 10
91.51227849423262
 20
234.6804928862611
 30
0.0
 10
91.51417764110965
 20
234.6722805630731
 30
0.0
  0
SPLINE
  5
178
330
1F
100
AcDbEntity
  8
0
  6
Continuous
 62
     7
 48
10.0
370
    15
100
AcDbSpline
210
0.0
220
0.0
230
1.0
 70
     8
 71
     3
 72
     9
 73
     5
 74
     0
 42
0.00000001
 43
0.00000001
 40
0.0
 40
0.0
 40
0.0
 40
0.0
 40
0.0688785456419437
 40
0.9999999999999999
 40
0.9999999999999999
 40
0.9999999999999999
 40
0.9999999999999999
 10
91.61475292127766
 20
234.4863403104776
 30
0.0
 10
91.61643346581178
 20
234.4827986288495
 30
0.0
 10
91.64083213042429
 20
234.4313794010603
 30
0.0
 10
91.66504621983132
 20
234.4078322528741
 30
0.0
 10
91.68759247797595
 20
234.3859069980091
 30
0.0
  0
LINE
  5
179
330
1F
100
AcDbEntity
  8
0
  6
Continuous
 62
     7
 48
10.0
370
    15
100
AcDbLine
 10
91.5861524697
 20
234.5340773391
 30
0.0
 11
91.4676666271
 21
234.824238573
 31
0.0
  0
SPLINE
  5
17A
330
1F
100
AcDbEntity
  8
0
  6
Continuous
 62
     7
 48
10.0
370
    15
100
AcDbSpline
210
0.0
220
0.0
230
1.0
 70
     8
 71
     3
 72
    11
 73
     7
 74
     0
 42
0.00000001
 43
0.00000001
 40
0.0
 40
0.0
 40
0.0
 40
0.0
 40
0.2538808213044989
 40
0.510723702655678
 40
0.7619237256463105
 40
1.0
 40
1.0
 40
1.0
 40
1.0
 10
91.5900717806191
 20
234.5170832248578
 30
0.0
 10
91.64121881295844
 20
234.4455582487446
 30
0.0
 10
91.74410961661187
 20
234.3016738054644
 30
0.0
 10
91.96202328865228
 20
234.1483449257794
 30
0.0
 10
92.20363946214876
 20
234.0510776699572
 30
0.0
 10
92.37226813340699
 20
234.0406002130356
 30
0.0
 10
92.45432092447878
 20
234.035502001816
 30
0.0
  0
LINE
  5
17B
330
1F
100
AcDbEntity
  8
0
  6
Continuous
 62
     7
 48
10.0
370
    15
100
AcDbLine
 10
112.8316860708
 20
247.1610770349
 30
0.0
 11
112.8344975539
 21
247.1610770349
 31
0.0
  0
ARC
  5
17C
330
1F
100
AcDbEntity
  8
0
  6
Continuous
 62
     7
 48
100.0
370
    15
100
AcDbCircle
 10
124.9846397651
 20
348.5253286807
 30
0.0
 40
8.235134047196778
100
AcDbArc
 50
230.7369402275
 51
237.4459676908
  0
SPLINE
  5
17D
330
1F
100
AcDbEntity
  8
0
  6
Continuous
 62
     7
 48
10.0
370
    15
100
AcDbSpline
210
0.0
220
0.0
230
1.0
 70
     8
 71
     3
 72
    13
 73
     9
 74
     0
 42
0.00000001
 43
0.00000001
 40
0.0
 40
0.0
 40
0.0
 40
0.0
 40
0.1498270147219793
 40
0.3048472215418125
 40
0.4664574104922235
 40
0.6357326826238177
 40
0.8134295339303733
 40
0.9999999999999999
 40
0.9999999999999999
 40
0.9999999999999999
 40
0.9999999999999999
 10
120.553357594292
 20
341.5840628669181
 30
0.0
 10
120.5711206000951
 20
341.6100230677326
 30
0.0
 10
120.6072622997434
 20
341.6628432824559
 30
0.0
 10
120.6518768855007
 20
341.7507570669868
 30
0.0
 10
120.6893342631518
 20
341.8468437965555
 30
0.0
 10
120.7171188064803
 20
341.951851747312
 30
0.0
 10
120.7347989705179
 20
342.0652990919162
 30
0.0
 10
120.7351392091194
 20
342.1440588844391
 30
0.0
 10
120.7353134725557
 20
342.1843980817748
 30
0.0
  0
ARC
  5
17E
330
1F
100
AcDbEntity
  8
0
  6
Continuous
 62
     7
 48
100.0
370
    15
100
AcDbCircle
 10
119.9340323579
 20
350.9402030306
 30
0.0
 40
8.792392758352554
100
AcDbArc
 50
268.9490919782
 51
275.2288171525
  0
ELLIPSE
  5
17F
330
1F
100
AcDbEntity
  8
0
  6
Continuous
 62
     7
 48
100.0
370
    15
100
AcDbEllipse
 10
119.7727730456
 20
345.0889977884
 30
0.0
 11
1.0
 21
0.0
 31
0.0
210
0.0
220
0.0
230
1.0
 40
0.0681955204
 41
4.712388991394834
 42
6.0086099928248
  0
LINE
  5
180
330
1F
100
AcDbEntity
  8
0
  6
Continuous
 62
     7
 48
10.0
370
    15
100
AcDbLine
 10
119.7727730676
 20
342.1492888993
 30
0.0
 11
119.7727730566
 21
345.020802268
 31
0.0
  0
LINE
  5
181
330
1F
100
AcDbEntity
  8
0
  6
Continuous
 62
     7
 48
10.0
370
    15
100
AcDbLine
 10
120.7353134696
 20
342.1843981562
 30
0.0
 11
120.7353134785
 21
345.0705073789
 31
0.0
  0
ELLIPSE
  5
182
330
1F
100
AcDbEntity
  8
0
  6
Continuous
 62
     7
 48
100.0
370
    15
100
AcDbEllipse
 10
81.6872275364
 20
345.0889977884
 30
0.0
 11
1.0
 21
0.0
 31
0.0
210
0.0
220
0.0
230
1.0
 40
0.0681955204
 41
3.41616793502967
 42
4.712388980384676
  0
LINE
  5
183
330
1F
100
AcDbEntity
  8
0
  6
Continuous
 62
     7
 48
10.0
370
    15
100
AcDbLine
 10
80.7246870946
 20
345.070507381
 30
0.0
 11
80.7246870946
 21
342.1843963494
 31
0.0
  0
ARC
  5
184
330
1F
100
AcDbEntity
  8
0
  6
Continuous
 62
     7
 48
100.0
370
    15
100
AcDbCircle
 10
81.5259682044
 20
350.9402003259
 30
0.0
 40
8.79239186408572
100
AcDbArc
 50
264.7711823266
 51
271.0509082573
  0
LINE
  5
185
330
1F
100
AcDbEntity
  8
0
  6
Continuous
 62
     7
 48
10.0
370
    15
100
AcDbLine
 10
81.6872275364
 20
345.020802268
 30
0.0
 11
81.6872275364
 21
342.1492872153
 31
0.0
  0
SPLINE
  5
186
330
1F
100
AcDbEntity
  8
0
  6
Continuous
 62
     7
 48
10.0
370
    15
100
AcDbSpline
210
0.0
220
0.0
230
1.0
 70
     8
 71
     3
 72
    22
 73
    18
 74
     0
 42
0.00000001
 43
0.00000001
 40
0.0
 40
0.0
 40
0.0
 40
0.0
 40
0.0289095193178583
 40
0.0600878380513762
 40
0.0935347402638583
 40
0.1292505500914643
 40
0.1672369695341382
 40
0.2074969343047139
 40
0.2500305783008378
 40
0.3695143071589908
 40
0.4999932088332621
 40
0.6383395228937481
 40
0.7499656972722557
 40
0.8154189749356728
 40
0.8789208554641459
 40
0.9404547186177994
 40
1.0
 40
1.0
 40
1.0
 40
1.0
 10
88.60015966608351
 20
324.2849010358107
 30
0.0
 10
88.58942997554979
 20
324.4721667433578
 30
0.0
 10
88.56712853566616
 20
324.8613946438271
 30
0.0
 10
88.51862302191549
 20
325.4663721178158
 30
0.0
 10
88.4545789780273
 20
326.1142810214513
 30
0.0
 10
88.37097438690364
 20
326.8045038089043
 30
0.0
 10
88.26477765508606
 20
327.5363260485707
 30
0.0
 10
88.1321691176491
 20
328.3087826415535
 30
0.0
 10
87.87540871366878
 20
329.5959922263682
 30
0.0
 10
87.40388752450076
 20
331.4366221688371
 30
0.0
 10
86.57816540210816
 20
333.8204050633871
 30
0.0
 10
85.5670097228047
 20
336.0763349330913
 30
0.0
 10
84.58893481089378
 20
337.876290565235
 30
0.0
 10
83.77444693424488
 20
339.2088267148474
 30
0.0
 10
83.09220427285095
 20
340.2401396985891
 30
0.0
 10
82.40051440622487
 20
341.2187038845514
 30
0.0
 10
81.9223721857115
 20
341.8425078922126
 30
0.0
 10
81.6872275357363
 20
342.1492872744582
 30
0.0
  0
LINE
  5
187
330
1F
100
AcDbEntity
  8
0
  6
Continuous
 62
     7
 48
10.0
370
    15
100
AcDbLine
 10
112.8598409332
 20
324.2849010337
 30
0.0
 11
88.6001596482
 21
324.2849010337
 31
0.0
  0
SPLINE
  5
188
330
1F
100
AcDbEntity
  8
0
  6
Continuous
 62
     7
 48
10.0
370
    15
100
AcDbSpline
210
0.0
220
0.0
230
1.0
 70
     8
 71
     3
 72
    23
 73
    19
 74
     0
 42
0.00000001
 43
0.00000001
 40
0.0
 40
0.0
 40
0.0
 40
0.0
 40
0.0312905575991292
 40
0.0640599728182289
 40
0.0983066211417317
 40
0.1340288841536622
 40
0.1712254629957916
 40
0.2098957872625281
 40
0.2500405347070174
 40
0.3808494624241304
 40
0.5000194890608105
 40
0.6269598506170596
 40
0.7499823089699547
 40
0.7972933142159647
 40
0.8459574821108073
 40
0.8959693695927099
 40
0.9473206717188006
 40
1.0
 40
1.0
 40
1.0
 40
1.0
 10
119.7727732550117
 20
342.1492891386022
 30
0.0
 10
119.6485774847552
 20
341.9885739341099
 30
0.0
 10
119.3943161907031
 20
341.6595477862494
 30
0.0
 10
119.0143819679987
 20
341.1468421374928
 30
0.0
 10
118.6259189572622
 20
340.6047929600973
 30
0.0
 10
118.231228867531
 20
340.0319970993442
 30
0.0
 10
117.8318188051154
 20
339.4277660291183
 30
0.0
 10
117.4296328012071
 20
338.7911481930272
 30
0.0
 10
116.7283880212205
 20
337.6252425588982
 30
0.0
 10
115.8371484403718
 20
335.9641837353489
 30
0.0
 10
114.8507984067643
 20
333.7235088528941
 30
0.0
 10
114.0612837374642
 20
331.4591019766852
 30
0.0
 10
113.5812640203157
 20
329.5884064441801
 30
0.0
 10
113.305820116192
 20
328.194254268057
 30
0.0
 10
113.1515283791299
 20
327.2595052512291
 30
0.0
 10
113.0239591776834
 20
326.2943610310419
 30
0.0
 10
112.9222939865228
 20
325.2998282809206
 30
0.0
 10
112.8808350335374
 20
324.6260770898966
 30
0.0
 10
112.859840930301
 20
324.2849010340286
 30
0.0
  0
LINE
  5
189
330
1F
100
AcDbEntity
  8
0
  6
Continuous
 62
     7
 48
10.0
370
    15
100
AcDbLine
 10
119.7727730566
 20
345.020802268
 30
0.0
 11
81.6872275364
 21
345.020802268
 31
0.0
  0
SPLINE
  5
18A
330
1F
100
AcDbEntity
  8
0
  6
Continuous
 62
     7
 48
10.0
370
    15
100
AcDbSpline
210
0.0
220
0.0
230
1.0
 70
     8
 71
     3
 72
    16
 73
    12
 74
     0
 42
0.00000001
 43
0.00000001
 40
0.0
 40
0.0
 40
0.0
 40
0.0
 40
0.1030760995367468
 40
0.2021339768887641
 40
0.2996442838808842
 40
0.3981941342529366
 40
0.5002916473540986
 40
0.6237330136723386
 40
0.7501665398828233
 40
0.8726446598704738
 40
1.0
 40
1.0
 40
1.0
 40
1.0
 10
80.23000029102757
 20
345.7926204498557
 30
0.0
 10
80.20292608050015
 20
345.7925289407053
 30
0.0
 10
80.14983309512694
 20
345.7923494897117
 30
0.0
 10
80.07296975621966
 20
345.7910689891621
 30
0.0
 10
80.00115953098275
 20
345.7890339676436
 30
0.0
 10
79.93462778775547
 20
345.7861778251317
 30
0.0
 10
79.87009020379782
 20
345.7823681215386
 30
0.0
 10
79.81112575595186
 20
345.7774612595005
 30
0.0
 10
79.76550448792527
 20
345.7715272098317
 30
0.0
 10
79.73577623490316
 20
345.7650414331979
 30
0.0
 10
79.73195050083326
 20
345.7605630442832
 30
0.0
 10
79.73000029102754
 20
345.7582801365285
 30
0.0
  0
LINE
  5
18B
330
1F
100
AcDbEntity
  8
0
  6
Continuous
 62
     7
 48
10.0
370
    15
100
AcDbLine
 10
79.730000291
 20
345.7582801365
 30
0.0
 11
79.730000291
 21
345.3207368544
 31
0.0
  0
SPLINE
  5
18C
330
1F
100
AcDbEntity
  8
0
  6
Continuous
 62
     7
 48
10.0
370
    15
100
AcDbSpline
210
0.0
220
0.0
230
1.0
 70
     8
 71
     3
 72
    10
 73
     6
 74
     0
 42
0.00000001
 43
0.00000001
 40
0.0
 40
0.0
 40
0.0
 40
0.0
 40
0.3337911524387621
 40
0.6662107035033051
 40
1.0
 40
1.0
 40
1.0
 40
1.0
 10
79.73000029102754
 20
345.3207368544083
 30
0.0
 10
79.73086837298881
 20
345.3186542170582
 30
0.0
 10
79.73260096982338
 20
345.3144975002487
 30
0.0
 10
79.74515597495856
 20
345.3083002151785
 30
0.0
 10
79.76001504087905
 20
345.3042671337658
 30
0.0
 10
79.76745984918256
 20
345.3022464469911
 30
0.0
  0
LINE
  5
18D
330
1F
100
AcDbEntity
  8
0
  6
Continuous
 62
     7
 48
10.0
370
    15
100
AcDbLine
 10
79.7674598492
 20
345.302246447
 30
0.0
 11
80.7246870946
 21
345.070507381
 31
0.0
  0
LINE
  5
18E
330
1F
100
AcDbEntity
  8
0
  6
Continuous
 62
     7
 48
10.0
370
    15
100
AcDbLine
 10
120.7353134785
 20
345.0705073789
 30
0.0
 11
121.6925407329
 21
345.302246447
 31
0.0
  0
SPLINE
  5
18F
330
1F
100
AcDbEntity
  8
0
  6
Continuous
 62
     7
 48
10.0
370
    15
100
AcDbSpline
210
0.0
220
0.0
230
1.0
 70
     8
 71
     3
 72
    10
 73
     6
 74
     0
 42
0.00000001
 43
0.00000001
 40
0.0
 40
0.0
 40
0.0
 40
0.0
 40
0.3337892964963084
 40
0.6662088475609415
 40
1.0
 40
1.0
 40
1.0
 40
1.0
 10
121.6925407328725
 20
345.3022464469911
 30
0.0
 10
121.699985541176
 20
345.3042671337658
 30
0.0
 10
121.7148446070965
 20
345.3083002151785
 30
0.0
 10
121.7273996122317
 20
345.3144975002487
 30
0.0
 10
121.7291322090663
 20
345.3186542170582
 30
0.0
 10
121.7300002910275
 20
345.3207368544083
 30
0.0
  0
LINE
  5
190
330
1F
100
AcDbEntity
  8
0
  6
Continuous
 62
     7
 48
10.0
370
    15
100
AcDbLine
 10
121.730000291
 20
345.3207368544
 30
0.0
 11
121.730000291
 21
345.7582801365
 31
0.0
  0
SPLINE
  5
191
330
1F
100
AcDbEntity
  8
0
  6
Continuous
 62
     7
 48
10.0
370
    15
100
AcDbSpline
210
0.0
220
0.0
230
1.0
 70
     8
 71
     3
 72
    16
 73
    12
 74
     0
 42
0.00000001
 43
0.00000001
 40
0.0
 40
0.0
 40
0.0
 40
0.0
 40
0.1032950872577047
 40
0.2025397600264975
 40
0.3001245683979046
 40
0.398561067255159
 40
0.5002977544439755
 40
0.6238947720784337
 40
0.750170767661492
 40
0.8726865119087083
 40
1.0
 40
1.0
 40
1.0
 40
1.0
 10
121.7300002910275
 20
345.7582801365285
 30
0.0
 10
121.7286835018731
 20
345.7601299584081
 30
0.0
 10
121.7261015575966
 20
345.7637570668168
 30
0.0
 10
121.707638305741
 20
345.7690106023621
 30
0.0
 10
121.6782897375629
 20
345.7739228280446
 30
0.0
 10
121.6370854207146
 20
345.778478969941
 30
0.0
 10
121.5819667919463
 20
345.7829153212211
 30
0.0
 10
121.5107095368059
 20
345.7869845403989
 30
0.0
 10
121.4240835995239
 20
345.7901497939175
 30
0.0
 10
121.3291575935488
 20
345.7922177253799
 30
0.0
 10
121.2634731949704
 20
345.7924845006381
 30
0.0
 10
121.2300002910275
 20
345.7926204498557
 30
0.0
  0
LINE
  5
192
330
1F
100
AcDbEntity
  8
0
  6
Continuous
 62
     7
 48
10.0
370
    15
100
AcDbLine
 10
121.230000291
 20
345.7926204499
 30
0.0
 11
115.045000291
 21
345.7926204499
 31
0.0
  0
LINE
  5
193
330
1F
100
AcDbEntity
  8
0
  6
Continuous
 62
     7
 48
10.0
370
    15
100
AcDbLine
 10
115.045000291
 20
345.7926204499
 30
0.0
 11
115.045000291
 21
345.3392706446
 31
0.0
  0
LINE
  5
194
330
1F
100
AcDbEntity
  8
0
  6
Continuous
 62
     7
 48
10.0
370
    15
100
AcDbLine
 10
115.045000291
 20
345.3392706446
 30
0.0
 11
111.155000291
 21
345.3392706446
 31
0.0
  0
LINE
  5
195
330
1F
100
AcDbEntity
  8
0
  6
Continuous
 62
     7
 48
10.0
370
    15
100
AcDbLine
 10
111.155000291
 20
345.3392706446
 30
0.0
 11
111.155000291
 21
345.215802268
 31
0.0
  0
LINE
  5
196
330
1F
100
AcDbEntity
  8
0
  6
Continuous
 62
     7
 48
10.0
370
    15
100
AcDbLine
 10
111.155000291
 20
345.215802268
 30
0.0
 11
104.205000291
 21
345.215802268
 31
0.0
  0
LINE
  5
197
330
1F
100
AcDbEntity
  8
0
  6
Continuous
 62
     7
 48
10.0
370
    15
100
AcDbLine
 10
104.205000291
 20
345.215802268
 30
0.0
 11
104.205000291
 21
345.3392706446
 31
0.0
  0
LINE
  5
198
330
1F
100
AcDbEntity
  8
0
  6
Continuous
 62
     7
 48
10.0
370
    15
100
AcDbLine
 10
104.205000291
 20
345.3392706446
 30
0.0
 11
97.255000291
 21
345.3392706446
 31
0.0
  0
LINE
  5
199
330
1F
100
AcDbEntity
  8
0
  6
Continuous
 62
     7
 48
10.0
370
    15
100
AcDbLine
 10
97.255000291
 20
345.3392706446
 30
0.0
 11
97.255000291
 21
345.215802268
 31
0.0
  0
LINE
  5
19A
330
1F
100
AcDbEntity
  8
0
  6
Continuous
 62
     7
 48
10.0
370
    15
100
AcDbLine
 10
97.255000291
 20
345.215802268
 30
0.0
 11
90.305000291
 21
345.215802268
 31
0.0
  0
LINE
  5
19B
330
1F
100
AcDbEntity
  8
0
  6
Continuous
 62
     7
 48
10.0
370
    15
100
AcDbLine
 10
90.305000291
 20
345.215802268
 30
0.0
 11
90.305000291
 21
345.3392706446
 31
0.0
  0
LINE
  5
19C
330
1F
100
AcDbEntity
  8
0
  6
Continuous
 62
     7
 48
10.0
370
    15
100
AcDbLine
 10
90.305000291
 20
345.3392706446
 30
0.0
 11
86.415000291
 21
345.3392706446
 31
0.0
  0
LINE
  5
19D
330
1F
100
AcDbEntity
  8
0
  6
Continuous
 62
     7
 48
10.0
370
    15
100
AcDbLine
 10
86.415000291
 20
345.3392706446
 30
0.0
 11
86.415000291
 21
345.7926204499
 31
0.0
  0
LINE
  5
19E
330
1F
100
AcDbEntity
  8
0
  6
Continuous
 62
     7
 48
10.0
370
    15
100
AcDbLine
 10
86.415000291
 20
345.7926204499
 30
0.0
 11
80.230000291
 21
345.7926204499
 31
0.0
  0
ARC
  5
19F
330
1F
100
AcDbEntity
  8
0
  6
Continuous
 62
     7
 48
100.0
370
    15
100
AcDbCircle
 10
76.4753535417
 20
348.5253286901
 30
0.0
 40
8.235140225375568
100
AcDbArc
 50
302.5540677084
 51
309.2630913043
  0
SPLINE
  5
1A0
330
1F
100
AcDbEntity
  8
0
  6
Continuous
 62
     7
 48
10.0
370
    15
100
AcDbSpline
210
0.0
220
0.0
230
1.0
 70
     8
 71
     3
 72
    15
 73
    11
 74
     0
 42
0.00000001
 43
0.00000001
 40
0.0
 40
0.0
 40
0.0
 40
0.0
 40
0.1407786819031256
 40
0.2765192105058
 40
0.4073661084149457
 40
0.5335572859884755
 40
0.6554284730596114
 40
0.7734164445298726
 40
0.8880603324207866
 40
0.9999999999999999
 40
0.9999999999999999
 40
0.9999999999999999
 40
0.9999999999999999
 10
80.72468713309958
 20
342.1843962814739
 30
0.0
 10
80.72455971247578
 20
342.1539579574371
 30
0.0
 10
80.72430943132655
 20
342.0941706287166
 30
0.0
 10
80.73390938669506
 20
342.0069431285241
 30
0.0
 10
80.74977413217657
 20
341.9242873332381
 30
0.0
 10
80.77174866890982
 20
341.8464982075053
 30
0.0
 10
80.79885425898037
 20
341.7736480619861
 30
0.0
 10
80.83060786686718
 20
341.705773442617
 30
0.0
 10
80.86608543465607
 20
341.6423924724684
 30
0.0
 10
80.89323202453397
 20
341.6033491041379
 30
0.0
 10
80.90664332545796
 20
341.5840604065843
 30
0.0
  0
SPLINE
  5
1A1
330
1F
100
AcDbEntity
  8
0
  6
Continuous
 62
     7
 48
10.0
370
    15
100
AcDbSpline
210
0.0
220
0.0
230
1.0
 70
     8
 71
     3
 72
    22
 73
    18
 74
     0
 42
0.00000001
 43
0.00000001
 40
0.0
 40
0.0
 40
0.0
 40
0.0
 40
0.0345298776299572
 40
0.0694615157604303
 40
0.1047905754926211
 40
0.1405137972244452
 40
0.1766290898737161
 40
0.2131356228418493
 40
0.2500339205070401
 40
0.3755357960911617
 40
0.5000164343720584
 40
0.6292596036909133
 40
0.74998714247651
 40
0.8179178183407062
 40
0.8821674680016311
 40
0.9428391140205583
 40
1.0
 40
1.0
 40
1.0
 40
1.0
 10
80.90664465524327
 20
341.5840619487034
 30
0.0
 10
81.02676196045914
 20
341.4281135720366
 30
0.0
 10
81.26839415443234
 20
341.1144023350686
 30
0.0
 10
81.62386552697889
 20
340.6342565703633
 30
0.0
 10
81.97620662607216
 20
340.1434220132464
 30
0.0
 10
82.32417636715209
 20
339.6412280695288
 30
0.0
 10
82.66732731670528
 20
339.1276312759873
 30
0.0
 10
83.00498323601623
 20
338.6024045729369
 30
0.0
 10
83.60067440956625
 20
337.6374854280167
 30
0.0
 10
84.40202225083682
 20
336.2102106202628
 30
0.0
 10
85.3296810444553
 20
334.2554034643996
 30
0.0
 10
86.10190190769451
 20
332.2628655472992
 30
0.0
 10
86.62925885216133
 20
330.5269737598953
 30
0.0
 10
86.96961369029007
 20
329.1252888661609
 30
0.0
 10
87.18597179988505
 20
328.046891609403
 30
0.0
 10
87.35498677128838
 20
327.0221322102791
 30
0.0
 10
87.43595693956092
 20
326.3550119586561
 30
0.0
 10
87.47523579131662
 20
326.0313900862336
 30
0.0
  0
SPLINE
  5
1A2
330
1F
100
AcDbEntity
  8
0
  6
Continuous
 62
     7
 48
10.0
370
    15
100
AcDbSpline
210
0.0
220
0.0
230
1.0
 70
    24
 71
     3
 72
     9
 73
     5
 74
     0
 42
0.00000001
 43
0.00000001
 40
0.0
 40
0.0
 40
0.0
 40
0.0
 40
0.5000001506731636
 40
1.0
 40
1.0
 40
1.0
 40
1.0
 10
87.50387934729667
 20
326.0313900682028
 30
0.0
 10
87.49820580427668
 20
326.0313900682028
 30
0.0
 10
87.48685872165609
 20
326.0313900682028
 30
0.0
 10
87.47911009377083
 20
326.0313900682028
 30
0.0
 10
87.47523578099569
 20
326.0313900682028
 30
0.0
  0
SPLINE
  5
1A3
330
1F
100
AcDbEntity
  8
0
  6
Continuous
 62
     7
 48
10.0
370
    15
100
AcDbSpline
210
0.0
220
0.0
230
1.0
 70
     8
 71
     3
 72
     9
 73
     5
 74
     0
 42
0.00000001
 43
0.00000001
 40
0.0
 40
0.0
 40
0.0
 40
0.0
 40
0.4983135467092656
 40
1.0
 40
1.0
 40
1.0
 40
1.0
 10
87.50405168522757
 20
326.0314115414913
 30
0.0
 10
87.51929948535594
 20
325.9060685334014
 30
0.0
 10
87.54989829253083
 20
325.6545341151268
 30
0.0
 10
87.57620315421329
 20
325.4025144218014
 30
0.0
 10
87.58939994697505
 20
325.2760795556976
 30
0.0
  0
SPLINE
  5
1A4
330
1F
100
AcDbEntity
  8
0
  6
Continuous
 62
     7
 48
10.0
370
    15
100
AcDbSpline
210
0.0
220
0.0
230
1.0
 70
     8
 71
     3
 72
     8
 73
     4
 74
     0
 42
0.00000001
 43
0.00000001
 40
0.0
 40
0.0
 40
0.0
 40
0.0
 40
1.0
 40
1.0
 40
1.0
 40
1.0
 10
87.60871559322331
 20
324.4955095973551
 30
0.0
 10
87.6022586465028
 20
324.7556125261033
 30
0.0
 10
87.59579957841915
 20
325.0158008111908
 30
0.0
 10
87.58933841685635
 20
325.2760733144623
 30
0.0
  0
SPLINE
  5
1A5
330
1F
100
AcDbEntity
  8
0
  6
Continuous
 62
     7
 48
10.0
370
    15
100
AcDbSpline
210
0.0
220
0.0
230
1.0
 70
     8
 71
     3
 72
     8
 73
     4
 74
     0
 42
0.00000001
 43
0.00000001
 40
0.0
 40
0.0
 40
0.0
 40
0.0
 40
1.0
 40
1.0
 40
1.0
 40
1.0
 10
87.62850837812489
 20
324.2849010541487
 30
0.0
 10
87.62191091578799
 20
324.355115794848
 30
0.0
 10
87.61531332067594
 20
324.425318649903
 30
0.0
 10
87.60871559322331
 20
324.4955095973551
 30
0.0
  0
SPLINE
  5
1A6
330
1F
100
AcDbEntity
  8
0
  6
Continuous
 62
     7
 48
10.0
370
    15
100
AcDbSpline
210
0.0
220
0.0
230
1.0
 70
    24
 71
     3
 72
    10
 73
     6
 74
     0
 42
0.00000001
 43
0.00000001
 40
0.0
 40
0.0
 40
0.0
 40
0.0
 40
0.5
 40
0.5
 40
1.0
 40
1.0
 40
1.0
 40
1.0
 10
87.6284922482403
 20
324.2849010337048
 30
0.0
 10
87.68051718664695
 20
324.2849010337048
 30
0.0
 10
87.80477213510008
 20
324.2849010337048
 30
0.0
 10
88.15707151820925
 20
324.2849010337048
 30
0.0
 10
88.3755268168454
 20
324.2849010337048
 30
0.0
 10
88.60015965554042
 20
324.2849010337048
 30
0.0
  0
SPLINE
  5
1A7
330
1F
100
AcDbEntity
  8
0
  6
Continuous
 62
     7
 48
10.0
370
    15
100
AcDbSpline
210
0.0
220
0.0
230
1.0
 70
     8
 71
     3
 72
    10
 73
     6
 74
     0
 42
0.00000001
 43
0.00000001
 40
0.0
 40
0.0
 40
0.0
 40
0.0
 40
0.5
 40
0.5
 40
1.0
 40
1.0
 40
1.0
 40
1.0
 10
112.8598409320256
 20
324.2849010340546
 30
0.0
 10
113.0844763446562
 20
324.2849010340546
 30
0.0
 10
113.3026448194704
 20
324.2849010337048
 30
0.0
 10
113.6549746872256
 20
324.2849010337049
 30
0.0
 10
113.7794892441214
 20
324.2849010337048
 30
0.0
 10
113.831511365397
 20
324.2849010337048
 30
0.0
  0
SPLINE
  5
1A8
330
1F
100
AcDbEntity
  8
0
  6
Continuous
 62
     7
 48
10.0
370
    15
100
AcDbSpline
210
0.0
220
0.0
230
1.0
 70
     8
 71
     3
 72
     8
 73
     4
 74
     0
 42
0.00000001
 43
0.00000001
 40
0.0
 40
0.0
 40
0.0
 40
0.0
 40
1.0
 40
1.0
 40
1.0
 40
1.0
 10
113.8512798687218
 20
324.4954236370336
 30
0.0
 10
113.8446846449862
 20
324.4252613342021
 30
0.0
 10
113.8380895534825
 20
324.3550871328426
 30
0.0
 10
113.8314945946448
 20
324.284901054887
 30
0.0
  0
SPLINE
  5
1A9
330
1F
100
AcDbEntity
  8
0
  6
Continuous
 62
     7
 48
10.0
370
    15
100
AcDbSpline
210
0.0
220
0.0
230
1.0
 70
     8
 71
     3
 72
     8
 73
     4
 74
     0
 42
0.00000001
 43
0.00000001
 40
0.0
 40
0.0
 40
0.0
 40
0.0
 40
1.0
 40
1.0
 40
1.0
 40
1.0
 10
113.8706634562921
 20
325.2760921163784
 30
0.0
 10
113.8642001571184
 20
325.0157846885341
 30
0.0
 10
113.8577389519633
 20
324.7555614825481
 30
0.0
 10
113.8512798687218
 20
324.4954236370336
 30
0.0
  0
SPLINE
  5
1AA
330
1F
100
AcDbEntity
  8
0
  6
Continuous
 62
     7
 48
10.0
370
    15
100
AcDbSpline
210
0.0
220
0.0
230
1.0
 70
     8
 71
     3
 72
     8
 73
     4
 74
     0
 42
0.00000001
 43
0.00000001
 40
0.0
 40
0.0
 40
0.0
 40
0.0
 40
0.0007600992250715
 40
0.0007600992250715
 40
0.0007600992250715
 40
0.0007600992250715
 10
113.8711275292514
 20
325.2760445708489
 30
0.0
 10
113.8969532279814
 20
325.5280913327185
 30
0.0
 10
113.9256269711077
 20
325.7798630767205
 30
0.0
 10
113.9571871391864
 20
326.031256180593
 30
0.0
  0
SPLINE
  5
1AB
330
1F
100
AcDbEntity
  8
0
  6
Continuous
 62
     7
 48
10.0
370
    15
100
AcDbSpline
210
0.0
220
0.0
230
1.0
 70
    24
 71
     3
 72
     8
 73
     4
 74
     0
 42
0.00000001
 43
0.00000001
 40
0.0000000000000001
 40
0.0000000000000001
 40
0.0000000000000001
 40
0.0000000000000001
 40
0.0001226594678383
 40
0.0001226594678383
 40
0.0001226594678383
 40
0.0001226594678383
 10
113.9571106610005
 20
326.0313900682028
 30
0.0
 10
113.9691123589305
 20
326.0313900682028
 30
0.0
 10
113.978714256974
 20
326.0313900682029
 30
0.0
 10
113.9858092922231
 20
326.0313900682029
 30
0.0
  0
SPLINE
  5
1AC
330
1F
100
AcDbEntity
  8
0
  6
Continuous
 62
     7
 48
10.0
370
    15
100
AcDbSpline
210
0.0
220
0.0
230
1.0
 70
     8
 71
     3
 72
    22
 73
    18
 74
     0
 42
0.00000001
 43
0.00000001
 40
0.0
 40
0.0
 40
0.0
 40
0.0
 40
0.0322362081760844
 40
0.0656123051368472
 40
0.1001369985918637
 40
0.1358223213625751
 40
0.1726839570053075
 40
0.210741567452455
 40
0.2500191194412559
 40
0.3707416077962564
 40
0.4999873703264126
 40
0.624463260044307
 40
0.749973681876565
 40
0.8143288801953389
 40
0.8774578166322796
 40
0.9393541382226303
 40
1.0
 40
1.0
 40
1.0
 40
1.0
 10
113.9847647891044
 20
326.0313900714965
 30
0.0
 10
114.0061713450258
 20
326.2139779188946
 30
0.0
 10
114.0497414036187
 20
326.5856100132253
 30
0.0
 10
114.129605203447
 20
327.1510816616748
 30
0.0
 10
114.2229475607725
 20
327.7343784368642
 30
0.0
 10
114.3320585797217
 20
328.3351456837665
 30
0.0
 10
114.4580336868186
 20
328.9531618130997
 30
0.0
 10
114.6023737321451
 20
329.5881709902706
 30
0.0
 10
114.8781852687811
 20
330.683330772427
 30
0.0
 10
115.3581014276129
 20
332.2628083347196
 30
0.0
 10
116.1302707835342
 20
334.2552920267269
 30
0.0
 10
117.0579413292685
 20
336.2101752414864
 30
0.0
 10
117.9360241574389
 20
337.7739903977277
 30
0.0
 10
118.702258652289
 20
338.9961757589058
 30
0.0
 10
119.304476220793
 20
339.8924126870422
 30
0.0
 10
119.9187319286983
 20
340.7546544441852
 30
0.0
 10
120.3432591414276
 20
341.3094807344785
 30
0.0
 10
120.5533567417507
 20
341.5840630667568
 30
0.0
  0
SPLINE
  5
1AD
330
1F
100
AcDbEntity
  8
0
  6
Continuous
 62
     7
 48
10.0
370
    15
100
AcDbSpline
210
0.0
220
0.0
230
1.0
 70
     8
 71
     3
 72
     9
 73
     5
 74
     0
 42
0.00000001
 43
0.00000001
 40
0.0
 40
0.0
 40
0.0
 40
0.0
 40
0.3642408277312246
 40
1.0
 40
1.0
 40
1.0
 40
1.0
 10
79.97631268367425
 20
342.1044708265934
 30
0.0
 10
80.08883401859624
 20
342.0415465977813
 30
0.0
 10
80.39775417898262
 20
341.8687921341918
 30
0.0
 10
80.70885772337225
 20
341.6947260550797
 30
0.0
 10
80.90664465524327
 20
341.5840619487034
 30
0.0
  0
SPLINE
  5
1AE
330
1F
100
AcDbEntity
  8
0
  6
Continuous
 62
     7
 48
10.0
370
    15
100
AcDbSpline
210
0.0
220
0.0
230
1.0
 70
     8
 71
     3
 72
    16
 73
    12
 74
     0
 42
0.00000001
 43
0.00000001
 40
0.0
 40
0.0
 40
0.0
 40
0.0
 40
0.2499999999999999
 40
0.2499999999999999
 40
0.4999999999999998
 40
0.4999999999999998
 40
0.6249999999999999
 40
0.6249999999999999
 40
0.7500000000000001
 40
0.7500000000000001
 40
1.0
 40
1.0
 40
1.0
 40
1.0
 10
86.81573725266672
 20
327.2642896279083
 30
0.0
 10
86.64995556755392
 20
328.6512445988067
 30
0.0
 10
86.37006633609617
 20
330.004525361931
 30
0.0
 10
85.59745402374632
 20
332.6482776218621
 30
0.0
 10
85.10443159933386
 20
333.9386607795868
 30
0.0
 10
84.20976303614134
 20
335.8284537434708
 30
0.0
 10
83.88777480075746
 20
336.4460286781764
 30
0.0
 10
83.20313616800192
 20
337.650874274055
 30
0.0
 10
82.83991106631736
 20
338.2393651537741
 30
0.0
 10
81.69144452817656
 20
339.9656584634099
 30
0.0
 10
80.84770592182069
 20
341.0644775317739
 30
0.0
 10
79.93286774617505
 20
342.1159148170428
 30
0.0
  0
SPLINE
  5
1AF
330
1F
100
AcDbEntity
  8
0
  6
Continuous
 62
     7
 48
10.0
370
    15
100
AcDbSpline
210
0.0
220
0.0
230
1.0
 70
     8
 71
     3
 72
     9
 73
     5
 74
     0
 42
0.00000001
 43
0.00000001
 40
0.0
 40
0.0
 40
0.0
 40
0.0
 40
0.489446007404331
 40
1.0
 40
1.0
 40
1.0
 40
1.0
 10
86.93186400985854
 20
326.0314046115589
 30
0.0
 10
86.91933557991476
 20
326.2004675390563
 30
0.0
 10
86.8937384154589
 20
326.5458844490726
 30
0.0
 10
86.85724412652493
 20
326.8903217663182
 30
0.0
 10
86.83861182160275
 20
327.0661756138369
 30
0.0
  0
SPLINE
  5
1B0
330
1F
100
AcDbEntity
  8
0
  6
Continuous
 62
     7
 48
10.0
370
    15
100
AcDbSpline
210
0.0
220
0.0
230
1.0
 70
    24
 71
     3
 72
     9
 73
     5
 74
     0
 42
0.00000001
 43
0.00000001
 40
0.0
 40
0.0
 40
0.0
 40
0.0
 40
0.3302042736309178
 40
1.0
 40
1.0
 40
1.0
 40
1.0
 10
87.39380634752612
 20
326.0313900682028
 30
0.0
 10
87.34543244365848
 20
326.0313900682028
 30
0.0
 10
87.19893553937644
 20
326.0313900682028
 30
0.0
 10
87.03915800626842
 20
326.0313900682028
 30
0.0
 10
86.93213969742287
 20
326.0313900682028
 30
0.0
  0
SPLINE
  5
1B1
330
1F
100
AcDbEntity
  8
0
  6
Continuous
 62
     7
 48
10.0
370
    15
100
AcDbSpline
210
0.0
220
0.0
230
1.0
 70
     8
 71
     3
 72
     9
 73
     5
 74
     0
 42
0.00000001
 43
0.00000001
 40
0.0
 40
0.0
 40
0.0
 40
0.0
 40
0.5611153714493305
 40
1.0
 40
1.0
 40
1.0
 40
1.0
 10
114.6213924460815
 20
327.0661983861432
 30
0.0
 10
114.600967210169
 20
326.8729142622926
 30
0.0
 10
114.5645660760141
 20
326.5284501223219
 30
0.0
 10
114.5392474853709
 20
326.1830019576419
 30
0.0
 10
114.528135545121
 20
326.0313900682028
 30
0.0
  0
SPLINE
  5
1B2
330
1F
100
AcDbEntity
  8
0
  6
Continuous
 62
     7
 48
10.0
370
    15
100
AcDbSpline
210
0.0
220
0.0
230
1.0
 70
     8
 71
     3
 72
    18
 73
    14
 74
     0
 42
0.00000001
 43
0.00000001
 40
0.0
 40
0.0
 40
0.0
 40
0.0
 40
0.2499999999999997
 40
0.2499999999999997
 40
0.3749999999999998
 40
0.3749999999999998
 40
0.4999999999999999
 40
0.4999999999999999
 40
0.625
 40
0.625
 40
0.75
 40
0.75
 40
1.0
 40
1.0
 40
1.0
 40
1.0
 10
121.5271328457719
 20
342.1159148284117
 30
0.0
 10
120.6140387554254
 20
341.0664820475629
 30
0.0
 10
119.7690050073804
 20
339.9667408620441
 30
0.0
 10
118.6157532824319
 20
338.2326423624956
 30
0.0
 10
118.2500419784902
 20
337.6395687069333
 30
0.0
 10
117.5647632328658
 20
336.4321803902668
 30
0.0
 10
117.2445637679444
 20
335.8170340375004
 30
0.0
 10
116.6512734595519
 20
334.5626994733759
 30
0.0
 10
116.3775128137667
 20
333.9216364691317
 30
0.0
 10
115.8836613838787
 20
332.6246804930832
 30
0.0
 10
115.6635332385899
 20
331.9692329179276
 30
0.0
 10
115.0844408257845
 20
329.9817475349319
 30
0.0
 10
114.806313566982
 20
328.6286854109719
 30
0.0
 10
114.6420841251297
 20
327.2460004230904
 30
0.0
  0
SPLINE
  5
1B3
330
1F
100
AcDbEntity
  8
0
  6
Continuous
 62
     7
 48
10.0
370
    15
100
AcDbSpline
210
0.0
220
0.0
230
1.0
 70
     8
 71
     3
 72
     9
 73
     5
 74
     0
 42
0.00000001
 43
0.00000001
 40
0.0
 40
0.0
 40
0.0
 40
0.0
 40
0.635984286330653
 40
1.0
 40
1.0
 40
1.0
 40
1.0
 10
120.5533567417507
 20
341.5840630667568
 30
0.0
 10
120.7512132451574
 20
341.6947657901138
 30
0.0
 10
121.0623160627259
 20
341.8688309765286
 30
0.0
 10
121.3712361370566
 20
342.0415854746648
 30
0.0
 10
121.4836878983808
 20
342.1044708265935
 30
0.0
  0
SPLINE
  5
1B4
330
1F
100
AcDbEntity
  8
0
  6
Continuous
 62
     7
 48
10.0
370
    15
100
AcDbSpline
210
0.0
220
0.0
230
1.0
 70
    24
 71
     3
 72
     9
 73
     5
 74
     0
 42
0.00000001
 43
0.00000001
 40
0.0
 40
0.0
 40
0.0
 40
0.0
 40
0.5088699240881152
 40
0.9999999999999999
 40
0.9999999999999999
 40
0.9999999999999999
 40
0.9999999999999999
 10
114.5281355367278
 20
326.0313900682028
 30
0.0
 10
114.4456895713697
 20
326.0313900682028
 30
0.0
 10
114.283671811122
 20
326.0313900682027
 30
0.0
 10
114.1355512281463
 20
326.0313900682028
 30
0.0
 10
114.0628047549853
 20
326.0313900682028
 30
0.0
  0
SPLINE
  5
1B5
330
1F
100
AcDbEntity
  8
0
  6
Continuous
 62
     7
 48
10.0
370
    15
100
AcDbSpline
210
0.0
220
0.0
230
1.0
 70
     8
 71
     3
 72
     9
 73
     5
 74
     0
 42
0.00000001
 43
0.00000001
 40
0.0
 40
0.0
 40
0.0
 40
0.0
 40
0.5060412988929219
 40
1.0
 40
1.0
 40
1.0
 40
1.0
 10
121.7301497337417
 20
342.4315099519973
 30
0.0
 10
121.7300811564542
 20
342.4436257276134
 30
0.0
 10
121.7299456392789
 20
342.4675679940699
 30
0.0
 10
121.7299822209986
 20
342.4980373620915
 30
0.0
 10
121.7300002908574
 20
342.513087971543
 30
0.0
  0
SPLINE
  5
1B6
330
1F
100
AcDbEntity
  8
0
  6
Continuous
 62
     7
 48
10.0
370
    15
100
AcDbSpline
210
0.0
220
0.0
230
1.0
 70
     8
 71
     3
 72
     8
 73
     4
 74
     0
 42
0.00000001
 43
0.00000001
 40
0.0
 40
0.0
 40
0.0
 40
0.0
 40
1.0
 40
1.0
 40
1.0
 40
1.0
 10
121.7300002908574
 20
342.513087971543
 30
0.0
 10
121.7297034004515
 20
342.5880824652284
 30
0.0
 10
121.7170302036763
 20
342.6661694535265
 30
0.0
 10
121.6925407328724
 20
342.7422127627034
 30
0.0
  0
LINE
  5
1B7
330
1F
100
AcDbEntity
  8
0
  6
Continuous
 62
     7
 48
10.0
370
    15
100
AcDbLine
 10
121.6925407329
 20
342.7422127627
 30
0.0
 11
120.7353134444
 21
342.1843991946
 31
0.0
  0
SPLINE
  5
1B8
330
1F
100
AcDbEntity
  8
0
  6
Continuous
 62
     7
 48
10.0
370
    15
100
AcDbSpline
210
0.0
220
0.0
230
1.0
 70
     8
 71
     3
 72
    11
 73
     7
 74
     0
 42
0.00000001
 43
0.00000001
 40
0.0
 40
0.0
 40
0.0
 40
0.0
 40
0.2837078354924792
 40
0.5458344583393535
 40
0.7849335291329842
 40
0.9999999999999999
 40
0.9999999999999999
 40
0.9999999999999999
 40
0.9999999999999999
 10
121.5510293049244
 20
342.1433497867314
 30
0.0
 10
121.5714812243985
 20
342.1680313535339
 30
0.0
 10
121.610829317724
 20
342.2155169988393
 30
0.0
 10
121.6595689280364
 20
342.2896955563604
 30
0.0
 10
121.699323006481
 20
342.3602275242652
 30
0.0
 10
121.7202644584346
 20
342.4070572664143
 30
0.0
 10
121.730181116026
 20
342.429233117402
 30
0.0
  0
LINE
  5
1B9
330
1F
100
AcDbEntity
  8
0
  6
Continuous
 62
     7
 48
10.0
370
    15
100
AcDbLine
 10
80.7246872109
 20
342.1843993177
 30
0.0
 11
79.7674598542
 21
342.7422129256
 31
0.0
  0
SPLINE
  5
1BA
330
1F
100
AcDbEntity
  8
0
  6
Continuous
 62
     7
 48
10.0
370
    15
100
AcDbSpline
210
0.0
220
0.0
230
1.0
 70
     8
 71
     3
 72
     8
 73
     4
 74
     0
 42
0.00000001
 43
0.00000001
 40
0.0
 40
0.0
 40
0.0
 40
0.0
 40
1.0
 40
1.0
 40
1.0
 40
1.0
 10
79.76745987403652
 20
342.7422128398786
 30
0.0
 10
79.74297038711528
 20
342.6661695060948
 30
0.0
 10
79.7302971818062
 20
342.58808249041
 30
0.0
 10
79.73000029121536
 20
342.5130879716102
 30
0.0
  0
SPLINE
  5
1BB
330
1F
100
AcDbEntity
  8
0
  6
Continuous
 62
     7
 48
10.0
370
    15
100
AcDbSpline
210
0.0
220
0.0
230
1.0
 70
    24
 71
     3
 72
     9
 73
     5
 74
     0
 42
0.00000001
 43
0.00000001
 40
0.0
 40
0.0
 40
0.0
 40
0.0
 40
0.4992828180334995
 40
1.0
 40
1.0
 40
1.0
 40
1.0
 10
79.73000029102754
 20
342.5130879715539
 30
0.0
 10
79.73000029102754
 20
342.4978928781954
 30
0.0
 10
79.73000029102754
 20
342.4674590382759
 30
0.0
 10
79.73000029102754
 20
342.4436451924224
 30
0.0
 10
79.73000029102754
 20
342.4317211906348
 30
0.0
  0
SPLINE
  5
1BC
330
1F
100
AcDbEntity
  8
0
  6
Continuous
 62
     7
 48
10.0
370
    15
100
AcDbSpline
210
0.0
220
0.0
230
1.0
 70
     8
 71
     3
 72
    11
 73
     7
 74
     0
 42
0.00000001
 43
0.00000001
 40
0.0
 40
0.0
 40
0.0
 40
0.0
 40
0.2505638559688571
 40
0.4997432167499141
 40
0.7490515525395434
 40
1.0
 40
1.0
 40
1.0
 40
1.0
 10
79.90897127721713
 20
342.1433497861563
 30
0.0
 10
79.89087431393659
 20
342.1651124632035
 30
0.0
 10
79.85478038247851
 20
342.2085175672264
 30
0.0
 10
79.80737692163889
 20
342.2786827032679
 30
0.0
 10
79.76479741613323
 20
342.3519253097097
 30
0.0
 10
79.74137853159048
 20
342.4033535973444
 30
0.0
 10
79.72963069944899
 20
342.4291520460005
 30
0.0
  0
LINE
  5
1BD
330
1F
100
AcDbEntity
  8
0
  6
Continuous
 62
     7
 48
10.0
370
    15
100
AcDbLine
 10
121.6925407329
 20
342.7422127627
 30
0.0
 11
121.6925407329
 21
345.302246447
 31
0.0
  0
LINE
  5
1BE
330
1F
100
AcDbEntity
  8
0
  6
Continuous
 62
     7
 48
10.0
370
    15
100
AcDbLine
 10
79.7674598492
 20
345.302246447
 30
0.0
 11
79.7674598492
 21
342.7422127627
 31
0.0
  0
LINE
  5
1BF
330
1F
100
AcDbEntity
  8
0
  6
Continuous
 62
     7
 48
10.0
370
    15
100
AcDbLine
 10
87.5410467969
 20
324.2849010337
 30
0.0
 11
87.6284885675
 21
324.2849010337
 31
0.0
  0
LINE
  5
1C0
330
1F
100
AcDbEntity
  8
0
  6
Continuous
 62
     7
 48
10.0
370
    15
100
AcDbLine
 10
113.9189534235
 20
324.2849010337
 30
0.0
 11
113.8315150607
 21
324.2849010337
 31
0.0
  0
SPLINE
  5
1C1
330
1F
100
AcDbEntity
  8
0
  6
Continuous
 62
     7
 48
10.0
370
    15
100
AcDbSpline
210
0.0
220
0.0
230
1.0
 70
     8
 71
     3
 72
    34
 73
    30
 74
     0
 42
0.00000001
 43
0.00000001
 40
0.0
 40
0.0
 40
0.0
 40
0.0
 40
0.0134558055507696
 40
0.0270167979845925
 40
0.0406844013098985
 40
0.0544600373706302
 40
0.0683451200441613
 40
0.0823410494841178
 40
0.0964492064391266
 40
0.1106709466790159
 40
0.1250075955603671
 40
0.1836347877566236
 40
0.2500042078863913
 40
0.2935475699772224
 40
0.375002034587777
 40
0.4447354579568851
 40
0.5000012528696827
 40
0.5399435825128975
 40
0.5816119023058665
 40
0.6250007763070957
 40
0.6775326472348809
 40
0.7499996078567758
 40
0.8233846471363129
 40
0.8749972487022867
 40
0.901524124482329
 40
0.9272836512440221
 40
0.9522800236979667
 40
0.9765174496227869
 40
1.0
 40
1.0
 40
1.0
 40
1.0
 10
91.1724824787
 20
251.6618664733215
 30
0.0
 10
91.16435978495882
 20
251.9642710247336
 30
0.0
 10
91.14805090065839
 20
252.5714440880108
 30
0.0
 10
91.12179620314953
 20
253.491987420077
 30
0.0
 10
91.0941160089519
 20
254.4241270882371
 30
0.0
 10
91.06488556003644
 20
255.3683258744748
 30
0.0
 10
91.03413866590728
 20
256.3244543696843
 30
0.0
 10
91.00186627890409
 20
257.2925383204866
 30
0.0
 10
90.96807047027559
 20
258.2725550380176
 30
0.0
 10
90.93275219390028
 20
259.2644915260414
 30
0.0
 10
90.85806248437916
 20
261.29928776464
 30
0.0
 10
90.7288712401104
 20
264.5817364772998
 30
0.0
 10
90.55987803558985
 20
268.6016442586474
 30
0.0
 10
90.35661170702947
 20
273.2020537562352
 30
0.0
 10
90.14784690096737
 20
277.9170165379555
 30
0.0
 10
89.92898463275971
 20
282.9405375265875
 30
0.0
 10
89.76170812021789
 20
286.9618775840751
 30
0.0
 10
89.63284380762897
 20
290.2998682183893
 30
0.0
 10
89.52265606007857
 20
293.3469476890274
 30
0.0
 10
89.40869489132363
 20
296.7022892677359
 30
0.0
 10
89.27855324956113
 20
300.8141103936232
 30
0.0
 10
89.1306673411608
 20
305.6730543109417
 30
0.0
 10
88.98354611652648
 20
310.5357168543793
 30
0.0
 10
88.86684800284692
 20
314.2888245211433
 30
0.0
 10
88.7821427704209
 20
316.8723276837847
 30
0.0
 10
88.71678768418526
 20
318.7991078196459
 30
0.0
 10
88.65084221938511
 20
320.6737379004221
 30
0.0
 10
88.58458876684081
 20
322.4956706621156
 30
0.0
 10
88.53884780859404
 20
323.6948137485673
 30
0.0
 10
88.51633911434128
 20
324.2849007544547
 30
0.0
  0
SPLINE
  5
1C2
330
1F
100
AcDbEntity
  8
0
  6
Continuous
 62
     7
 48
10.0
370
    15
100
AcDbSpline
210
0.0
220
0.0
230
1.0
 70
     8
 71
     3
 72
    28
 73
    24
 74
     0
 42
0.00000001
 43
0.00000001
 40
0.0
 40
0.0
 40
0.0
 40
0.0
 40
0.010396176414385
 40
0.0312298385838476
 40
0.0625013145455546
 40
0.0937451459103581
 40
0.1250025335629371
 40
0.1874732704846717
 40
0.2500000690849895
 40
0.3333964995252277
 40
0.4167211055569236
 40
0.4999980732320568
 40
0.5445942595079791
 40
0.6249972196352656
 40
0.6905379660152944
 40
0.7499952949692849
 40
0.8016397920411968
 40
0.847967149722291
 40
0.8889876376541459
 40
0.9246974329390366
 40
0.955099304566157
 40
0.9801986883655995
 40
1.0
 40
1.0
 40
1.0
 40
1.0
 10
87.54104704511178
 20
324.2849010355806
 30
0.0
 10
87.55113188564245
 20
324.0248850756184
 30
0.0
 10
87.581426479478
 20
323.2438040189708
 30
0.0
 10
87.64011888573393
 20
321.6832354137898
 30
0.0
 10
87.71494851092397
 20
319.6072827443584
 30
0.0
 10
87.79487764167047
 20
317.2792264896702
 30
0.0
 10
87.89657190786748
 20
314.1866359639309
 30
0.0
 10
88.01671432584068
 20
310.3379160607997
 30
0.0
 10
88.17099488151338
 20
305.2335652069598
 30
0.0
 10
88.34083533611667
 20
299.6483085936947
 30
0.0
 10
88.53879944857485
 20
293.5810202130916
 30
0.0
 10
88.7301947214992
 20
288.4568845201698
 30
0.0
 10
88.93815521934349
 20
283.4033393666727
 30
0.0
 10
89.13937370336266
 20
278.7880771765355
 30
0.0
 10
89.36037497712624
 20
273.8365871559753
 30
0.0
 10
89.54734254618226
 20
269.6056287657126
 30
0.0
 10
89.70719026313716
 20
265.8648298218926
 30
0.0
 10
89.84009153927046
 20
262.5919432516388
 30
0.0
 10
89.9490958877684
 20
259.7232429708553
 30
0.0
 10
90.03621520773521
 20
257.2514178205519
 30
0.0
 10
90.10371969023058
 20
255.1688684084544
 30
0.0
 10
90.15475909812692
 20
253.4650540294935
 30
0.0
 10
90.1819265873513
 20
252.460062099201
 30
0.0
 10
90.19390751359884
 20
252.0168583089367
 30
0.0
  0
SPLINE
  5
1C3
330
1F
100
AcDbEntity
  8
0
  6
Continuous
 62
     7
 48
10.0
370
    15
100
AcDbSpline
210
0.0
220
0.0
230
1.0
 70
     8
 71
     3
 72
    14
 73
    10
 74
     0
 42
0.00000001
 43
0.00000001
 40
0.0
 40
0.0
 40
0.0
 40
0.0
 40
0.2499999999999993
 40
0.2499999999999993
 40
0.4999999999999996
 40
0.4999999999999996
 40
0.7499999999999998
 40
0.7499999999999998
 40
1.0
 40
1.0
 40
1.0
 40
1.0
 10
91.17248247852464
 20
251.6618664850985
 30
0.0
 10
91.06735291140888
 20
251.6597080957874
 30
0.0
 10
90.95600652810066
 20
251.6654398968224
 30
0.0
 10
90.7389910179054
 20
251.6961724450037
 30
0.0
 10
90.63370265718923
 20
251.721246204741
 30
0.0
 10
90.45007258063015
 20
251.7878868428956
 30
0.0
 10
90.37207284871305
 20
251.8293287640238
 30
0.0
 10
90.25476533727884
 20
251.9198843984961
 30
0.0
 10
90.21539770803227
 20
251.9688082101021
 30
0.0
 10
90.19390752164844
 20
252.0168582909386
 30
0.0
  0
SPLINE
  5
1C4
330
1F
100
AcDbEntity
  8
0
  6
Continuous
 62
     7
 48
10.0
370
    15
100
AcDbSpline
210
0.0
220
0.0
230
1.0
 70
     8
 71
     3
 72
    41
 73
    37
 74
     0
 42
0.00000001
 43
0.00000001
 40
0.0
 40
0.0
 40
0.0
 40
0.0
 40
0.0125012408476203
 40
0.0250010044822159
 40
0.0374999323393745
 40
0.0499985815939032
 40
0.0624974273105432
 40
0.0749968646255992
 40
0.0874972109530621
 40
0.0999987082092528
 40
0.1125015250505131
 40
0.125005759118919
 40
0.1478995230313286
 40
0.187505731931585
 40
0.2305185663273639
 40
0.2500053079265629
 40
0.302241914193102
 40
0.3750028031574708
 40
0.4484675541574885
 40
0.5000013859034795
 40
0.53615699991794
 40
0.5625008521215987
 40
0.6012812355836954
 40
0.6250003213739427
 40
0.6776354328807103
 40
0.7499985474789898
 40
0.7714984922845924
 40
0.7937763695187068
 40
0.8168329040969438
 40
0.8406692629124735
 40
0.8652846988994211
 40
0.890677206715444
 40
0.916845208218898
 40
0.9437878779655733
 40
0.9715055158580433
 40
1.0
 40
1.0
 40
1.0
 40
1.0
 10
111.2660930684311
 20
252.0168583086672
 30
0.0
 10
111.2735824515461
 20
252.2964147171396
 30
0.0
 10
111.2885603327907
 20
252.8554945002144
 30
0.0
 10
111.3126211237553
 20
253.6994201231846
 30
0.0
 10
111.3377880508717
 20
254.5469713725838
 30
0.0
 10
111.3641328786602
 20
255.3984102111156
 30
0.0
 10
111.3915779760822
 20
256.253495977035
 30
0.0
 10
111.4200856217097
 20
257.1121224500503
 30
0.0
 10
111.4496079266335
 20
257.9741483755172
 30
0.0
 10
111.4800978464314
 20
258.8394383260013
 30
0.0
 10
111.5115152104218
 20
259.707868723575
 30
0.0
 10
111.5527296092233
 20
260.820570686226
 30
0.0
 10
111.6197913944224
 20
262.5710387641666
 30
0.0
 10
111.7194975875974
 20
265.0515205676061
 30
0.0
 10
111.8214205360609
 20
267.4712248859742
 30
0.0
 10
111.9393924800335
 20
270.2038099567598
 30
0.0
 10
112.0919388963304
 20
273.6626639231775
 30
0.0
 10
112.3056995469102
 20
278.4459213648687
 30
0.0
 10
112.5146572777755
 20
283.2350768792014
 30
0.0
 10
112.6760896061423
 20
287.1450462868183
 30
0.0
 10
112.7835937104694
 20
289.9122160613415
 30
0.0
 10
112.8742539056211
 20
292.3694833672461
 30
0.0
 10
112.9495898199594
 20
294.5249711370133
 30
0.0
 10
113.0429765109321
 20
297.3196435438105
 30
0.0
 10
113.1583835956373
 20
300.9334489020389
 30
0.0
 10
113.2668252732576
 20
304.5038896446479
 30
0.0
 10
113.3527880522934
 20
307.3442027128207
 30
0.0
 10
113.4024661386737
 20
308.9815040991142
 30
0.0
 10
113.4544018581313
 20
310.6793319040534
 30
0.0
 10
113.5089619357591
 20
312.4383026029342
 30
0.0
 10
113.566557338154
 20
314.2589526506057
 30
0.0
 10
113.6276600848763
 20
316.1417484663376
 30
0.0
 10
113.6927803262545
 20
318.0871016731288
 30
0.0
 10
113.7626286154442
 20
320.0956003027528
 30
0.0
 10
113.8375023217015
 20
322.1672345046946
 30
0.0
 10
113.8915539579828
 20
323.5725384682756
 30
0.0
 10
113.918953270393
 20
324.2849010344916
 30
0.0
  0
SPLINE
  5
1C5
330
1F
100
AcDbEntity
  8
0
  6
Continuous
 62
     7
 48
10.0
370
    15
100
AcDbSpline
210
0.0
220
0.0
230
1.0
 70
     8
 71
     3
 72
    32
 73
    28
 74
     0
 42
0.00000001
 43
0.00000001
 40
0.0
 40
0.0
 40
0.0
 40
0.0
 40
0.0146164644069198
 40
0.0295191980676037
 40
0.0447091820344558
 40
0.060187430186378
 40
0.0759549760835025
 40
0.0920128592131162
 40
0.1083621107551065
 40
0.1250037390096649
 40
0.1766326287354371
 40
0.2500015557857324
 40
0.3224663390414998
 40
0.3750005448810366
 40
0.4394287311671614
 40
0.5000001755289997
 40
0.5552598734319706
 40
0.624999546853167
 40
0.7064528510766788
 40
0.749997529895402
 40
0.8163859160335056
 40
0.8749942860050038
 40
0.9008035437185968
 40
0.9262009569544557
 40
0.9511942594308275
 40
0.9757913150641708
 40
0.9999999999999999
 40
0.9999999999999999
 40
0.9999999999999999
 40
0.9999999999999999
 10
112.9436614734735
 20
324.2849009102663
 30
0.0
 10
112.9295921287082
 20
323.9175210285396
 30
0.0
 10
112.901177885479
 20
323.1755659843629
 30
0.0
 10
112.8594819879922
 20
322.0538244604288
 30
0.0
 10
112.8179302611133
 20
320.9120438590531
 30
0.0
 10
112.7766244087565
 20
319.7504162821506
 30
0.0
 10
112.7355367262662
 20
318.5689439657397
 30
0.0
 10
112.694673771675
 20
317.3676714236434
 30
0.0
 10
112.6540380522475
 20
316.1466191928228
 30
0.0
 10
112.5855204541942
 20
314.0435567407504
 30
0.0
 10
112.4764467078438
 20
310.5352848585539
 30
0.0
 10
112.3293179300954
 20
305.6726770497072
 30
0.0
 10
112.181456183583
 20
300.8141480073614
 30
0.0
 10
112.0350225220433
 20
296.1885026019028
 30
0.0
 10
111.8859468504633
 20
291.8605792841993
 30
0.0
 10
111.7192455877976
 20
287.4650591196813
 30
0.0
 10
111.5310109497232
 20
282.940596147407
 30
0.0
 10
111.312162817227
 20
277.9171610022841
 30
0.0
 10
111.1033870421105
 20
273.2020277582128
 30
0.0
 10
110.9001023555582
 20
268.6011646343315
 30
0.0
 10
110.7311030151586
 20
264.5812261041373
 30
0.0
 10
110.5912771451131
 20
261.028520101375
 30
0.0
 10
110.4984355040904
 20
258.4693585566148
 30
0.0
 10
110.4379951819682
 20
256.7063404863008
 30
0.0
 10
110.3826884401342
 20
254.9853610449255
 30
0.0
 10
110.3321001332188
 20
253.3048928912876
 30
0.0
 10
110.3022997346189
 20
252.2066288078634
 30
0.0
 10
110.2875181033548
 20
251.6618664733123
 30
0.0
  0
SPLINE
  5
1C6
330
1F
100
AcDbEntity
  8
0
  6
Continuous
 62
     7
 48
10.0
370
    15
100
AcDbSpline
210
0.0
220
0.0
230
1.0
 70
     8
 71
     3
 72
    14
 73
    10
 74
     0
 42
0.00000001
 43
0.00000001
 40
0.0
 40
0.0
 40
0.0
 40
0.0
 40
0.25
 40
0.25
 40
0.5
 40
0.5
 40
0.75
 40
0.75
 40
1.0
 40
1.0
 40
1.0
 40
1.0
 10
111.2660930684311
 20
252.0168583086672
 30
0.0
 10
111.2446028866754
 20
251.9688082301175
 30
0.0
 10
111.2052352638003
 20
251.9198844195122
 30
0.0
 10
111.0879277633389
 20
251.8293287837905
 30
0.0
 10
111.0099280358102
 20
251.787886860403
 30
0.0
 10
110.8262979607711
 20
251.7212462164366
 30
0.0
 10
110.7210095970852
 20
251.6961724532511
 30
0.0
 10
110.5039940740647
 20
251.6654399001509
 30
0.0
 10
110.3926476810621
 20
251.6597080977114
 30
0.0
 10
110.2875181034966
 20
251.6618664872978
 30
0.0
  0
LINE
  5
1C7
330
1F
100
AcDbEntity
  8
0
  6
Continuous
 62
     7
 48
10.0
370
    15
100
AcDbLine
 10
91.173110431
 20
251.6378622795
 30
0.0
 11
91.1724824787
 21
251.6618664733
 31
0.0
  0
LINE
  5
1C8
330
1F
100
AcDbEntity
  8
0
  6
Continuous
 62
     7
 48
10.0
370
    15
100
AcDbLine
 10
91.173110431
 20
251.6378622795
 30
0.0
 11
110.2868886606
 21
251.6378622795
 31
0.0
  0
LINE
  5
1C9
330
1F
100
AcDbEntity
  8
0
  6
Continuous
 62
     7
 48
10.0
370
    15
100
AcDbLine
 10
110.2875194848
 20
251.661865121
 30
0.0
 11
110.2868861701
 21
251.6378627729
 31
0.0
  0
SPLINE
  5
1CA
330
1F
100
AcDbEntity
  8
0
  6
Continuous
 62
     7
 48
10.0
370
    15
100
AcDbSpline
210
0.0
220
0.0
230
1.0
 70
     8
 71
     3
 72
     8
 73
     4
 74
     0
 42
0.00000001
 43
0.00000001
 40
0.0
 40
0.0
 40
0.0
 40
0.0
 40
0.0007570702360035
 40
0.0007570702360035
 40
0.0007570702360035
 40
0.0007570702360035
 10
113.9223334574791
 20
326.0313900682028
 30
0.0
 10
113.9051747022
 20
325.77961734523
 30
0.0
 10
113.8879511450392
 20
325.5278490302907
 30
0.0
 10
113.8706629786328
 20
325.276085160329
 30
0.0
  0
LINE
  5
1CB
330
1F
100
AcDbEntity
  8
0
  6
Continuous
 62
     7
 48
10.0
370
    15
100
AcDbLine
 10
111.2660930622
 20
252.0168582911
 30
0.0
 11
112.996441545
 21
255.9574520947
 31
0.0
  0
SPLINE
  5
1CC
330
1F
100
AcDbEntity
  8
0
  6
Continuous
 62
     7
 48
10.0
370
    15
100
AcDbSpline
210
0.0
220
0.0
230
1.0
 70
     8
 71
     3
 72
    24
 73
    20
 74
     0
 42
0.00000001
 43
0.00000001
 40
0.0
 40
0.0
 40
0.0
 40
0.0
 40
0.0192359700716586
 40
0.0537470708419997
 40
0.1035328554613267
 40
0.1685927958884348
 40
0.2489262923213278
 40
0.3133614485157787
 40
0.3765662827908144
 40
0.4385407288133901
 40
0.4992847211029878
 40
0.5939550346387655
 40
0.6794586425104717
 40
0.7557960491413717
 40
0.8229677563842935
 40
0.8809739601978998
 40
0.9298146980785144
 40
0.9694900192874183
 40
1.0
 40
1.0
 40
1.0
 40
1.0
 10
114.7647450129046
 20
327.216044024505
 30
0.0
 10
114.7528743179653
 20
326.7379210453653
 30
0.0
 10
114.7197065037368
 20
325.40200143563
 30
0.0
 10
114.6559280286381
 20
322.8338818946515
 30
0.0
 10
114.5641711114237
 20
319.1391759499496
 30
0.0
 10
114.4447559293165
 20
314.3309080954659
 30
0.0
 10
114.3170887713347
 20
309.1905624804868
 30
0.0
 10
114.1913418099388
 20
304.1267602029014
 30
0.0
 10
114.0773934607023
 20
299.5364518375458
 30
0.0
 10
113.9663650260959
 20
295.0624326363506
 30
0.0
 10
113.8374060450469
 20
289.863804654355
 30
0.0
 10
113.6956987718382
 20
284.150145312899
 30
0.0
 10
113.5463882404857
 20
278.1300992127002
 30
0.0
 10
113.414426155669
 20
272.8093445429276
 30
0.0
 10
113.2994091622976
 20
268.171811798268
 30
0.0
 10
113.2009435505439
 20
264.2016742954283
 30
0.0
 10
113.1186808627102
 20
260.8850081899874
 30
0.0
 10
113.052267845225
 20
258.2075221563853
 30
0.0
 10
113.0133566352546
 20
256.6392079080488
 30
0.0
 10
112.9964416939037
 20
255.9574520965324
 30
0.0
  0
LINE
  5
1CD
330
1F
100
AcDbEntity
  8
0
  6
Continuous
 62
   142
420
    32960
 48
10.0
370
     0
100
AcDbLine
 10
114.7647353928
 20
327.2160336035
 30
0.0
 11
114.6426761689
 21
327.0950064792
 31
0.0
  0
LINE
  5
1CE
330
1F
100
AcDbEntity
  8
0
  6
Continuous
 62
     7
 48
10.0
370
    15
100
AcDbLine
 10
90.1939075199
 20
252.0168582911
 30
0.0
 11
88.463559037
 21
255.9574520947
 31
0.0
  0
SPLINE
  5
1CF
330
1F
100
AcDbEntity
  8
0
  6
Continuous
 62
     7
 48
10.0
370
    15
100
AcDbSpline
210
0.0
220
0.0
230
1.0
 70
     8
 71
     3
 72
     8
 73
     4
 74
     0
 42
0.00000001
 43
0.00000001
 40
0.0
 40
0.0
 40
0.0
 40
0.0
 40
0.0007570812173966
 40
0.0007570812173966
 40
0.0007570812173966
 40
0.0007570812173966
 10
87.58933835572297
 20
325.2760742047347
 30
0.0
 10
87.57204993667533
 20
325.5278417264324
 30
0.0
 10
87.55482612874484
 20
325.7796136932369
 30
0.0
 10
87.53766712457596
 20
326.0313900682027
 30
0.0
  0
SPLINE
  5
1D0
330
1F
100
AcDbEntity
  8
0
  6
Continuous
 62
     7
 48
10.0
370
    15
100
AcDbSpline
210
0.0
220
0.0
230
1.0
 70
     8
 71
     3
 72
    25
 73
    21
 74
     0
 42
0.00000001
 43
0.00000001
 40
0.0
 40
0.0
 40
0.0
 40
0.0
 40
0.0168748732241626
 40
0.0436902796510614
 40
0.0804462655863603
 40
0.1271429490461277
 40
0.1837805359552426
 40
0.2503593078966222
 40
0.3151773290795837
 40
0.3785097756049172
 40
0.4403565011162338
 40
0.5007173613760423
 40
0.5919575896710063
 40
0.6749612186152208
 40
0.7497280129957168
 40
0.8162578210003941
 40
0.8745503072650875
 40
0.9246050522652276
 40
0.9664217038016178
 40
1.0
 40
1.0
 40
1.0
 40
1.0
 10
88.4635588881474
 20
255.9574520966894
 30
0.0
 10
88.45421076403245
 20
256.3342909467216
 30
0.0
 10
88.43000778772739
 20
257.3099542612001
 30
0.0
 10
88.38527890034322
 20
259.113813955679
 30
0.0
 10
88.3236854079906
 20
261.5978572219037
 30
0.0
 10
88.24494439963304
 20
264.773638901417
 30
0.0
 10
88.14872764910243
 20
268.6542012012905
 30
0.0
 10
88.04134063340318
 20
272.9853762409763
 30
0.0
 10
87.92914691198794
 20
277.5096539618787
 30
0.0
 10
87.81875864467287
 20
281.9595272061637
 30
0.0
 10
87.71012209618127
 20
286.3374756274628
 30
0.0
 10
87.58423101605162
 20
291.4088039040243
 30
0.0
 10
87.44470334244494
 20
297.0284149542183
 30
0.0
 10
87.29533621966903
 20
303.0445481491686
 30
0.0
 10
87.15981698217992
 20
308.5028453545731
 30
0.0
 10
87.03850590274489
 20
313.3889657493947
 30
0.0
 10
86.93169636961665
 20
317.6911163353075
 30
0.0
 10
86.83961621795697
 20
321.4001941988441
 30
0.0
 10
86.7624643596494
 20
324.50813333965
 30
0.0
 10
86.7159646901718
 20
326.3816464316785
 30
0.0
 10
86.6952553492709
 20
327.2160442186095
 30
0.0
  0
LINE
  5
1D1
330
1F
100
AcDbEntity
  8
0
  6
Continuous
 62
     7
 48
10.0
370
    15
100
AcDbLine
 10
87.5376671246
 20
326.0313900682
 30
0.0
 11
87.5038793473
 21
326.0313900682
 31
0.0
  0
LINE
  5
1D2
330
1F
100
AcDbEntity
  8
0
  6
Continuous
 62
     7
 48
10.0
370
    15
100
AcDbLine
 10
113.9223334575
 20
326.0313900682
 30
0.0
 11
113.9561207219
 21
326.0313900682
 31
0.0
  0
SPLINE
  5
1D3
330
1F
100
AcDbEntity
  8
0
  6
Continuous
 62
     7
 48
10.0
370
    15
100
AcDbSpline
210
0.0
220
0.0
230
1.0
 70
     8
 71
     3
 72
    10
 73
     6
 74
     0
 42
0.00000001
 43
0.00000001
 40
0.0
 40
0.0
 40
0.0
 40
0.0
 40
0.0315209805365898
 40
0.5139146316791924
 40
1.0
 40
1.0
 40
1.0
 40
1.0
 10
121.5908120088523
 20
342.5900915473246
 30
0.0
 10
121.5884960910502
 20
342.5865350224278
 30
0.0
 10
121.5507376195809
 20
342.5285498280816
 30
0.0
 10
121.4233995318182
 20
342.4568978306381
 30
0.0
 10
121.2946303218341
 20
342.4406574781361
 30
0.0
 10
121.2300002910275
 20
342.43250634882
 30
0.0
  0
SPLINE
  5
1D4
330
1F
100
AcDbEntity
  8
0
  6
Continuous
 62
     7
 48
10.0
370
    15
100
AcDbSpline
210
0.0
220
0.0
230
1.0
 70
     8
 71
     3
 72
    14
 73
    10
 74
     0
 42
0.00000001
 43
0.00000001
 40
0.0
 40
0.0
 40
0.0
 40
0.0
 40
0.25
 40
0.25
 40
0.5
 40
0.5
 40
0.75
 40
0.75
 40
1.0
 40
1.0
 40
1.0
 40
1.0
 10
114.8812212791524
 20
325.8575033597625
 30
0.0
 10
114.8854703751306
 20
326.0277608798286
 30
0.0
 10
114.8872862977205
 20
326.1894245824582
 30
0.0
 10
114.8852867302107
 20
326.4960650112658
 30
0.0
 10
114.8813486678225
 20
326.6400809711251
 30
0.0
 10
114.8656597298375
 20
326.8942633739745
 30
0.0
 10
114.8536876900917
 20
327.0076968417987
 30
0.0
 10
114.8190699034881
 20
327.1952135150137
 30
0.0
 10
114.7964123376368
 20
327.2697004536498
 30
0.0
 10
114.7673969126422
 20
327.3228908231404
 30
0.0
  0
SPLINE
  5
1D5
330
1F
100
AcDbEntity
  8
0
  6
Continuous
 62
   142
420
    32960
 48
10.0
370
     0
100
AcDbSpline
210
0.0
220
0.0
230
1.0
 70
     8
 71
     3
 72
    12
 73
     8
 74
     0
 42
0.00000001
 43
0.00000001
 40
0.0
 40
0.0
 40
0.0
 40
0.0
 40
0.2161200385593969
 40
0.4241737463851724
 40
0.6241670251297974
 40
0.8161065688137724
 40
1.0
 40
1.0
 40
1.0
 40
1.0
 10
114.6507730061447
 20
327.4208022680375
 30
0.0
 10
114.6597189232291
 20
327.4199194274925
 30
0.0
 10
114.6772768655182
 20
327.4181866969973
 30
0.0
 10
114.7022670089224
 20
327.4046286819108
 30
0.0
 10
114.7256010997903
 20
327.3840571165963
 30
0.0
 10
114.7473103423371
 20
327.3573349310535
 30
0.0
 10
114.7607976257673
 20
327.3342071469145
 30
0.0
 10
114.7673968945734
 20
327.322890823267
 30
0.0
  0
LINE
  5
1D6
330
1F
100
AcDbEntity
  8
0
  6
Continuous
 62
     7
 48
10.0
370
    15
100
AcDbLine
 10
79.730000291
 20
345.3207368544
 30
0.0
 11
79.730000291
 21
342.5130879716
 31
0.0
  0
LINE
  5
1D7
330
1F
100
AcDbEntity
  8
0
  6
Continuous
 62
     7
 48
10.0
370
    15
100
AcDbLine
 10
121.730000291
 20
345.3207368544
 30
0.0
 11
121.730000291
 21
342.5130879715
 31
0.0
  0
SPLINE
  5
1D8
330
1F
100
AcDbEntity
  8
0
  6
Continuous
 62
     7
 48
10.0
370
    15
100
AcDbSpline
210
0.0
220
0.0
230
1.0
 70
     8
 71
     3
 72
    10
 73
     6
 74
     0
 42
0.00000001
 43
0.00000001
 40
0.0
 40
0.0
 40
0.0
 40
0.0
 40
0.4999999999999999
 40
0.4999999999999999
 40
1.0
 40
1.0
 40
1.0
 40
1.0
 10
86.57877651425882
 20
325.8575032934767
 30
0.0
 10
86.88102511793672
 20
313.7450977077488
 30
0.0
 10
87.17855540103749
 20
301.8266907912588
 30
0.0
 10
87.75824742520281
 20
278.600324581898
 30
0.0
 10
88.04002135423909
 20
267.2979053545716
 30
0.0
 10
88.31163617100341
 20
256.4122663403598
 30
0.0
  0
ARC
  5
1D9
330
1F
100
AcDbEntity
  8
0
  6
Continuous
 62
     7
 48
100.0
370
    15
100
AcDbCircle
 10
90.8028123908
 20
256.9912970373
 30
0.0
 40
2.557526600226203
100
AcDbArc
 50
193.0788423607
 51
203.8432749604
  0
ARC
  5
1DA
330
1F
100
AcDbEntity
  8
0
  6
Continuous
 62
     7
 48
100.0
370
    15
100
AcDbCircle
 10
110.6571881516
 20
256.9912970517
 30
0.0
 40
2.557526642408984
100
AcDbArc
 50
336.1567250993
 51
346.9211546769
  0
SPLINE
  5
1DB
330
1F
100
AcDbEntity
  8
0
  6
Continuous
 62
     7
 48
10.0
370
    15
100
AcDbSpline
210
0.0
220
0.0
230
1.0
 70
     8
 71
     3
 72
    10
 73
     6
 74
     0
 42
0.00000001
 43
0.00000001
 40
0.0
 40
0.0
 40
0.0
 40
0.0
 40
0.5
 40
0.5
 40
1.0
 40
1.0
 40
1.0
 40
1.0
 10
113.1483644117636
 20
256.4122663688925
 30
0.0
 10
113.4199731430217
 20
267.2976614881219
 30
0.0
 10
113.7019161350871
 20
278.6011350046501
 30
0.0
 10
114.2812740972621
 20
301.8256431327906
 30
0.0
 10
114.5789401712435
 20
313.7453700540036
 30
0.0
 10
114.8812212791524
 20
325.8575033597625
 30
0.0
  0
LINE
  5
1DC
330
1F
100
AcDbEntity
  8
0
  6
Continuous
 62
   142
420
    32960
 48
10.0
370
     0
100
AcDbLine
 10
114.767396914
 20
327.3228908245
 30
0.0
 11
114.7647450129
 21
327.2160440245
 31
0.0
  0
LINE
  5
1DD
330
1F
100
AcDbEntity
  8
0
  6
Continuous
 62
     7
 48
10.0
370
    15
100
AcDbLine
 10
88.3116433658
 20
256.4119826417
 30
0.0
 11
89.4976951718
 21
256.4119969248
 31
0.0
  0
SPLINE
  5
1DE
330
1F
100
AcDbEntity
  8
0
  6
Continuous
 62
     7
 48
10.0
370
    15
100
AcDbSpline
210
0.0
220
0.0
230
1.0
 70
     8
 71
     3
 72
    16
 73
    12
 74
     0
 42
0.00000001
 43
0.00000001
 40
0.0
 40
0.0
 40
0.0
 40
0.0
 40
0.0839977188260841
 40
0.1663594466794835
 40
0.2501660717328331
 40
0.3715494844345712
 40
0.500113419990363
 40
0.6181985017651718
 40
0.7500604639033922
 40
0.8636363347177469
 40
1.0
 40
1.0
 40
1.0
 40
1.0
 10
121.7300002910275
 20
341.5324228749917
 30
0.0
 10
121.7291636827532
 20
341.5265719309389
 30
0.0
 10
121.7275067604994
 20
341.5149839994
 30
0.0
 10
121.7142192308212
 20
341.4977479268475
 30
0.0
 10
121.6901609513704
 20
341.4784238082663
 30
0.0
 10
121.6489448839892
 20
341.4577146373111
 30
0.0
 10
121.587705636558
 20
341.4375881949323
 30
0.0
 10
121.5111342941738
 20
341.4203977759086
 30
0.0
 10
121.4269316144461
 20
341.4084380134955
 30
0.0
 10
121.3312044246149
 20
341.3998715650546
 30
0.0
 10
121.2657249926309
 20
341.3989023678457
 30
0.0
 10
121.2300002910275
 20
341.3983735868218
 30
0.0
  0
SPLINE
  5
1DF
330
1F
100
AcDbEntity
  8
0
  6
Continuous
 62
     7
 48
10.0
370
    15
100
AcDbSpline
210
0.0
220
0.0
230
1.0
 70
     8
 71
     3
 72
    16
 73
    12
 74
     0
 42
0.00000001
 43
0.00000001
 40
0.0
 40
0.0
 40
0.0
 40
0.0
 40
0.0922491709763996
 40
0.1845147228480001
 40
0.2813066926943011
 40
0.3858724147207293
 40
0.5001419818193924
 40
0.6157437884501564
 40
0.7500881295228717
 40
0.8534408877945312
 40
1.0
 40
1.0
 40
1.0
 40
1.0
 10
80.23000029102754
 20
341.3983735868218
 30
0.0
 10
80.20586166656855
 20
341.3987361563351
 30
0.0
 10
80.15758013130014
 20
341.399461359744
 30
0.0
 10
80.08551337255874
 20
341.404029725688
 30
0.0
 10
80.01354884811803
 20
341.4110352848641
 30
0.0
 10
79.94176770355563
 20
341.4219737357591
 30
0.0
 10
79.87429837202639
 20
341.4372530021261
 30
0.0
 10
79.8129418331262
 20
341.4567187731097
 30
0.0
 10
79.76875789335614
 20
341.4789618760437
 30
0.0
 10
79.73679788689361
 20
341.5042170081396
 30
0.0
 10
79.73251308429305
 20
341.5219963192401
 30
0.0
 10
79.73000029102754
 20
341.5324228749917
 30
0.0
  0
LINE
  5
1E0
330
1F
100
AcDbEntity
  8
0
  6
Continuous
 62
     7
 48
10.0
370
    15
100
AcDbLine
 10
90.1945370234
 20
251.993013581
 30
0.0
 11
90.1939075199
 21
252.0168582911
 31
0.0
  0
SPLINE
  5
1E1
330
1F
100
AcDbEntity
  8
0
  6
Continuous
 62
     7
 48
10.0
370
    15
100
AcDbSpline
210
0.0
220
0.0
230
1.0
 70
     8
 71
     3
 72
    14
 73
    10
 74
     0
 42
0.00000001
 43
0.00000001
 40
0.0
 40
0.0
 40
0.0
 40
0.0
 40
0.2499999999999993
 40
0.2499999999999993
 40
0.4999999999999996
 40
0.4999999999999996
 40
0.7499999999999998
 40
0.7499999999999998
 40
1.0
 40
1.0
 40
1.0
 40
1.0
 10
91.17311348163787
 20
251.6378623081023
 30
0.0
 10
91.0680380342496
 20
251.6357014274599
 30
0.0
 10
90.95673766847253
 20
251.6414258639091
 30
0.0
 10
90.73977310264341
 20
251.6721466642062
 30
0.0
 10
90.63448891987471
 20
251.6972165961039
 30
0.0
 10
90.45083130901719
 20
251.7638707931895
 30
0.0
 10
90.37280079851013
 20
251.8053306045309
 30
0.0
 10
90.2554337242682
 20
251.8959475855824
 30
0.0
 10
90.21603854996012
 20
251.9449145402595
 30
0.0
 10
90.1945370243032
 20
251.9930135471164
 30
0.0
  0
SPLINE
  5
1E2
330
1F
100
AcDbEntity
  8
0
  6
Continuous
 62
     7
 48
10.0
370
    15
100
AcDbSpline
210
0.0
220
0.0
230
1.0
 70
     8
 71
     3
 72
    14
 73
    10
 74
     0
 42
0.00000001
 43
0.00000001
 40
0.0
 40
0.0
 40
0.0
 40
0.0
 40
0.25
 40
0.25
 40
0.5
 40
0.5
 40
0.75
 40
0.75
 40
1.0
 40
1.0
 40
1.0
 40
1.0
 10
111.2654597513939
 20
251.992918789777
 30
0.0
 10
111.2439583862918
 20
251.9448218634728
 30
0.0
 10
111.2045634213984
 20
251.8958587225147
 30
0.0
 10
111.0871968514368
 20
251.8052531058195
 30
0.0
 10
111.0091666355374
 20
251.7638008508009
 30
0.0
 10
110.8255096511496
 20
251.6971644401215
 30
0.0
 10
110.7202257990731
 20
251.672104705097
 30
0.0
 10
110.5032618693936
 20
251.6414049189456
 30
0.0
 10
110.3919618082354
 20
251.6356912629565
 30
0.0
 10
110.2868866320556
 20
251.6378623214514
 30
0.0
  0
SPLINE
  5
1E3
330
1F
100
AcDbEntity
  8
0
  6
Continuous
 62
     7
 48
10.0
370
    15
100
AcDbSpline
210
0.0
220
0.0
230
1.0
 70
     8
 71
     3
 72
     8
 73
     4
 74
     0
 42
0.00000001
 43
0.00000001
 40
0.0
 40
0.0
 40
0.0
 40
0.0
 40
1.0
 40
1.0
 40
1.0
 40
1.0
 10
111.2654597513941
 20
251.9929187897809
 30
0.0
 10
111.2656709383503
 20
252.0008973397132
 30
0.0
 10
111.2658820419995
 20
252.0088771752369
 30
0.0
 10
111.2660930621951
 20
252.0168582910801
 30
0.0
  0
SPLINE
  5
1E4
330
1F
100
AcDbEntity
  8
0
  6
Continuous
 62
     7
 48
10.0
370
    15
100
AcDbSpline
210
0.0
220
0.0
230
1.0
 70
     8
 71
     3
 72
    27
 73
    23
 74
     0
 42
0.00000001
 43
0.00000001
 40
0.0
 40
0.0
 40
0.0
 40
0.0
 40
0.0311045107844244
 40
0.0623301248536944
 40
0.0936470641624517
 40
0.1250255549907304
 40
0.1420349446147268
 40
0.1875392081100784
 40
0.2500538649904806
 40
0.380473593484068
 40
0.499974088492449
 40
0.5621984964003566
 40
0.6249808618160457
 40
0.6882952726334691
 40
0.7499817536909696
 40
0.8147608786238798
 40
0.8749678723464644
 40
0.9062221068749293
 40
0.937486345553903
 40
0.9687412866966093
 40
0.9874997941677763
 40
1.0
 40
1.0
 40
1.0
 40
1.0
 10
92.18142443453411
 20
235.1790013730457
 30
0.0
 10
92.17750270684446
 20
235.1919697961713
 30
0.0
 10
92.16964398248672
 20
235.2179571340907
 30
0.0
 10
92.15407203236795
 20
235.250814598584
 30
0.0
 10
92.13584022255152
 20
235.2845228802053
 30
0.0
 10
92.11883870912652
 20
235.316625890211
 30
0.0
 10
92.09526766930412
 20
235.3609537776695
 30
0.0
 10
92.06088427573471
 20
235.4340325786444
 30
0.0
 10
91.98691520001024
 20
235.6459186189582
 30
0.0
 10
91.87671790583852
 20
236.178532172197
 30
0.0
 10
91.76509322175758
 20
237.2858011342604
 30
0.0
 10
91.68673719282475
 20
238.5897404491583
 30
0.0
 10
91.63134532104843
 20
239.8306429413952
 30
0.0
 10
91.57534694215066
 20
241.2943567644878
 30
0.0
 10
91.51289903136853
 20
242.9962569289499
 30
0.0
 10
91.44212664570448
 20
244.8890266421356
 30
0.0
 10
91.36979261854191
 20
246.6515947638746
 30
0.0
 10
91.30557940996778
 20
248.1262134698023
 30
0.0
 10
91.25410007660959
 20
249.2839633302252
 30
0.0
 10
91.2161112573644
 20
250.3023033899679
 30
0.0
 10
91.18994342461069
 20
251.0883931625821
 30
0.0
 10
91.1779189566805
 20
251.480900517318
 30
0.0
 10
91.17311043104826
 20
251.6378622795389
 30
0.0
  0
SPLINE
  5
1E5
330
1F
100
AcDbEntity
  8
0
  6
Continuous
 62
     7
 48
10.0
370
    15
100
AcDbSpline
210
0.0
220
0.0
230
1.0
 70
     8
 71
     3
 72
    30
 73
    26
 74
     0
 42
0.00000001
 43
0.00000001
 40
0.0
 40
0.0
 40
0.0
 40
0.0
 40
0.0158584261710221
 40
0.0357262372557063
 40
0.0587873863214486
 40
0.071451855961831
 40
0.1071754498598595
 40
0.1429022737702246
 40
0.1782303467519726
 40
0.2500389902173539
 40
0.3748808426399366
 40
0.4061491707825716
 40
0.4374039084704484
 40
0.4999105469177508
 40
0.5624211778133079
 40
0.6249364886864096
 40
0.7499341457414069
 40
0.8124517940957783
 40
0.8749677249841077
 40
0.906226132408325
 40
0.9374835711391838
 40
0.9687410835648166
 40
0.9812444026888857
 40
0.9948098932692842
 40
1.0
 40
1.0
 40
1.0
 40
1.0
 10
90.19453668108757
 20
251.9930135542733
 30
0.0
 10
90.20050223401057
 20
251.7965709635188
 30
0.0
 10
90.21394157261774
 20
251.3540204525956
 30
0.0
 10
90.2365269010803
 20
250.6317376930904
 30
0.0
 10
90.25982702835009
 20
249.9521535713002
 30
0.0
 10
90.29208068455125
 20
249.0842689585967
 30
0.0
 10
90.3337721442535
 20
248.0721753009778
 30
0.0
 10
90.38406889572046
 20
246.8407592377735
 30
0.0
 10
90.4469170023304
 20
245.2788924168744
 30
0.0
 10
90.53771085055949
 20
242.9676298603574
 30
0.0
 10
90.61490298970557
 20
241.1013465624557
 30
0.0
 10
90.67765736228326
 20
239.8510132411459
 30
0.0
 10
90.7204059162281
 20
239.0886609629252
 30
0.0
 10
90.77498757933552
 20
238.2826961183228
 30
0.0
 10
90.84306500724598
 20
237.5388569602532
 30
0.0
 10
90.93395312632096
 20
236.8083354162557
 30
0.0
 10
91.02150583507306
 20
236.4028576884454
 30
0.0
 10
91.09667495483096
 20
236.1887507945152
 30
0.0
 10
91.13636959157422
 20
236.1102833794897
 30
0.0
 10
91.16451307609967
 20
236.0568387113924
 30
0.0
 10
91.18338435378811
 20
236.0183877992102
 30
0.0
 10
91.1954992658082
 20
235.9900062925333
 30
0.0
 10
91.20226569677604
 20
235.9710715225846
 30
0.0
 10
91.20556335046906
 20
235.9597441707913
 30
0.0
 10
91.20671385333915
 20
235.954981607145
 30
0.0
 10
91.20703222404155
 20
235.953663695845
 30
0.0
  0
SPLINE
  5
1E6
330
1F
100
AcDbEntity
  8
0
  6
Continuous
 62
     7
 48
10.0
370
    15
100
AcDbSpline
210
0.0
220
0.0
230
1.0
 70
     8
 71
     3
 72
    14
 73
    10
 74
     0
 42
0.00000001
 43
0.00000001
 40
0.0
 40
0.0
 40
0.0
 40
0.0
 40
0.25
 40
0.25
 40
0.5
 40
0.5
 40
0.75
 40
0.75
 40
1.0
 40
1.0
 40
1.0
 40
1.0
 10
92.18142443474493
 20
235.1790012241126
 30
0.0
 10
92.0767854162607
 20
235.1789779262584
 30
0.0
 10
91.96632145584212
 20
235.1957821779343
 30
0.0
 10
91.75146736115933
 20
235.2689122441894
 30
0.0
 10
91.64744072466559
 20
235.3253475843785
 30
0.0
 10
91.4656608807747
 20
235.470738843257
 30
0.0
 10
91.38821241346835
 20
235.5594236645007
 30
0.0
 10
91.27049313903116
 20
235.7509603645775
 30
0.0
 10
91.23015891466385
 20
235.8534479708848
 30
0.0
 10
91.20703325475775
 20
235.9536592293584
 30
0.0
  0
SPLINE
  5
1E7
330
1F
100
AcDbEntity
  8
0
  6
Continuous
 62
     7
 48
10.0
370
    15
100
AcDbSpline
210
0.0
220
0.0
230
1.0
 70
     8
 71
     3
 72
    28
 73
    24
 74
     0
 42
0.00000001
 43
0.00000001
 40
0.0
 40
0.0
 40
0.0
 40
0.0
 40
0.0137330883828635
 40
0.0275163471601582
 40
0.0413455447947286
 40
0.0552165292910011
 40
0.0691252401054752
 40
0.0830677199946899
 40
0.0970401268440863
 40
0.1110387455171612
 40
0.1250599997603505
 40
0.1775199276527099
 40
0.2500719087590527
 40
0.31280328666283
 40
0.3750725247890846
 40
0.4339223536256423
 40
0.5000575989446379
 40
0.5889253750649278
 40
0.7499292812960434
 40
0.8293619549564746
 40
0.8976917318273158
 40
0.9545812693985479
 40
1.0
 40
1.0
 40
1.0
 40
1.0
 10
110.2868886605765
 20
251.6378622795391
 30
0.0
 10
110.282594454251
 20
251.4664647533823
 30
0.0
 10
110.2739903537939
 20
251.1230435431899
 30
0.0
 10
110.2609842886815
 20
250.6133078969089
 30
0.0
 10
110.2478714727972
 20
250.1066943660072
 30
0.0
 10
110.2346448510798
 20
249.6040035402525
 30
0.0
 10
110.221305291624
 20
249.1054754985381
 30
0.0
 10
110.2078469648391
 20
248.6115009772942
 30
0.0
 10
110.1942827861671
 20
248.1224314410845
 30
0.0
 10
110.1805571067788
 20
247.6386243377058
 30
0.0
 10
110.15436838155
 20
246.7236729765521
 30
0.0
 10
110.1036550134895
 20
245.1946370748937
 30
0.0
 10
110.0271155578639
 20
243.2742374371619
 30
0.0
 10
109.9426572050866
 20
241.4444240099367
 30
0.0
 10
109.8605503750379
 20
239.929527327634
 30
0.0
 10
109.7779604241835
 20
238.6001399483728
 30
0.0
 10
109.6880820250405
 20
237.38163878792
 30
0.0
 10
109.5650833733307
 20
236.1330777138317
 30
0.0
 10
109.452934147986
 20
235.562199339417
 30
0.0
 10
109.3701268007918
 20
235.3503985859859
 30
0.0
 10
109.3255587333818
 20
235.2792787939966
 30
0.0
 10
109.2960376683821
 20
235.2360062049142
 30
0.0
 10
109.2839444550088
 20
235.1965254322538
 30
0.0
 10
109.2785757940969
 20
235.1789983387996
 30
0.0
  0
LINE
  5
1E8
330
1F
100
AcDbEntity
  8
0
  6
Continuous
 62
     7
 48
10.0
370
    15
100
AcDbLine
 10
92.181648862
 20
235.1780336321
 30
0.0
 11
92.1814244345
 21
235.179001373
 31
0.0
  0
LINE
  5
1E9
330
1F
100
AcDbEntity
  8
0
  6
Continuous
 62
     7
 48
10.0
370
    15
100
AcDbLine
 10
92.181648862
 20
235.1780336321
 30
0.0
 11
109.27835172
 21
235.1780336321
 31
0.0
  0
LINE
  5
1EA
330
1F
100
AcDbEntity
  8
0
  6
Continuous
 62
     7
 48
10.0
370
    15
100
AcDbLine
 10
109.2785764133
 20
235.179000786
 30
0.0
 11
109.2783515132
 21
235.1780328146
 31
0.0
  0
SPLINE
  5
1EB
330
1F
100
AcDbEntity
  8
0
  6
Continuous
 62
     7
 48
10.0
370
    15
100
AcDbSpline
210
0.0
220
0.0
230
1.0
 70
     8
 71
     3
 72
    14
 73
    10
 74
     0
 42
0.00000001
 43
0.00000001
 40
0.0
 40
0.0
 40
0.0
 40
0.0
 40
0.25
 40
0.25
 40
0.5
 40
0.5
 40
0.75
 40
0.75
 40
1.0
 40
1.0
 40
1.0
 40
1.0
 10
109.2785757940996
 20
235.1789983388142
 30
0.0
 10
109.382339036953
 20
235.1789753213934
 30
0.0
 10
109.4920623397667
 20
235.1954871905044
 30
0.0
 10
109.706094198386
 20
235.2678267777183
 30
0.0
 10
109.8100503017022
 20
235.3237814910278
 30
0.0
 10
109.9922602268557
 20
235.4686421193266
 30
0.0
 10
110.0701948578824
 20
235.5572942710736
 30
0.0
 10
110.1888657802319
 20
235.7494602196988
 30
0.0
 10
110.2296465841828
 20
235.8526022028633
 30
0.0
 10
110.2529673755921
 20
235.9536596344882
 30
0.0
  0
SPLINE
  5
1EC
330
1F
100
AcDbEntity
  8
0
  6
Continuous
 62
     7
 48
10.0
370
    15
100
AcDbSpline
210
0.0
220
0.0
230
1.0
 70
     8
 71
     3
 72
    25
 73
    21
 74
     0
 42
0.00000001
 43
0.00000001
 40
0.0
 40
0.0
 40
0.0
 40
0.0
 40
0.0408238069545123
 40
0.0816473595621762
 40
0.1122651079454953
 40
0.1428829005670474
 40
0.2500387753645993
 40
0.3607226886427091
 40
0.4437005880338988
 40
0.5000090246531714
 40
0.5582030472504904
 40
0.61923742819556
 40
0.6831947861962894
 40
0.7499637063821363
 40
0.8003942676327296
 40
0.874959988405325
 40
0.9142267012078816
 40
0.9481218749216458
 40
0.9766902186646578
 40
0.9999999999999999
 40
0.9999999999999999
 40
0.9999999999999999
 40
0.9999999999999999
 10
110.2529670893577
 20
235.9536583941347
 30
0.0
 10
110.25721359214
 20
235.9680229934445
 30
0.0
 10
110.2657065712474
 20
235.9967521025674
 30
0.0
 10
110.2851394244457
 20
236.0325104596579
 30
0.0
 10
110.3043508787327
 20
236.0613923009788
 30
0.0
 10
110.3401360051566
 20
236.1164972795602
 30
0.0
 10
110.4062454206537
 20
236.2534596823058
 30
0.0
 10
110.505229489832
 20
236.6890921143714
 30
0.0
 10
110.5984781649125
 20
237.3998452587464
 30
0.0
 10
110.6762580348133
 20
238.221509119354
 30
0.0
 10
110.7477573469647
 20
239.1743100844313
 30
0.0
 10
110.8232051963767
 20
240.4134824130725
 30
0.0
 10
110.902194723276
 20
241.9373889790251
 30
0.0
 10
110.9761347895973
 20
243.5701681071587
 30
0.0
 10
111.053199670122
 20
245.4567038742038
 30
0.0
 10
111.1175581807602
 20
247.2043069958059
 30
0.0
 10
111.1733571533082
 20
248.8679350621312
 30
0.0
 10
111.2103653357999
 20
250.0520753257373
 30
0.0
 10
111.2405436116186
 20
251.0749605220195
 30
0.0
 10
111.2577352409297
 20
251.7083330429886
 30
0.0
 10
111.2654597513941
 20
251.9929187897809
 30
0.0
  0
LINE
  5
1ED
330
1F
100
AcDbEntity
  8
0
  6
Continuous
 62
     7
 48
10.0
370
    15
100
AcDbLine
 10
90.2762937091
 20
239.9868641228
 30
0.0
 11
90.8513634728
 21
237.4948951472
 31
0.0
  0
SPLINE
  5
1EE
330
1F
100
AcDbEntity
  8
0
  6
Continuous
 62
     7
 48
10.0
370
    15
100
AcDbSpline
210
0.0
220
0.0
230
1.0
 70
     8
 71
     3
 72
    29
 73
    25
 74
     0
 42
0.00000001
 43
0.00000001
 40
0.0
 40
0.0
 40
0.0
 40
0.0
 40
0.0107400959783337
 40
0.0208707718064063
 40
0.0303977954919585
 40
0.0393251986142296
 40
0.0476556348919757
 40
0.0553906841981009
 40
0.0625311081528846
 40
0.0930292087319234
 40
0.1250557846764202
 40
0.1537324534573623
 40
0.1875786370614635
 40
0.2500753889525548
 40
0.3749668635405921
 40
0.4999105335750379
 40
0.5624172785738405
 40
0.6249256562948896
 40
0.691053676718385
 40
0.7499485049783988
 40
0.8749705506646983
 40
0.937485275194241
 40
0.9713250699746662
 40
1.0
 40
1.0
 40
1.0
 40
1.0
 10
112.9964415450106
 20
255.9574520947253
 30
0.0
 10
112.9940419437733
 20
255.8594189423482
 30
0.0
 10
112.9893789007287
 20
255.6689152860631
 30
0.0
 10
112.9827494379802
 20
255.3970397050864
 30
0.0
 10
112.9766338245522
 20
255.1451427809243
 30
0.0
 10
112.9710280311581
 20
254.9128552119916
 30
0.0
 10
112.965917030493
 20
254.6993944932571
 30
0.0
 10
112.9612858575032
 20
254.5041252551316
 30
0.0
 10
112.9524883702042
 20
254.1278428360426
 30
0.0
 10
112.9398426388198
 20
253.5711910450876
 30
0.0
 10
112.9249655275072
 20
252.8895350770093
 30
0.0
 10
112.911208481731
 20
252.2304445855516
 30
0.0
 10
112.894939389853
 20
251.4220135731098
 30
0.0
 10
112.8707138372146
 20
250.1573488992731
 30
0.0
 10
112.8448549998569
 20
248.7833871400113
 30
0.0
 10
112.8207226395728
 20
247.8484627546708
 30
0.0
 10
112.8005731883318
 20
247.3334875030524
 30
0.0
 10
112.7865574341564
 20
247.0536488123287
 30
0.0
 10
112.7746886484361
 20
246.8792116181219
 30
0.0
 10
112.7624321866288
 20
246.7540224404416
 30
0.0
 10
112.7552557735792
 20
246.7471432388238
 30
0.0
 10
112.7531865321625
 20
246.7723856714325
 30
0.0
 10
112.7521410881923
 20
246.7812829954788
 30
0.0
 10
112.7522770329637
 20
246.7833318872611
 30
0.0
 10
112.7523393895815
 20
246.7842716951011
 30
0.0
  0
LINE
  5
1EF
330
1F
100
AcDbEntity
  8
0
  6
Continuous
 62
     7
 48
10.0
370
    15
100
AcDbLine
 10
112.7523393434
 20
246.7842714952
 30
0.0
 11
110.600645776
 21
237.4602660361
 31
0.0
  0
SPLINE
  5
1F0
330
1F
100
AcDbEntity
  8
0
  6
Continuous
 62
     7
 48
10.0
370
    15
100
AcDbSpline
210
0.0
220
0.0
230
1.0
 70
     8
 71
     3
 72
    28
 73
    24
 74
     0
 42
0.00000001
 43
0.00000001
 40
0.0
 40
0.0
 40
0.0
 40
0.0
 40
0.0624999999999998
 40
0.0624999999999998
 40
0.0937499999999997
 40
0.0937499999999997
 40
0.1249999999999997
 40
0.1249999999999997
 40
0.1874999999999997
 40
0.1874999999999997
 40
0.2499999999999997
 40
0.2499999999999997
 40
0.3750000000000008
 40
0.3750000000000008
 40
0.4375000000000007
 40
0.4375000000000007
 40
0.5000000000000007
 40
0.5000000000000007
 40
0.6250000000000008
 40
0.6250000000000008
 40
0.750000000000001
 40
0.750000000000001
 40
1.0
 40
1.0
 40
1.0
 40
1.0
 10
88.31163630811231
 20
256.4122663429025
 30
0.0
 10
88.32569685654586
 20
255.851032075076
 30
0.0
 10
88.33855580461628
 20
255.3218285710582
 30
0.0
 10
88.35675921802648
 20
254.5710014508411
 30
0.0
 10
88.36263182845191
 20
254.3277623127479
 30
0.0
 10
88.37385594199132
 20
253.8608855645804
 30
0.0
 10
88.37922879672891
 20
253.6363770067955
 30
0.0
 10
88.39471752594793
 20
252.9872221918777
 30
0.0
 10
88.40421228824289
 20
252.5868306003775
 30
0.0
 10
88.42198139893956
 20
251.8413860411353
 30
0.0
 10
88.43028705065997
 20
251.4949254526164
 30
0.0
 10
88.4530866983438
 20
250.5460959217494
 30
0.0
 10
88.46535299456983
 20
250.0272553117707
 30
0.0
 10
88.4809615016699
 20
249.3780133080554
 30
0.0
 10
88.48571767494697
 20
249.1835170930671
 30
0.0
 10
88.49438807817124
 20
248.8359534413075
 30
0.0
 10
88.49828465981729
 20
248.6829789352338
 30
0.0
 10
88.50871679112659
 20
248.2866107857518
 30
0.0
 10
88.51399311465784
 20
248.1048132627058
 30
0.0
 10
88.52208402587317
 20
247.858282113415
 30
0.0
 10
88.52496748171252
 20
247.792795112624
 30
0.0
 10
88.53369341173453
 20
247.6764088788811
 30
0.0
 10
88.53934761320787
 20
247.7048136367112
 30
0.0
 10
88.55772330546685
 20
247.5796850672695
 30
0.0
  0
ARC
  5
1F1
330
1F
100
AcDbEntity
  8
0
  6
Continuous
 62
     7
 48
100.0
370
    15
100
AcDbCircle
 10
98.4515731955
 20
249.0328665622
 30
0.0
 40
10.00000005261625
100
AcDbArc
 50
188.3557029038
 51
192.9946167919
  0
SPLINE
  5
1F2
330
1F
100
AcDbEntity
  8
0
  6
Continuous
 62
     7
 48
10.0
370
    15
100
AcDbSpline
210
0.0
220
0.0
230
1.0
 70
     8
 71
     3
 72
    28
 73
    24
 74
     0
 42
0.00000001
 43
0.00000001
 40
0.0
 40
0.0
 40
0.0
 40
0.0
 40
0.2500000000000006
 40
0.2500000000000006
 40
0.3750000000000002
 40
0.3750000000000002
 40
0.4999999999999998
 40
0.4999999999999998
 40
0.5624999999999996
 40
0.5624999999999996
 40
0.6249999999999993
 40
0.6249999999999993
 40
0.6874999999999992
 40
0.6874999999999992
 40
0.749999999999999
 40
0.749999999999999
 40
0.8749999999999986
 40
0.8749999999999986
 40
0.906249999999999
 40
0.906249999999999
 40
0.9374999999999994
 40
0.9374999999999994
 40
1.0
 40
1.0
 40
1.0
 40
1.0
 10
112.9022774407977
 20
247.5796850690162
 30
0.0
 10
112.9206420153653
 20
247.7047498747687
 30
0.0
 10
112.9261733223383
 20
247.6763929827571
 30
0.0
 10
112.9352262643828
 20
247.7927474292804
 30
0.0
 10
112.9383736515696
 20
247.8582667824282
 30
0.0
 10
112.9465460248755
 20
248.1052789824552
 30
0.0
 10
112.9513554689516
 20
248.2866800645367
 30
0.0
 10
112.9613349717864
 20
248.6836616018678
 30
0.0
 10
112.9651357533859
 20
248.8365494447055
 30
0.0
 10
112.9737398247875
 20
249.1849208833716
 30
0.0
 10
112.9785355223916
 20
249.3804281775872
 30
0.0
 10
112.9891346043291
 20
249.8174649132469
 30
0.0
 10
112.9949462980428
 20
250.0598998612008
 30
0.0
 10
113.007490296743
 20
250.58994705839
 30
0.0
 10
113.0142293325356
 20
250.8779152313055
 30
0.0
 10
113.0362712874767
 20
251.8192007544656
 30
0.0
 10
113.0535098957682
 20
252.5471916046781
 30
0.0
 10
113.0798852559837
 20
253.6403700487799
 30
0.0
 10
113.0853920338893
 20
253.8677772377491
 30
0.0
 10
113.0967759200791
 20
254.3353969804508
 30
0.0
 10
113.1026749937192
 20
254.576388426096
 30
0.0
 10
113.1210593049432
 20
255.3222079054036
 30
0.0
 10
113.1342516393869
 20
255.849786945096
 30
0.0
 10
113.1483642305107
 20
256.4122663722918
 30
0.0
  0
ARC
  5
1F3
330
1F
100
AcDbEntity
  8
0
  6
Continuous
 62
     7
 48
100.0
370
    15
100
AcDbCircle
 10
103.0084273311
 20
249.0328643443
 30
0.0
 40
10.00000000000201
100
AcDbArc
 50
347.0054052671
 51
351.6443127676
  0
LINE
  5
1F4
330
1F
100
AcDbEntity
  8
0
  6
Continuous
 62
     7
 48
10.0
370
    15
100
AcDbLine
 10
109.0153549857
 20
234.0372983245
 30
0.0
 11
109.0153989544
 21
234.0374976909
 31
0.0
  0
LINE
  5
1F5
330
1F
100
AcDbEntity
  8
0
  6
Continuous
 62
     7
 48
10.0
370
    15
100
AcDbLine
 10
110.2527429157
 20
235.9526869751
 30
0.0
 11
110.1948558134
 21
235.8118674224
 31
0.0
  0
LINE
  5
1F6
330
1F
100
AcDbEntity
  8
0
  6
Continuous
 62
     7
 48
10.0
370
    15
100
AcDbLine
 10
110.2529670884
 20
235.9536583901
 30
0.0
 11
110.2527429157
 21
235.9526869751
 31
0.0
  0
LINE
  5
1F7
330
1F
100
AcDbEntity
  8
0
  6
Continuous
 62
     7
 48
10.0
370
    15
100
AcDbLine
 10
91.2070340793
 20
235.9536558522
 30
0.0
 11
91.2072576663
 21
235.9526869751
 31
0.0
  0
LINE
  5
1F8
330
1F
100
AcDbEntity
  8
0
  6
Continuous
 62
     7
 48
10.0
370
    15
100
AcDbLine
 10
91.2636829175
 20
235.8154236071
 30
0.0
 11
91.2072576663
 21
235.9526869751
 31
0.0
  0
LINE
  5
1F9
330
1F
100
AcDbEntity
  8
0
  6
Continuous
 62
     7
 48
10.0
370
    15
100
AcDbLine
 10
88.4229761852
 20
250.0517665007
 30
0.0
 11
88.4546967315
 21
248.7829446506
 31
0.0
  0
SPLINE
  5
1FA
330
1F
100
AcDbEntity
  8
0
  6
Continuous
 62
     7
 48
10.0
370
    15
100
AcDbSpline
210
0.0
220
0.0
230
1.0
 70
     8
 71
     3
 72
     9
 73
     5
 74
     0
 42
0.00000001
 43
0.00000001
 40
0.0
 40
0.0
 40
0.0
 40
0.0
 40
0.3457279217033115
 40
0.9999999999999999
 40
0.9999999999999999
 40
0.9999999999999999
 40
0.9999999999999999
 10
88.52220957404931
 20
247.8718048961248
 30
0.0
 10
88.51175502626506
 20
247.9523668772921
 30
0.0
 10
88.48151579151444
 20
248.1853882102822
 30
0.0
 10
88.46530379083858
 20
248.5466083796697
 30
0.0
 10
88.45469673146303
 20
248.7829446506175
 30
0.0
  0
SPLINE
  5
1FB
330
1F
100
AcDbEntity
  8
0
  6
Continuous
 62
     7
 48
10.0
370
    15
100
AcDbSpline
210
0.0
220
0.0
230
1.0
 70
    24
 71
     3
 72
    28
 73
    24
 74
     0
 42
0.00000001
 43
0.00000001
 40
0.0
 40
0.0
 40
0.0
 40
0.0
 40
0.000152235008729
 40
0.0293362304611724
 40
0.0578494903099065
 40
0.0806838008474145
 40
0.1029973762705202
 40
0.1305965446513074
 40
0.1670604946987785
 40
0.2025478856286198
 40
0.2253286637479427
 40
0.2549936794790439
 40
0.2915429330156457
 40
0.3439343265439904
 40
0.3885842989864131
 40
0.4264861546961483
 40
0.461616901376442
 40
0.5064988341076264
 40
0.5493857828279868
 40
0.5902777603674844
 40
0.7497916971093086
 40
0.9166337912591178
 40
1.0
 40
1.0
 40
1.0
 40
1.0
 10
110.2374537784488
 20
235.886434046863
 30
0.0
 10
110.2374404705951
 20
235.886376379497
 30
0.0
 10
110.23487599961
 20
235.8752636718965
 30
0.0
 10
110.2302323596489
 20
235.8551412320629
 30
0.0
 10
110.2235907911433
 20
235.8263611018726
 30
0.0
 10
110.2176878263046
 20
235.8007815875714
 30
0.0
 10
110.211616640478
 20
235.7744731156561
 30
0.0
 10
110.2043084650691
 20
235.742804355551
 30
0.0
 10
110.1957761025382
 20
235.7058307845837
 30
0.0
 10
110.1876034923603
 20
235.6704161404797
 30
0.0
 10
110.179955291574
 20
235.6372739370724
 30
0.0
 10
110.1721879642279
 20
235.6036155185725
 30
0.0
 10
110.1618165965724
 20
235.5586729253987
 30
0.0
 10
110.1501051329992
 20
235.5079232499147
 30
0.0
 10
110.1383253040732
 20
235.4568773245687
 30
0.0
 10
110.1281085414745
 20
235.4126046866409
 30
0.0
 10
110.1179639937986
 20
235.3686449800454
 30
0.0
 10
110.107554009246
 20
235.3235350469843
 30
0.0
 10
110.0968665425506
 20
235.2772226913043
 30
0.0
 10
110.0770554120833
 20
235.1913744592792
 30
0.0
 10
110.0494105972136
 20
235.0715802615105
 30
0.0
 10
110.022323943066
 20
234.9542047602041
 30
0.0
 10
110.0123020202191
 20
234.9107764278678
 30
0.0
 10
110.0089628436115
 20
234.8963066625683
 30
0.0
  0
LINE
  5
1FC
330
1F
100
AcDbEntity
  8
0
  6
Continuous
 62
     7
 48
10.0
370
    15
100
AcDbLine
 10
91.355824731
 20
235.3557695654
 30
0.0
 11
91.3130400936
 21
235.4942964564
 31
0.0
  0
SPLINE
  5
1FD
330
1F
100
AcDbEntity
  8
0
  6
Continuous
 62
     7
 48
10.0
370
    15
100
AcDbSpline
210
0.0
220
0.0
230
1.0
 70
    24
 71
     3
 72
    29
 73
    25
 74
     0
 42
0.00000001
 43
0.00000001
 40
0.0
 40
0.0
 40
0.0
 40
0.0
 40
0.0000656614199241
 40
0.0238324965505134
 40
0.0469997298686777
 40
0.0655363889247119
 40
0.0836484442638333
 40
0.1060703338748081
 40
0.1357122750721367
 40
0.1645684061365692
 40
0.18307835615948
 40
0.2071814787293624
 40
0.2368777740036208
 40
0.2794457515016521
 40
0.315724169242127
 40
0.346519711450476
 40
0.3750637278435576
 40
0.411530659825859
 40
0.4463766396529716
 40
0.4796016777492707
 40
0.609207918735086
 40
0.7447683506653918
 40
0.8805304960397164
 40
1.0
 40
1.0
 40
1.0
 40
1.0
 10
91.22254905220126
 20
235.8864243029514
 30
0.0
 10
91.22255611517602
 20
235.8863936967274
 30
0.0
 10
91.22511969546042
 20
235.875284848837
 30
0.0
 10
91.22976367598174
 20
235.855160933232
 30
0.0
 10
91.23640859782428
 20
235.826366271919
 30
0.0
 10
91.24230713901856
 20
235.8008059267428
 30
0.0
 10
91.24837449452711
 20
235.7745140528727
 30
0.0
 10
91.25568209803107
 20
235.7428477710221
 30
0.0
 10
91.26421819179555
 20
235.7058580313762
 30
0.0
 10
91.27239478389065
 20
235.6704261322973
 30
0.0
 10
91.2800454226778
 20
235.6372733642197
 30
0.0
 10
91.28781277538165
 20
235.6036148358363
 30
0.0
 10
91.29818408025247
 20
235.5586725147295
 30
0.0
 10
91.30989546289523
 20
235.5079231899442
 30
0.0
 10
91.32167527204763
 20
235.4568773502837
 30
0.0
 10
91.33189195412538
 20
235.4126050612801
 30
0.0
 10
91.3420367999986
 20
235.3686440624962
 30
0.0
 10
91.35244542765511
 20
235.323540009318
 30
0.0
 10
91.3631379208884
 20
235.2772058719737
 30
0.0
 10
91.38291452604642
 20
235.1915072496223
 30
0.0
 10
91.41111448803721
 20
235.069307414329
 30
0.0
 10
91.4412324860647
 20
234.9387960895431
 30
0.0
 10
91.46527571577367
 20
234.8346087608042
 30
0.0
 10
91.46524011278503
 20
234.8347630404217
 30
0.0
 10
91.46522344764414
 20
234.8348352560322
 30
0.0
  0
SPLINE
  5
1FE
330
1F
100
AcDbEntity
  8
0
  6
Continuous
 62
     7
 48
10.0
370
    15
100
AcDbSpline
210
0.0
220
0.0
230
1.0
 70
     8
 71
     3
 72
     9
 73
     5
 74
     0
 42
0.00000001
 43
0.00000001
 40
0.0
 40
0.0
 40
0.0
 40
0.0
 40
0.8375433399086376
 40
1.0
 40
1.0
 40
1.0
 40
1.0
 10
113.005303850592
 20
248.7829446506175
 30
0.0
 10
112.9895159800051
 20
248.4676256548671
 30
0.0
 10
112.9706657667269
 20
248.0911448439938
 30
0.0
 10
112.9412467714398
 20
247.887620137831
 30
0.0
 10
112.9364674597222
 20
247.8545561938217
 30
0.0
  0
SPLINE
  5
1FF
330
1F
100
AcDbEntity
  8
0
  6
Continuous
 62
     7
 48
10.0
370
    15
100
AcDbSpline
210
0.0
220
0.0
230
1.0
 70
     8
 71
     3
 72
    13
 73
     9
 74
     0
 42
0.00000001
 43
0.00000001
 40
0.0
 40
0.0
 40
0.0
 40
0.0
 40
0.1667524462517046
 40
0.333470576635142
 40
0.5001543941744946
 40
0.6668039018960584
 40
0.8334191028278904
 40
1.0
 40
1.0
 40
1.0
 40
1.0
 10
113.0370243968423
 20
250.0517665006268
 30
0.0
 10
113.035033469369
 20
249.9721283973577
 30
0.0
 10
113.0310520241341
 20
249.8128685794885
 30
0.0
 10
113.0254001242699
 20
249.586790475141
 30
0.0
 10
113.0199819514505
 20
249.370062787462
 30
0.0
 10
113.0148265642021
 20
249.1638480353579
 30
0.0
 10
113.0099048660498
 20
248.9669822015202
 30
0.0
 10
113.0068374171429
 20
248.8442862902537
 30
0.0
 10
113.005303850592
 20
248.7829446506174
 30
0.0
  0
LINE
  5
200
330
1F
100
AcDbEntity
  8
0
  6
Continuous
 62
     7
 48
10.0
370
    15
100
AcDbLine
 10
88.174260681
 20
260.0003866703
 30
0.0
 11
88.4229761852
 21
250.0517665007
 31
0.0
  0
LINE
  5
201
330
1F
100
AcDbEntity
  8
0
  6
Continuous
 62
     7
 48
10.0
370
    15
100
AcDbLine
 10
113.2858867756
 20
260.006261649
 30
0.0
 11
113.0370243968
 21
250.0517665006
 31
0.0
  0
LINE
  5
202
330
1F
100
AcDbEntity
  8
0
  6
Continuous
 62
     7
 48
10.0
370
    15
100
AcDbLine
 10
114.4297330282
 20
307.770802268
 30
0.0
 11
121.480000291
 21
307.770802268
 31
0.0
  0
LINE
  5
203
330
1F
100
AcDbEntity
  8
0
  6
Continuous
 62
     7
 48
10.0
370
    15
100
AcDbLine
 10
121.480000291
 20
307.770802268
 30
0.0
 11
129.573422962
 21
307.770802268
 31
0.0
  0
LINE
  5
204
330
1F
100
AcDbEntity
  8
0
  6
Continuous
 62
     7
 48
10.0
370
    15
100
AcDbLine
 10
71.573422962
 20
307.770802268
 30
0.0
 11
79.980000291
 21
307.770802268
 31
0.0
  0
LINE
  5
205
330
1F
100
AcDbEntity
  8
0
  6
Continuous
 62
     7
 48
10.0
370
    15
100
AcDbLine
 10
79.980000291
 20
307.770802268
 30
0.0
 11
87.0301326062
 21
307.770802268
 31
0.0
  0
LINE
  5
206
330
1F
100
AcDbEntity
  8
0
  6
Continuous
 62
     7
 48
10.0
370
    15
100
AcDbLine
 10
114.3549959098
 20
304.7767681893
 30
0.0
 11
121.4401364253
 21
304.7767681893
 31
0.0
  0
LINE
  5
207
330
1F
100
AcDbEntity
  8
0
  6
Continuous
 62
     7
 48
10.0
370
    15
100
AcDbLine
 10
121.480000291
 20
307.770802268
 30
0.0
 11
121.4401364253
 21
304.7767681893
 31
0.0
  0
LINE
  5
208
330
1F
100
AcDbEntity
  8
0
  6
Continuous
 62
     7
 48
10.0
370
    15
100
AcDbLine
 10
79.980000291
 20
307.770802268
 30
0.0
 11
80.0189716632
 21
304.7767681893
 31
0.0
  0
LINE
  5
209
330
1F
100
AcDbEntity
  8
0
  6
Continuous
 62
     7
 48
10.0
370
    15
100
AcDbLine
 10
80.0189716632
 20
304.7767681893
 30
0.0
 11
87.1048702298
 21
304.7767681893
 31
0.0
  0
LINE
  5
20A
330
1F
100
AcDbEntity
  8
0
  6
Continuous
 62
     7
 48
10.0
370
    15
100
AcDbLine
 10
121.4401364253
 20
304.7767681893
 30
0.0
 11
123.6628422651
 21
303.020802268
 31
0.0
  0
LINE
  5
20B
330
1F
100
AcDbEntity
  8
0
  6
Continuous
 62
     7
 48
10.0
370
    15
100
AcDbLine
 10
123.6628422651
 20
303.020802268
 30
0.0
 11
124.1988674891
 21
304.820802268
 31
0.0
  0
LINE
  5
20C
330
1F
100
AcDbEntity
  8
0
  6
Continuous
 62
     7
 48
10.0
370
    15
100
AcDbLine
 10
124.1988674891
 20
304.820802268
 30
0.0
 11
129.4778206547
 21
304.820802268
 31
0.0
  0
LINE
  5
20D
330
1F
100
AcDbEntity
  8
0
  6
Continuous
 62
     7
 48
10.0
370
    15
100
AcDbLine
 10
129.4778206547
 20
304.820802268
 30
0.0
 11
129.573422962
 21
307.770802268
 31
0.0
  0
LINE
  5
20E
330
1F
100
AcDbEntity
  8
0
  6
Continuous
 62
     7
 48
10.0
370
    15
100
AcDbLine
 10
71.6703252458
 20
304.820802268
 30
0.0
 11
71.573422962
 21
307.770802268
 31
0.0
  0
LINE
  5
20F
330
1F
100
AcDbEntity
  8
0
  6
Continuous
 62
     7
 48
10.0
370
    15
100
AcDbLine
 10
71.6703252458
 20
304.820802268
 30
0.0
 11
77.1535342425
 21
304.820802268
 31
0.0
  0
LINE
  5
210
330
1F
100
AcDbEntity
  8
0
  6
Continuous
 62
     7
 48
10.0
370
    15
100
AcDbLine
 10
77.1535342425
 20
304.820802268
 30
0.0
 11
77.7088357494
 21
303.020802268
 31
0.0
  0
LINE
  5
211
330
1F
100
AcDbEntity
  8
0
  6
Continuous
 62
     7
 48
10.0
370
    15
100
AcDbLine
 10
77.7088357494
 20
303.020802268
 30
0.0
 11
80.0189716632
 21
304.7767681893
 31
0.0
  0
LINE
  5
212
330
1F
100
AcDbEntity
  8
0
  6
Continuous
 62
     7
 48
10.0
370
    15
100
AcDbLine
 10
114.3111702056
 20
303.020802268
 30
0.0
 11
123.6628422651
 21
303.020802268
 31
0.0
  0
LINE
  5
213
330
1F
100
AcDbEntity
  8
0
  6
Continuous
 62
     7
 48
10.0
370
    15
100
AcDbLine
 10
87.1487049433
 20
303.020802268
 30
0.0
 11
77.7088357494
 21
303.020802268
 31
0.0
  0
LINE
  5
214
330
1F
100
AcDbEntity
  8
0
  6
Continuous
 62
     7
 48
10.0
370
    15
100
AcDbLine
 10
123.067995923
 20
261.270802268
 30
0.0
 11
113.317500291
 21
261.270802268
 31
0.0
  0
LINE
  5
215
330
1F
100
AcDbEntity
  8
0
  6
Continuous
 62
     7
 48
10.0
370
    15
100
AcDbLine
 10
65.0208241757
 20
301.2182034818
 30
0.0
 11
71.573422962
 21
307.770802268
 31
0.0
  0
ARC
  5
216
330
1F
100
AcDbEntity
  8
0
  6
Continuous
 62
     7
 48
100.0
370
    15
100
AcDbCircle
 10
70.2051093098
 20
296.0339183477
 30
0.0
 40
7.331686347791734
100
AcDbArc
 50
135.0
 51
196.492123898
  0
LINE
  5
217
330
1F
100
AcDbEntity
  8
0
  6
Continuous
 62
     7
 48
10.0
370
    15
100
AcDbLine
 10
71.3668386272
 20
266.2836174957
 30
0.0
 11
63.1750575734
 21
293.9525732811
 31
0.0
  0
ARC
  5
218
330
1F
100
AcDbEntity
  8
0
  6
Continuous
 62
     7
 48
100.0
370
    15
100
AcDbCircle
 10
78.0788500009
 20
268.270802268
 30
0.0
 40
7.000000000000004
100
AcDbArc
 50
196.492123898
 51
270.0
  0
LINE
  5
219
330
1F
100
AcDbEntity
  8
0
  6
Continuous
 62
     7
 48
10.0
370
    15
100
AcDbLine
 10
88.142500291
 20
261.270802268
 30
0.0
 11
78.0788500009
 21
261.270802268
 31
0.0
  0
CIRCLE
  5
21A
330
1F
100
AcDbEntity
  8
0
  6
Continuous
 62
     7
 48
100.0
370
    15
100
AcDbCircle
 10
70.840000291
 20
289.520802268
 30
0.0
 40
2.035000000000011
  0
LINE
  5
21B
330
1F
100
AcDbEntity
  8
0
  6
Continuous
 62
     7
 48
10.0
370
    15
100
AcDbLine
 10
74.825000291
 20
268.725802268
 30
0.0
 11
74.825000291
 21
273.525802268
 31
0.0
  0
ARC
  5
21C
330
1F
100
AcDbEntity
  8
0
  6
Continuous
 62
     7
 48
100.0
370
    15
100
AcDbCircle
 10
76.860000291
 20
273.525802268
 30
0.0
 40
2.035000000000011
100
AcDbArc
 50
0.0
 51
180.0
  0
LINE
  5
21D
330
1F
100
AcDbEntity
  8
0
  6
Continuous
 62
     7
 48
10.0
370
    15
100
AcDbLine
 10
78.895000291
 20
273.525802268
 30
0.0
 11
78.895000291
 21
268.725802268
 31
0.0
  0
ARC
  5
21E
330
1F
100
AcDbEntity
  8
0
  6
Continuous
 62
     7
 48
100.0
370
    15
100
AcDbCircle
 10
76.860000291
 20
268.725802268
 30
0.0
 40
2.035000000000011
100
AcDbArc
 50
180.0
 51
0.0
  0
ARC
  5
21F
330
1F
100
AcDbEntity
  8
0
  6
Continuous
 62
     7
 48
100.0
370
    15
100
AcDbCircle
 10
123.067995923
 20
268.270802268
 30
0.0
 40
7.0
100
AcDbArc
 50
270.0
 51
343.507876102
  0
LINE
  5
220
330
1F
100
AcDbEntity
  8
0
  6
Continuous
 62
     7
 48
10.0
370
    15
100
AcDbLine
 10
137.9717883506
 20
293.9525732811
 30
0.0
 11
129.7800072967
 21
266.2836174957
 31
0.0
  0
ARC
  5
221
330
1F
100
AcDbEntity
  8
0
  6
Continuous
 62
     7
 48
100.0
370
    15
100
AcDbCircle
 10
130.9417366142
 20
296.0339183477
 30
0.0
 40
7.331686347791734
100
AcDbArc
 50
343.507876102
 51
45.0
  0
LINE
  5
222
330
1F
100
AcDbEntity
  8
0
  6
Continuous
 62
     7
 48
10.0
370
    15
100
AcDbLine
 10
129.573422962
 20
307.770802268
 30
0.0
 11
136.1260217482
 21
301.2182034818
 31
0.0
  0
CIRCLE
  5
223
330
1F
100
AcDbEntity
  8
0
  6
Continuous
 62
     7
 48
100.0
370
    15
100
AcDbCircle
 10
130.620000291
 20
289.520802268
 30
0.0
 40
2.035000000000025
  0
ARC
  5
224
330
1F
100
AcDbEntity
  8
0
  6
Continuous
 62
     7
 48
100.0
370
    15
100
AcDbCircle
 10
124.600000291
 20
273.525802268
 30
0.0
 40
2.035000000000011
100
AcDbArc
 50
0.0
 51
180.0
  0
LINE
  5
225
330
1F
100
AcDbEntity
  8
0
  6
Continuous
 62
     7
 48
10.0
370
    15
100
AcDbLine
 10
126.635000291
 20
273.525802268
 30
0.0
 11
126.635000291
 21
268.725802268
 31
0.0
  0
ARC
  5
226
330
1F
100
AcDbEntity
  8
0
  6
Continuous
 62
     7
 48
100.0
370
    15
100
AcDbCircle
 10
124.600000291
 20
268.725802268
 30
0.0
 40
2.035000000000011
100
AcDbArc
 50
180.0
 51
0.0
  0
LINE
  5
227
330
1F
100
AcDbEntity
  8
0
  6
Continuous
 62
     7
 48
10.0
370
    15
100
AcDbLine
 10
122.565000291
 20
268.725802268
 30
0.0
 11
122.565000291
 21
273.525802268
 31
0.0
  0
LINE
  5
228
330
1F
100
AcDbEntity
  8
0
  6
Continuous
 62
     7
 48
10.0
370
    15
100
AcDbLine
 10
77.3425838445
 20
275.4648089015
 30
0.0
 11
77.2408134293
 21
275.485052707
 31
0.0
  0
LINE
  5
229
330
1F
100
AcDbEntity
  8
0
  6
Continuous
 62
     7
 48
10.0
370
    15
100
AcDbLine
 10
124.1174167371
 20
266.7867956347
 30
0.0
 11
124.2191871527
 21
266.7665518291
 31
0.0
  0
LINE
  5
22A
330
1F
100
AcDbEntity
  8
0
  6
Continuous
 62
     7
 48
10.0
370
    15
100
AcDbLine
 10
125.082583845
 20
275.4648089014
 30
0.0
 11
124.9808134293
 21
275.485052707
 31
0.0
  0
LINE
  5
22B
330
1F
100
AcDbEntity
  8
0
  6
Continuous
 62
     7
 48
10.0
370
    15
100
AcDbLine
 10
76.3774167373
 20
266.7867956346
 30
0.0
 11
76.4791871527
 21
266.7665518291
 31
0.0
  0
SPLINE
  5
22C
330
1F
100
AcDbEntity
  8
0
  6
Continuous
 62
     8
 48
10.0
370
    15
100
AcDbSpline
210
0.0
220
0.0
230
1.0
 70
    24
 71
     3
 72
    13
 73
     9
 74
     0
 42
0.00000001
 43
0.00000001
 40
0.0
 40
0.0
 40
0.0
 40
0.0
 40
0.1407680264967348
 40
0.3126144211973819
 40
0.484460815898046
 40
0.656307210598691
 40
0.828153605299339
 40
1.0
 40
1.0
 40
1.0
 40
1.0
 10
121.2300002910275
 20
341.0342635723525
 30
0.0
 10
121.2300002910275
 20
341.03515391128
 30
0.0
 10
121.2300002910275
 20
341.0371311556543
 30
0.0
 10
121.2300002910275
 20
341.0698161607959
 30
0.0
 10
121.2300002910275
 20
341.1248408889588
 30
0.0
 10
121.2300002910275
 20
341.2009284518439
 30
0.0
 10
121.2300002910275
 20
341.2927924704883
 30
0.0
 10
121.2300002910275
 20
341.3631798813773
 30
0.0
 10
121.2300002910275
 20
341.3983735868218
 30
0.0
  0
SPLINE
  5
22D
330
1F
100
AcDbEntity
  8
0
  6
Continuous
 62
     8
 48
10.0
370
    15
100
AcDbSpline
210
0.0
220
0.0
230
1.0
 70
     8
 71
     3
 72
    25
 73
    21
 74
     0
 42
0.00000001
 43
0.00000001
 40
0.0
 40
0.0
 40
0.0
 40
0.0
 40
0.0226244032709766
 40
0.0487181732595654
 40
0.0720305551764451
 40
0.0954581141620896
 40
0.1260904683987769
 40
0.1759724439096253
 40
0.2178926793151959
 40
0.2521611607773876
 40
0.2986898262511734
 40
0.3406888219366794
 40
0.3782415413067753
 40
0.4205874242450945
 40
0.4626151097511882
 40
0.5043294146425681
 40
0.6303569412160097
 40
0.7564169790678056
 40
0.8894118459953433
 40
0.9999999999999999
 40
0.9999999999999999
 40
0.9999999999999999
 40
0.9999999999999999
 10
88.46355911884241
 20
255.9574520735856
 30
0.0
 10
88.46851334279494
 20
255.753829516037
 30
0.0
 10
88.47918150221531
 20
255.3153596514667
 30
0.0
 10
88.49303699547805
 20
254.6989350883104
 30
0.0
 10
88.5058807436378
 20
254.1027216000742
 30
0.0
 10
88.51844351910256
 20
253.4989029664352
 30
0.0
 10
88.53403677598995
 20
252.7323169391378
 30
0.0
 10
88.55055168194804
 20
251.9065733271461
 30
0.0
 10
88.56571937112734
 20
251.1457960579229
 30
0.0
 10
88.57937553245853
 20
250.4735760143105
 30
0.0
 10
88.59197626533164
 20
249.8693814443444
 30
0.0
 10
88.60358956678073
 20
249.3195075624835
 30
0.0
 10
88.61395269292953
 20
248.8458222490742
 30
0.0
 10
88.62398116470354
 20
248.4268287080451
 30
0.0
 10
88.63431866812007
 20
248.0500669317192
 30
0.0
 10
88.65156501138448
 20
247.5125431681141
 30
0.0
 10
88.67590319039398
 20
247.0073372276134
 30
0.0
 10
88.69631181932664
 20
246.7483947978084
 30
0.0
 10
88.70603539565886
 20
246.7522140652346
 30
0.0
 10
88.70702182414396
 20
246.7729526545372
 30
0.0
 10
88.70746966859883
 20
246.7823680985975
 30
0.0
  0
SPLINE
  5
22E
330
1F
100
AcDbEntity
  8
0
  6
Continuous
 62
     8
 48
10.0
370
    15
100
AcDbSpline
210
0.0
220
0.0
230
1.0
 70
     8
 71
     3
 72
    29
 73
    25
 74
     0
 42
0.00000001
 43
0.00000001
 40
0.0
 40
0.0
 40
0.0
 40
0.0
 40
0.0056564906539526
 40
0.0683905015357628
 40
0.1329965639001618
 40
0.1994874493694958
 40
0.2594393241763977
 40
0.3131749083741936
 40
0.3833351480854657
 40
0.4597149633578114
 40
0.542352350995547
 40
0.6289098601828077
 40
0.704109969496064
 40
0.731717009759522
 40
0.7593437426171622
 40
0.7869912008587653
 40
0.8132748577783788
 40
0.8366302897390624
 40
0.8641233906125554
 40
0.8938457225598926
 40
0.930119170182071
 40
0.9616088154275485
 40
0.9849063432459753
 40
1.0
 40
1.0
 40
1.0
 40
1.0
 10
92.44558440076253
 20
234.03315818991
 30
0.0
 10
92.44562250290153
 20
234.0329836840442
 30
0.0
 10
92.44608318153693
 20
234.0308737992387
 30
0.0
 10
92.4435313635096
 20
234.0419897564375
 30
0.0
 10
92.4378254257037
 20
234.067034857762
 30
0.0
 10
92.42858767916842
 20
234.1075190757189
 30
0.0
 10
92.41729734651348
 20
234.1566143284296
 30
0.0
 10
92.40334742141663
 20
234.2160629042611
 30
0.0
 10
92.3859961158133
 20
234.2904938285417
 30
0.0
 10
92.36386547073175
 20
234.3865631924523
 30
0.0
 10
92.3381512600043
 20
234.499315756982
 30
0.0
 10
92.31068110542364
 20
234.6186644717161
 30
0.0
 10
92.28886267899419
 20
234.713915500333
 30
0.0
 10
92.27374708894021
 20
234.7797932672819
 30
0.0
 10
92.26409058879484
 20
234.8216279469892
 30
0.0
 10
92.25456578394336
 20
234.8626538910478
 30
0.0
 10
92.24543656072282
 20
234.901293455538
 30
0.0
 10
92.23654641095627
 20
234.9395491088181
 30
0.0
 10
92.2274740654142
 20
234.9790770554063
 30
0.0
 10
92.21710691799821
 20
235.0243245420629
 30
0.0
 10
92.20643744119893
 20
235.0702409706712
 30
0.0
 10
92.1962258197031
 20
235.1129583699214
 30
0.0
 10
92.18829543388313
 20
235.1481218747626
 30
0.0
 10
92.1835245537427
 20
235.1695924030078
 30
0.0
 10
92.18164886201669
 20
235.1780336320885
 30
0.0
  0
SPLINE
  5
22F
330
1F
100
AcDbEntity
  8
0
  6
Continuous
 62
     8
 48
10.0
370
    15
100
AcDbSpline
210
0.0
220
0.0
230
1.0
 70
     8
 71
     3
 72
    29
 73
    25
 74
     0
 42
0.00000001
 43
0.00000001
 40
0.0
 40
0.0
 40
0.0
 40
0.0
 40
0.0101237649709896
 40
0.0244448172547355
 40
0.0429610589640866
 40
0.0656664022906546
 40
0.0925483471121192
 40
0.1102922141866261
 40
0.1279045703836404
 40
0.146471276573798
 40
0.1884613281161774
 40
0.2278612156023854
 40
0.2670475154879987
 40
0.3089887651582175
 40
0.3508880026698549
 40
0.3946536404836364
 40
0.4418256133484729
 40
0.4875797087958863
 40
0.5846336414188885
 40
0.6747336969799872
 40
0.7579330402985042
 40
0.857498216489901
 40
0.971228943495004
 40
1.0
 40
1.0
 40
1.0
 40
1.0
 10
109.2783517200384
 20
235.1780336320885
 30
0.0
 10
109.2770717298226
 20
235.1722981274525
 30
0.0
 10
109.2739810686899
 20
235.1584491924868
 30
0.0
 10
109.2689615404803
 20
235.1357928068961
 30
0.0
 10
109.262589422574
 20
235.1081205013042
 30
0.0
 10
109.2549440089592
 20
235.0759101964194
 30
0.0
 10
109.2474881900312
 20
235.0442246593063
 30
0.0
 10
109.24060941185
 20
235.0143214266601
 30
0.0
 10
109.2345599921668
 20
234.9881517530459
 30
0.0
 10
109.2257150695618
 20
234.9498218708298
 30
0.0
 10
109.2142301890083
 20
234.9000963809941
 30
0.0
 10
109.2002499847026
 20
234.83933308385
 30
0.0
 10
109.1862587186352
 20
234.7781924566144
 30
0.0
 10
109.1719244619119
 20
234.715728164217
 30
0.0
 10
109.1570394570056
 20
234.6513042323907
 30
0.0
 10
109.1414055533037
 20
234.5850830007305
 30
0.0
 10
109.1258475295491
 20
234.5183806648166
 30
0.0
 10
109.1051079379232
 20
234.4285310043639
 30
0.0
 10
109.0814660358617
 20
234.3251650758999
 30
0.0
 10
109.0574939527665
 20
234.2205475178177
 30
0.0
 10
109.0371319412355
 20
234.1324919842808
 30
0.0
 10
109.0218057137827
 20
234.0654605352361
 30
0.0
 10
109.0134534416344
 20
234.0287346856576
 30
0.0
 10
109.0150355571692
 20
234.0358597721853
 30
0.0
 10
109.0153549857007
 20
234.037298324476
 30
0.0
  0
SPLINE
  5
230
330
1F
100
AcDbEntity
  8
0
  6
Continuous
 62
     8
 48
10.0
370
    15
100
AcDbSpline
210
0.0
220
0.0
230
1.0
 70
     8
 71
     3
 72
    11
 73
     7
 74
     0
 42
0.00000001
 43
0.00000001
 40
0.0
 40
0.0
 40
0.0
 40
0.0
 40
0.1455092794206825
 40
0.4357503869282717
 40
0.7259914944358631
 40
1.0
 40
1.0
 40
1.0
 40
1.0
 10
110.1948558134019
 20
235.8118674224472
 30
0.0
 10
110.1754714712406
 20
235.7573774429624
 30
0.0
 10
110.1174220146647
 20
235.5941986426911
 30
0.0
 10
109.910188754233
 20
235.3822370909681
 30
0.0
 10
109.6117643453959
 20
235.2093442959582
 30
0.0
 10
109.3873371186637
 20
235.1882684130297
 30
0.0
 10
109.2783517200384
 20
235.1780336320907
 30
0.0
  0
SPLINE
  5
231
330
1F
100
AcDbEntity
  8
0
  6
Continuous
 62
     8
 48
10.0
370
    15
100
AcDbSpline
210
0.0
220
0.0
230
1.0
 70
     8
 71
     3
 72
    11
 73
     7
 74
     0
 42
0.00000001
 43
0.00000001
 40
0.0
 40
0.0
 40
0.0
 40
0.0
 40
0.2731222093839363
 40
0.5624245154321289
 40
0.8517268214802889
 40
0.9999999999999999
 40
0.9999999999999999
 40
0.9999999999999999
 40
0.9999999999999999
 10
92.18164886202443
 20
235.1780336320563
 30
0.0
 10
92.07266833480122
 20
235.188271053513
 30
0.0
 10
91.84825113946106
 20
235.2093523739044
 30
0.0
 10
91.54974807384409
 20
235.3822025334244
 30
0.0
 10
91.34184175672415
 20
235.5952487827958
 30
0.0
 10
91.28346423688934
 20
235.7596992825736
 30
0.0
 10
91.26368291749357
 20
235.81542360711
 30
0.0
  0
LINE
  5
232
330
1F
100
AcDbEntity
  8
0
  6
Continuous
 62
     8
 48
10.0
370
    15
100
AcDbLine
 10
88.1742607005
 20
260.0003866325
 30
0.0
 11
88.2221296553
 21
260.0003894634
 31
0.0
  0
DIMENSION
  5
233
330
1F
100
AcDbEntity
  8
SLD-0
 48
10.0
100
AcDbDimension
  2
*D8
 10
70.840000291
 20
365.7960583632
 30
0.0
 11
100.7733909061
 21
365.7960583632
 31
0.0
 70
   160
 71
     2
 42
-1.0
 73
     0
 74
     0
 75
     0
  3
SLDDIMSTYLE0
100
AcDbAlignedDimension
 13
130.620000291
 23
289.520802268
 33
0.0
 14
70.840000291
 24
289.520802268
 34
0.0
100
AcDbRotatedDimension
  0
DIMENSION
  5
23D
330
1F
100
AcDbEntity
  8
SLD-0
 48
10.0
100
AcDbDimension
  2
*D9
 10
76.860000291
 20
213.3438725657
 30
0.0
 11
100.7733909061
 21
213.3438725657
 31
0.0
 70
   160
 71
     2
 42
-1.0
 73
     0
 74
     0
 75
     0
  3
SLDDIMSTYLE0
100
AcDbAlignedDimension
 13
124.600000291
 23
268.725802268
 33
0.0
 14
76.860000291
 24
268.725802268
 34
0.0
100
AcDbRotatedDimension
  0
DIMENSION
  5
247
330
1F
100
AcDbEntity
  8
SLD-0
 48
10.0
100
AcDbDimension
  2
*D10
 10
62.873422962
 20
383.2981971749
 30
0.0
 11
100.7733909061
 21
383.2981971749
 31
0.0
 70
   160
 71
     2
 42
-1.0
 73
     0
 74
     0
 75
     0
  3
SLDDIMSTYLE0
100
AcDbAlignedDimension
 13
138.273422962
 23
296.0339183477
 33
0.0
 14
62.873422962
 24
296.0339183477
 34
0.0
100
AcDbRotatedDimension
  0
DIMENSION
  5
251
330
1F
100
AcDbEntity
  8
SLD-0
 48
10.0
100
AcDbDimension
  2
*D11
 10
129.1810379913
 20
288.0818399683
 30
0.0
 11
155.41740118
 21
314.318203157
 31
0.0
 70
   163
  1
<>
 71
     1
 42
-1.0
 73
     0
 74
     0
 75
     0
  3
SLDDIMSTYLE1
100
AcDbDiametricDimension
 15
132.0589625907
 25
290.9597645678
 35
0.0
 40
0.0
  0
LINE
  5
25B
330
1F
100
AcDbEntity
  8
0
  6
Continuous
 62
     7
 48
10.0
370
    15
100
AcDbLine
 10
329.0617464614
 20
238.1528893179
 30
0.0
 11
329.2994452731
 21
238.2564239057
 31
0.0
  0
SPLINE
  5
25C
330
1F
100
AcDbEntity
  8
0
  6
Continuous
 62
     7
 48
10.0
370
    15
100
AcDbSpline
210
0.0
220
0.0
230
1.0
 70
    24
 71
     3
 72
    22
 73
    18
 74
     0
 42
0.00000001
 43
0.00000001
 40
0.0
 40
0.0
 40
0.0
 40
0.0
 40
0.035905226280372
 40
0.0716640586638346
 40
0.1073286288767411
 40
0.1429514824874917
 40
0.178585349610405
 40
0.2142829115544991
 40
0.250096568547754
 40
0.3750155267940539
 40
0.500015272997292
 40
0.6249337677541258
 40
0.749933977932787
 40
0.8124910348888824
 40
0.8748327222905774
 40
0.9372417706280504
 40
0.9999999999999999
 40
0.9999999999999999
 40
0.9999999999999999
 40
0.9999999999999999
 10
221.5197192339514
 20
300.5110967005865
 30
0.0
 10
221.5197192339514
 20
300.4529571349588
 30
0.0
 10
221.5197192339514
 20
300.336915052135
 30
0.0
 10
221.5197192339514
 20
300.1551039983898
 30
0.0
 10
221.5197192339514
 20
299.9681842155354
 30
0.0
 10
221.5197192339514
 20
299.7755697466479
 30
0.0
 10
221.5197192339514
 20
299.5774218771564
 30
0.0
 10
221.5197192339514
 20
299.3736869006036
 30
0.0
 10
221.5197192339514
 20
298.9912896340466
 30
0.0
 10
221.5197192339514
 20
298.4070141455652
 30
0.0
 10
221.5197192339514
 20
297.5977094860455
 30
0.0
 10
221.5197192339514
 20
296.7604735748895
 30
0.0
 10
221.5197192339514
 20
296.0514288593736
 30
0.0
 10
221.5197192339514
 20
295.4860199817873
 30
0.0
 10
221.5197192339514
 20
295.0647487426554
 30
0.0
 10
221.5197192339514
 20
294.646873498342
 30
0.0
 10
221.5197192339514
 20
294.3735165754446
 30
0.0
 10
221.5197192339514
 20
294.2364568200393
 30
0.0
  0
LWPOLYLINE
  5
25D
330
1F
100
AcDbEntity
  8
0
  6
Continuous
 62
     7
 48
10.0
370
    15
100
AcDbPolyline
 90
        9
 70
   128
 43
0.0
 10
222.519719234
 20
293.9525732811
 10
222.3246289119
 20
293.9580280237
 10
222.1370358016
 20
293.9741826288
 10
221.9641490009
 20
294.000416284
 10
221.8126124528
 20
294.0357208446
 10
221.6882496216
 20
294.0787395762
 10
221.5958397014
 20
294.127819293
 10
221.5389339535
 20
294.181073889
 10
221.519719234
 20
294.23645682
  0
LINE
  5
25E
330
1F
100
AcDbEntity
  8
0
  6
Continuous
 62
     7
 48
10.0
370
    15
100
AcDbLine
 10
222.519719234
 20
293.9525732811
 30
0.0
 11
222.519719234
 21
301.2182034818
 31
0.0
  0
ARC
  5
25F
330
1F
100
AcDbEntity
  8
0
  6
Continuous
 62
     7
 48
100.0
370
    15
100
AcDbCircle
 10
222.394719234
 20
300.3343200053
 30
0.0
 40
0.8926785535679939
100
AcDbArc
 50
81.9505330245
 51
168.5782463411
  0
LINE
  5
260
330
1F
100
AcDbEntity
  8
0
  6
Continuous
 62
     7
 48
10.0
370
    15
100
AcDbLine
 10
226.519719234
 20
293.9525732811
 30
0.0
 11
222.519719234
 21
293.9525732811
 31
0.0
  0
LINE
  5
261
330
1F
100
AcDbEntity
  8
0
  6
Continuous
 62
     7
 48
10.0
370
    15
100
AcDbLine
 10
226.519719234
 20
293.9525732811
 30
0.0
 11
226.519719234
 21
301.2182034818
 31
0.0
  0
LINE
  5
262
330
1F
100
AcDbEntity
  8
0
  6
Continuous
 62
     7
 48
10.0
370
    15
100
AcDbLine
 10
226.519719234
 20
301.2182034818
 30
0.0
 11
222.519719234
 21
301.2182034818
 31
0.0
  0
LINE
  5
263
330
1F
100
AcDbEntity
  8
0
  6
Continuous
 62
     7
 48
10.0
370
    15
100
AcDbLine
 10
226.519719234
 20
301.2182034818
 30
0.0
 11
226.519719234
 21
307.770802268
 31
0.0
  0
LINE
  5
264
330
1F
100
AcDbEntity
  8
0
  6
Continuous
 62
     7
 48
10.0
370
    15
100
AcDbLine
 10
226.519719234
 20
266.2836174957
 30
0.0
 11
226.519719234
 21
293.9525732811
 31
0.0
  0
LINE
  5
265
330
1F
100
AcDbEntity
  8
0
  6
Continuous
 62
     7
 48
10.0
370
    15
100
AcDbLine
 10
226.519719234
 20
261.270802268
 30
0.0
 11
226.519719234
 21
266.2836174957
 31
0.0
  0
LINE
  5
266
330
1F
100
AcDbEntity
  8
0
  6
Continuous
 62
     7
 48
10.0
370
    15
100
AcDbLine
 10
221.519719234
 20
294.23645682
 30
0.0
 11
221.519719234
 21
266.5675010346
 31
0.0
  0
LWPOLYLINE
  5
267
330
1F
100
AcDbEntity
  8
0
  6
Continuous
 62
     7
 48
10.0
370
    15
100
AcDbPolyline
 90
        9
 70
   128
 43
0.0
 10
222.519719234
 20
266.2836174957
 10
222.3246289119
 20
266.2890722383
 10
222.1370358016
 20
266.3052268434
 10
221.9641490009
 20
266.3314604986
 10
221.8126124528
 20
266.3667650592
 10
221.6882496216
 20
266.4097837907
 10
221.5958397014
 20
266.4588635075
 10
221.5389339535
 20
266.5121181036
 10
221.519719234
 20
266.5675010346
  0
LINE
  5
268
330
1F
100
AcDbEntity
  8
0
  6
Continuous
 62
     7
 48
10.0
370
    15
100
AcDbLine
 10
222.519719234
 20
266.2836174957
 30
0.0
 11
222.519719234
 21
293.9525732811
 31
0.0
  0
LINE
  5
269
330
1F
100
AcDbEntity
  8
0
  6
Continuous
 62
     7
 48
10.0
370
    15
100
AcDbLine
 10
226.519719234
 20
266.2836174957
 30
0.0
 11
222.519719234
 21
266.2836174957
 31
0.0
  0
LINE
  5
26A
330
1F
100
AcDbEntity
  8
0
  6
Continuous
 62
     7
 48
10.0
370
    15
100
AcDbLine
 10
221.519719234
 20
247.0091310019
 30
0.0
 11
221.519719234
 21
235.7191544783
 31
0.0
  0
SPLINE
  5
26B
330
1F
100
AcDbEntity
  8
0
  6
Continuous
 62
     7
 48
10.0
370
    15
100
AcDbSpline
210
0.0
220
0.0
230
1.0
 70
    24
 71
     3
 72
    13
 73
     9
 74
     0
 42
0.00000001
 43
0.00000001
 40
0.0
 40
0.0
 40
0.0
 40
0.0
 40
0.1669806358607413
 40
0.3335846378646766
 40
0.500000002959569
 40
0.6664153673952775
 40
0.833019367423953
 40
1.0
 40
1.0
 40
1.0
 40
1.0
 10
221.5197192339514
 20
248.8079368417777
 30
0.0
 10
221.5197192339514
 20
248.7069010731516
 30
0.0
 10
221.5197192339514
 20
248.505057427541
 30
0.0
 10
221.5197192339514
 20
248.2031851128414
 30
0.0
 10
221.5197192339514
 20
247.9025614281442
 30
0.0
 10
221.5197192339514
 20
247.6032655515632
 30
0.0
 10
221.5197192339514
 20
247.3050865917018
 30
0.0
 10
221.5197192339514
 20
247.1078570922768
 30
0.0
 10
221.5197192339514
 20
247.0091310019306
 30
0.0
  0
LINE
  5
26C
330
1F
100
AcDbEntity
  8
0
  6
Continuous
 62
     7
 48
10.0
370
    15
100
AcDbLine
 10
221.519719234
 20
262.270802268
 30
0.0
 11
221.519719234
 21
248.8079368418
 31
0.0
  0
SPLINE
  5
26D
330
1F
100
AcDbEntity
  8
0
  6
Continuous
 62
     7
 48
10.0
370
    15
100
AcDbSpline
210
0.0
220
0.0
230
1.0
 70
    24
 71
     3
 72
    23
 73
    19
 74
     0
 42
0.00000001
 43
0.00000001
 40
0.0
 40
0.0
 40
0.0
 40
0.0
 40
0.0314786396385226
 40
0.0627963068664782
 40
0.0940028330747599
 40
0.1251485831163516
 40
0.1562842167793473
 40
0.1874604431676939
 40
0.218727773887099
 40
0.25013628100052
 40
0.3750478427252678
 40
0.5000244767096814
 40
0.6249291419018721
 40
0.7499126727250167
 40
0.8125497245761174
 40
0.8748399652828132
 40
0.9371886744704152
 40
1.0
 40
1.0
 40
1.0
 40
1.0
 10
221.5197192339514
 20
266.5675010345795
 30
0.0
 10
221.5197192339514
 20
266.4903630435871
 30
0.0
 10
221.5197192339514
 20
266.33648152237
 30
0.0
 10
221.5197192339514
 20
266.1099299163077
 30
0.0
 10
221.5197192339514
 20
265.887449715712
 30
0.0
 10
221.5197192339514
 20
265.6692859310547
 30
0.0
 10
221.5197192339514
 20
265.4553748193393
 30
0.0
 10
221.5197192339514
 20
265.2457381075043
 30
0.0
 10
221.5197192339514
 20
265.0403624133961
 30
0.0
 10
221.5197192339514
 20
264.6402676467708
 30
0.0
 10
221.5197192339514
 20
264.0798601283503
 30
0.0
 10
221.5197192339514
 20
263.4434099222775
 30
0.0
 10
221.5197192339514
 20
262.9282120916956
 30
0.0
 10
221.5197192339514
 20
262.6152570293925
 30
0.0
 10
221.5197192339514
 20
262.4369231945527
 30
0.0
 10
221.5197192339514
 20
262.3415569056363
 30
0.0
 10
221.5197192339514
 20
262.2819061341748
 30
0.0
 10
221.5197192339514
 20
262.2745126659921
 30
0.0
 10
221.5197192339514
 20
262.2708022680375
 30
0.0
  0
LINE
  5
26E
330
1F
100
AcDbEntity
  8
0
  6
Continuous
 62
     7
 48
10.0
370
    15
100
AcDbLine
 10
221.519719234
 20
306.770802268
 30
0.0
 11
221.519719234
 21
300.5110967006
 31
0.0
  0
LINE
  5
26F
330
1F
100
AcDbEntity
  8
0
  6
Continuous
 62
     7
 48
10.0
370
    15
100
AcDbLine
 10
222.519719234
 20
301.2182034818
 30
0.0
 11
222.519719234
 21
307.770802268
 31
0.0
  0
ARC
  5
270
330
1F
100
AcDbEntity
  8
0
  6
Continuous
 62
     7
 48
100.0
370
    15
100
AcDbCircle
 10
222.519719234
 20
306.770802268
 30
0.0
 40
1.0
100
AcDbArc
 50
90.0
 51
180.0
  0
LINE
  5
271
330
1F
100
AcDbEntity
  8
0
  6
Continuous
 62
     7
 48
10.0
370
    15
100
AcDbLine
 10
226.519719234
 20
307.770802268
 30
0.0
 11
222.519719234
 21
307.770802268
 31
0.0
  0
ARC
  5
272
330
1F
100
AcDbEntity
  8
0
  6
Continuous
 62
     7
 48
100.0
370
    15
100
AcDbCircle
 10
222.519719234
 20
262.270802268
 30
0.0
 40
1.0
100
AcDbArc
 50
180.0
 51
270.0
  0
LINE
  5
273
330
1F
100
AcDbEntity
  8
0
  6
Continuous
 62
     7
 48
10.0
370
    15
100
AcDbLine
 10
222.519719234
 20
261.270802268
 30
0.0
 11
222.519719234
 21
266.2836174957
 31
0.0
  0
LINE
  5
274
330
1F
100
AcDbEntity
  8
0
  6
Continuous
 62
     7
 48
10.0
370
    15
100
AcDbLine
 10
226.519719234
 20
261.270802268
 30
0.0
 11
222.519719234
 21
261.270802268
 31
0.0
  0
LINE
  5
275
330
1F
100
AcDbEntity
  8
0
  6
Continuous
 62
     7
 48
10.0
370
    15
100
AcDbLine
 10
226.519719234
 20
307.770802268
 30
0.0
 11
237.619719234
 21
307.770802268
 31
0.0
  0
LINE
  5
276
330
1F
100
AcDbEntity
  8
0
  6
Continuous
 62
     7
 48
10.0
370
    15
100
AcDbLine
 10
226.519719234
 20
304.820802268
 30
0.0
 11
233.759719234
 21
304.820802268
 31
0.0
  0
LINE
  5
277
330
1F
100
AcDbEntity
  8
0
  6
Continuous
 62
     7
 48
10.0
370
    15
100
AcDbLine
 10
233.759719234
 20
304.820802268
 30
0.0
 11
234.4148656556
 21
303.020802268
 31
0.0
  0
LINE
  5
278
330
1F
100
AcDbEntity
  8
0
  6
Continuous
 62
     7
 48
10.0
370
    15
100
AcDbLine
 10
234.4148656556
 20
303.020802268
 30
0.0
 11
237.5413176924
 21
304.7767681893
 31
0.0
  0
LINE
  5
279
330
1F
100
AcDbEntity
  8
0
  6
Continuous
 62
     7
 48
10.0
370
    15
100
AcDbLine
 10
237.619719234
 20
307.770802268
 30
0.0
 11
237.5413176924
 21
304.7767681893
 31
0.0
  0
SPLINE
  5
27A
330
1F
100
AcDbEntity
  8
0
  6
Continuous
 62
     7
 48
10.0
370
    15
100
AcDbSpline
210
0.0
220
0.0
230
1.0
 70
     8
 71
     3
 72
    17
 73
    13
 74
     0
 42
0.00000001
 43
0.00000001
 40
0.0
 40
0.0
 40
0.0
 40
0.0
 40
0.0283549059238845
 40
0.1099193818848166
 40
0.2500088383361478
 40
0.3863094796268643
 40
0.4999382309901195
 40
0.6292189829226168
 40
0.7498638855200707
 40
0.8345167863275372
 40
0.9181101793809424
 40
1.0
 40
1.0
 40
1.0
 40
1.0
 10
362.4597192339515
 20
327.4208022680435
 30
0.0
 10
362.4598405196454
 20
327.4205270424143
 30
0.0
 10
362.4603106904355
 20
327.419460114838
 30
0.0
 10
362.4603100325463
 20
327.3997302937083
 30
0.0
 10
362.4595951389616
 20
327.3289431025621
 30
0.0
 10
362.4595400482521
 20
327.1948305967362
 30
0.0
 10
362.4597934947673
 20
327.0195116170086
 30
0.0
 10
362.459598570587
 20
326.8138493950916
 30
0.0
 10
362.4597613641936
 20
326.5958039981251
 30
0.0
 10
362.4596595660807
 20
326.3925183427526
 30
0.0
 10
362.4596557065044
 20
326.2087489251638
 30
0.0
 10
362.4596982039661
 20
326.0837668800378
 30
0.0
 10
362.4597192339513
 20
326.0219191733802
 30
0.0
  0
SPLINE
  5
27B
330
1F
100
AcDbEntity
  8
0
  6
Continuous
 62
     7
 48
10.0
370
    15
100
AcDbSpline
210
0.0
220
0.0
230
1.0
 70
    24
 71
     3
 72
    15
 73
    11
 74
     0
 42
0.00000001
 43
0.00000001
 40
0.0
 40
0.0
 40
0.0
 40
0.0
 40
0.1308148185770766
 40
0.2616338347395578
 40
0.3961565508028589
 40
0.5306900246875016
 40
0.6561466327159785
 40
0.7816138909394942
 40
0.9093967345656087
 40
1.0
 40
1.0
 40
1.0
 40
1.0
 10
362.4597192339514
 20
327.2642896279083
 30
0.0
 10
362.4597192339514
 20
327.9560198157899
 30
0.0
 10
362.4597192339514
 20
329.3395023877887
 30
0.0
 10
362.4597192339514
 20
331.3930464180436
 30
0.0
 10
362.4597192339514
 20
333.416808991868
 30
0.0
 10
362.4597192339514
 20
335.3506230874141
 30
0.0
 10
362.4597192339514
 20
337.1722199656758
 30
0.0
 10
362.4597192339514
 20
338.8889124174699
 30
0.0
 10
362.4597192339514
 20
340.3889253629311
 30
0.0
 10
362.4597192339513
 20
341.2835824256451
 30
0.0
 10
362.4597192339514
 20
341.6547546200422
 30
0.0
  0
SPLINE
  5
27C
330
1F
100
AcDbEntity
  8
0
  6
Continuous
 62
     7
 48
10.0
370
    15
100
AcDbSpline
210
0.0
220
0.0
230
1.0
 70
    24
 71
     3
 72
    11
 73
     7
 74
     0
 42
0.00000001
 43
0.00000001
 40
0.0
 40
0.0
 40
0.0
 40
0.0
 40
0.2505638559688571
 40
0.4997432167499141
 40
0.7490515525395434
 40
1.0
 40
1.0
 40
1.0
 40
1.0
 10
362.4597192339514
 20
342.1433497861563
 30
0.0
 10
362.4597192339514
 20
342.1651124632035
 30
0.0
 10
362.4597192339514
 20
342.2085175672264
 30
0.0
 10
362.4597192339514
 20
342.2786827032679
 30
0.0
 10
362.4597192339514
 20
342.3519253097097
 30
0.0
 10
362.4597192339514
 20
342.4033535973444
 30
0.0
 10
362.4597192339514
 20
342.4291520460005
 30
0.0
  0
LINE
  5
27D
330
1F
100
AcDbEntity
  8
0
  6
Continuous
 62
     7
 48
10.0
370
    15
100
AcDbLine
 10
362.459719234
 20
342.4325063488
 30
0.0
 11
362.459719234
 21
342.9336726067
 31
0.0
  0
SPLINE
  5
27E
330
1F
100
AcDbEntity
  8
0
  6
Continuous
 62
     7
 48
10.0
370
    15
100
AcDbSpline
210
0.0
220
0.0
230
1.0
 70
     8
 71
     3
 72
    22
 73
    18
 74
     0
 42
0.00000001
 43
0.00000001
 40
0.0
 40
0.0
 40
0.0
 40
0.0
 40
0.0345298776299572
 40
0.0694615157604303
 40
0.1047905754926211
 40
0.1405137972244452
 40
0.1766290898737161
 40
0.2131356228418493
 40
0.2500339205070401
 40
0.3755357960911617
 40
0.5000164343720584
 40
0.6292596036909133
 40
0.74998714247651
 40
0.8179178183407062
 40
0.8821674680016311
 40
0.9428391140205583
 40
1.0
 40
1.0
 40
1.0
 40
1.0
 10
366.1025389562736
 20
341.5840619487034
 30
0.0
 10
366.0936199858864
 20
341.4281135720366
 30
0.0
 10
366.0756782715033
 20
341.1144023350686
 30
0.0
 10
366.0487149364673
 20
340.6342565703633
 30
0.0
 10
366.0215537203729
 20
340.1434220132464
 30
0.0
 10
365.9942199811877
 20
339.6412280695288
 30
0.0
 10
365.9667234063671
 20
339.1276312759873
 30
0.0
 10
365.9390595824665
 20
338.6024045729369
 30
0.0
 10
365.8890500132092
 20
337.6374854280167
 30
0.0
 10
365.8172035974005
 20
336.2102106202628
 30
0.0
 10
365.7240794571414
 20
334.2554034643996
 30
0.0
 10
365.6330162250242
 20
332.2628655472992
 30
0.0
 10
365.5581042044077
 20
330.5269737598953
 30
0.0
 10
365.4999725004392
 20
329.1252888661609
 30
0.0
 10
365.4568390978893
 20
328.046891609403
 30
0.0
 10
365.4171574296955
 20
327.0221322102791
 30
0.0
 10
365.3925307333131
 20
326.3550119586561
 30
0.0
 10
365.380584255035
 20
326.0313900862336
 30
0.0
  0
SPLINE
  5
27F
330
1F
100
AcDbEntity
  8
0
  6
Continuous
 62
     7
 48
10.0
370
    15
100
AcDbSpline
210
0.0
220
0.0
230
1.0
 70
     8
 71
     3
 72
     9
 73
     5
 74
     0
 42
0.00000001
 43
0.00000001
 40
0.0
 40
0.0
 40
0.0
 40
0.0
 40
0.3642408277312246
 40
1.0
 40
1.0
 40
1.0
 40
1.0
 10
362.6998224963448
 20
342.1044708265934
 30
0.0
 10
363.1131168669513
 20
342.0415465977813
 30
0.0
 10
364.2477902454978
 20
341.8687921341918
 30
0.0
 10
365.3816666389301
 20
341.6947260550797
 30
0.0
 10
366.1025389562736
 20
341.5840619487034
 30
0.0
  0
SPLINE
  5
280
330
1F
100
AcDbEntity
  8
0
  6
Continuous
 62
     7
 48
10.0
370
    15
100
AcDbSpline
210
0.0
220
0.0
230
1.0
 70
     8
 71
     3
 72
     9
 73
     5
 74
     0
 42
0.00000001
 43
0.00000001
 40
0.0
 40
0.0
 40
0.0
 40
0.0
 40
0.489446007404331
 40
1.0
 40
1.0
 40
1.0
 40
1.0
 10
362.4597191071427
 20
326.0314046115589
 30
0.0
 10
362.4597161124972
 20
326.2004675390563
 30
0.0
 10
362.4597099940582
 20
326.5458844490726
 30
0.0
 10
362.4597246585893
 20
326.8903217663182
 30
0.0
 10
362.4597321456243
 20
327.0661756138369
 30
0.0
  0
SPLINE
  5
281
330
1F
100
AcDbEntity
  8
0
  6
Continuous
 62
     7
 48
10.0
370
    15
100
AcDbSpline
210
0.0
220
0.0
230
1.0
 70
    24
 71
     3
 72
     8
 73
     4
 74
     0
 42
0.00000001
 43
0.00000001
 40
0.0
 40
0.0
 40
0.0
 40
0.0
 40
1.0
 40
1.0
 40
1.0
 40
1.0
 10
365.3805842410378
 20
326.0313900682028
 30
0.0
 10
364.4056909475461
 20
326.0313900682028
 30
0.0
 10
363.4319265369969
 20
326.0313900682028
 30
0.0
 10
362.4610982222567
 20
326.0313900682028
 30
0.0
  0
SPLINE
  5
282
330
1F
100
AcDbEntity
  8
0
  6
Continuous
 62
     7
 48
10.0
370
    15
100
AcDbSpline
210
0.0
220
0.0
230
1.0
 70
     8
 71
     3
 72
    15
 73
    11
 74
     0
 42
0.00000001
 43
0.00000001
 40
0.0
 40
0.0
 40
0.0
 40
0.0
 40
0.1407786819031256
 40
0.2765192105058
 40
0.4073661084149457
 40
0.5335572859884755
 40
0.6554284730596114
 40
0.7734164445298726
 40
0.8880603324207866
 40
0.9999999999999999
 40
0.9999999999999999
 40
0.9999999999999999
 40
0.9999999999999999
 10
366.2532232521035
 20
342.1843962814739
 30
0.0
 10
366.2482699167657
 20
342.1539579574371
 30
0.0
 10
366.2385405148526
 20
342.0941706287166
 30
0.0
 10
366.2216988614651
 20
342.0069431285241
 30
0.0
 10
366.2037301445504
 20
341.9242873332381
 30
0.0
 10
366.1846874764911
 20
341.8464982075053
 30
0.0
 10
366.1648579593443
 20
341.7736480619861
 30
0.0
 10
366.1444515267543
 20
341.705773442617
 30
0.0
 10
366.1237227330413
 20
341.6423924724684
 30
0.0
 10
366.1095439702476
 20
341.6033491041379
 30
0.0
 10
366.1025391989149
 20
341.5840604065843
 30
0.0
  0
LINE
  5
283
330
1F
100
AcDbEntity
  8
0
  6
Continuous
 62
     7
 48
10.0
370
    15
100
AcDbLine
 10
366.253223675
 20
342.1843993177
 30
0.0
 11
362.8780181637
 21
342.7422129256
 31
0.0
  0
SPLINE
  5
284
330
1F
100
AcDbEntity
  8
0
  6
Continuous
 62
     7
 48
10.0
370
    15
100
AcDbSpline
210
0.0
220
0.0
230
1.0
 70
     8
 71
     3
 72
     8
 73
     4
 74
     0
 42
0.00000001
 43
0.00000001
 40
0.0
 40
0.0
 40
0.0
 40
0.0
 40
1.0
 40
1.0
 40
1.0
 40
1.0
 10
362.8780182301903
 20
342.7422128398786
 30
0.0
 10
362.7873123123099
 20
342.6661695060948
 30
0.0
 10
362.6929142084601
 20
342.58808249041
 30
0.0
 10
362.5955152088181
 20
342.5130879716102
 30
0.0
  0
SPLINE
  5
285
330
1F
100
AcDbEntity
  8
0
  6
Continuous
 62
     7
 48
10.0
370
    15
100
AcDbSpline
210
0.0
220
0.0
230
1.0
 70
     8
 71
     3
 72
     9
 73
     5
 74
     0
 42
0.00000001
 43
0.00000001
 40
0.0
 40
0.0
 40
0.0
 40
0.0
 40
0.4992828180334995
 40
1.0
 40
1.0
 40
1.0
 40
1.0
 10
362.5955152088621
 20
342.5130879715539
 30
0.0
 10
362.574692603756
 20
342.4978928781954
 30
0.0
 10
362.5329875733521
 20
342.4674590382759
 30
0.0
 10
362.487178644913
 20
342.4436451924224
 30
0.0
 10
362.464241327356
 20
342.4317211906348
 30
0.0
  0
SPLINE
  5
286
330
1F
100
AcDbEntity
  8
0
  6
Continuous
 62
     7
 48
10.0
370
    15
100
AcDbSpline
210
0.0
220
0.0
230
1.0
 70
     8
 71
     3
 72
    17
 73
    13
 74
     0
 42
0.00000001
 43
0.00000001
 40
0.0
 40
0.0
 40
0.0
 40
0.0
 40
0.0795091922031838
 40
0.159635777237259
 40
0.2411353864485397
 40
0.3246950194022625
 40
0.4109056422337155
 40
0.5002408341353961
 40
0.6182587322482866
 40
0.750135395038588
 40
0.8541826436518494
 40
1.0
 40
1.0
 40
1.0
 40
1.0
 10
356.2496225979382
 20
342.3645787869896
 30
0.0
 10
356.2499715561994
 20
342.3652439099636
 30
0.0
 10
356.2506721823999
 20
342.3665793206245
 30
0.0
 10
356.2563546207385
 20
342.3774263496124
 30
0.0
 10
356.2655517706604
 20
342.3949266100044
 30
0.0
 10
356.2787915207932
 20
342.4199924437704
 30
0.0
 10
356.296168276342
 20
342.4527599864479
 30
0.0
 10
356.3198368054911
 20
342.4973722524275
 30
0.0
 10
356.3517892582539
 20
342.5581277302691
 30
0.0
 10
356.3902723845187
 20
342.6305456032368
 30
0.0
 10
356.4345639239047
 20
342.7150490216257
 30
0.0
 10
356.4652994506017
 20
342.7728914169593
 30
0.0
 10
356.4832362578162
 20
342.8066473992189
 30
0.0
  0
SPLINE
  5
287
330
1F
100
AcDbEntity
  8
0
  6
Continuous
 62
     7
 48
10.0
370
    15
100
AcDbSpline
210
0.0
220
0.0
230
1.0
 70
     8
 71
     3
 72
    16
 73
    12
 74
     0
 42
0.00000001
 43
0.00000001
 40
0.0
 40
0.0
 40
0.0
 40
0.0
 40
0.0782940404088466
 40
0.1461325226817414
 40
0.2034759479261054
 40
0.250377376287963
 40
0.3823053321750097
 40
0.5004598429730576
 40
0.6757022698382864
 40
0.8405391035961524
 40
0.9999999999999999
 40
0.9999999999999999
 40
0.9999999999999999
 40
0.9999999999999999
 10
356.4832362578162
 20
342.8066473992189
 30
0.0
 10
356.4627947299794
 20
342.8055487268668
 30
0.0
 10
356.4246414808345
 20
342.8034981012818
 30
0.0
 10
356.3722764975675
 20
342.8006622004599
 30
0.0
 10
356.3289855108538
 20
342.7984852393571
 30
0.0
 10
356.2711793560408
 20
342.7956008310874
 30
0.0
 10
356.2024993393235
 20
342.7918306785922
 30
0.0
 10
356.1165595824694
 20
342.7874927620717
 30
0.0
 10
356.043931613021
 20
342.7834821106774
 30
0.0
 10
355.993156300243
 20
342.7809243288891
 30
0.0
 10
355.9869655520196
 20
342.7806260756301
 30
0.0
 10
355.9839214904389
 20
342.7804794210975
 30
0.0
  0
ARC
  5
288
330
1F
100
AcDbEntity
  8
0
  6
Continuous
 62
     7
 48
100.0
370
    15
100
AcDbCircle
 10
356.4832362578
 20
342.8066473992
 30
0.0
 40
0.5000000000000263
100
AcDbArc
 50
183.0
 51
242.1455341401
  0
SPLINE
  5
289
330
1F
100
AcDbEntity
  8
0
  6
Continuous
 62
     7
 48
10.0
370
    15
100
AcDbSpline
210
0.0
220
0.0
230
1.0
 70
     8
 71
     3
 72
    16
 73
    12
 74
     0
 42
0.00000001
 43
0.00000001
 40
0.0
 40
0.0
 40
0.0
 40
0.0
 40
0.0922491709763996
 40
0.1845147228480001
 40
0.2813066926943011
 40
0.3858724147207293
 40
0.5001419818193924
 40
0.6157437884501564
 40
0.7500881295228717
 40
0.8534408877945312
 40
1.0
 40
1.0
 40
1.0
 40
1.0
 10
359.3761551599023
 20
341.3983735868218
 30
0.0
 10
359.375206290497
 20
341.3987361563351
 30
0.0
 10
359.3733083831936
 20
341.399461359744
 30
0.0
 10
359.357443835522
 20
341.404029725688
 30
0.0
 10
359.3309695041884
 20
341.4110352848641
 30
0.0
 10
359.2909326277279
 20
341.4219737357591
 30
0.0
 10
359.236715616483
 20
341.4372530021261
 30
0.0
 10
359.1657983281299
 20
341.4567187731097
 30
0.0
 10
359.0870898819189
 20
341.4789618760437
 30
0.0
 10
358.9944789065768
 20
341.5042170081396
 30
0.0
 10
358.9314325331593
 20
341.5219963192401
 30
0.0
 10
358.8944594174038
 20
341.5324228749917
 30
0.0
  0
SPLINE
  5
28A
330
1F
100
AcDbEntity
  8
0
  6
Continuous
 62
     7
 48
10.0
370
    15
100
AcDbSpline
210
0.0
220
0.0
230
1.0
 70
     8
 71
     3
 72
    16
 73
    12
 74
     0
 42
0.00000001
 43
0.00000001
 40
0.0
 40
0.0
 40
0.0
 40
0.0
 40
0.0788309701322751
 40
0.1468559790542709
 40
0.2040195494897548
 40
0.2503895551119723
 40
0.3847668629686693
 40
0.5004868719397373
 40
0.6851311428857129
 40
0.8466720525261701
 40
0.9999999999999999
 40
0.9999999999999999
 40
0.9999999999999999
 40
0.9999999999999999
 10
358.8944594174038
 20
341.5324228749917
 30
0.0
 10
358.8848657496413
 20
341.5141805915583
 30
0.0
 10
358.8669934911924
 20
341.4801966333587
 30
0.0
 10
358.8425525967199
 20
341.4336515289099
 30
0.0
 10
358.8222470046862
 20
341.3955207762304
 30
0.0
 10
358.7948130132238
 20
341.3440886185174
 30
0.0
 10
358.7630121156038
 20
341.2832851682571
 30
0.0
 10
358.721751335244
 20
341.2058117946696
 30
0.0
 10
358.6879812959155
 20
341.1414148718457
 30
0.0
 10
358.6643529938063
 20
341.0982436544152
 30
0.0
 10
358.6619943286714
 20
341.0929379288982
 30
0.0
 10
358.6608457575258
 20
341.0903542627623
 30
0.0
  0
ARC
  5
28B
330
1F
100
AcDbEntity
  8
0
  6
Continuous
 62
     7
 48
100.0
370
    15
100
AcDbCircle
 10
358.8944594174
 20
341.532422875
 30
0.0
 40
0.5000000000000474
100
AcDbArc
 50
242.1455341401
 51
344.4488476594
  0
SPLINE
  5
28C
330
1F
100
AcDbEntity
  8
0
  6
Continuous
 62
     7
 48
10.0
370
    15
100
AcDbSpline
210
0.0
220
0.0
230
1.0
 70
     8
 71
     3
 72
    17
 73
    13
 74
     0
 42
0.00000001
 43
0.00000001
 40
0.0
 40
0.0
 40
0.0
 40
0.0
 40
0.0629873453772086
 40
0.1253743504957491
 40
0.1876130065882037
 40
0.250158521145862
 40
0.374905053894272
 40
0.5001096695381008
 40
0.6249096754157946
 40
0.7500608173533978
 40
0.8745318319387679
 40
1.0
 40
1.0
 40
1.0
 40
1.0
 10
360.1567493421247
 20
343.0910595343689
 30
0.0
 10
360.128071635295
 20
343.0922739076429
 30
0.0
 10
360.0709895524427
 20
343.0946910798475
 30
0.0
 10
359.9855681765847
 20
343.0891898890364
 30
0.0
 10
359.9011246998392
 20
343.0769077455248
 30
0.0
 10
359.790391980421
 20
343.0508347212846
 30
0.0
 10
359.6563318135679
 20
343.0008089000687
 30
0.0
 10
359.5085616823702
 20
342.9138314228734
 30
0.0
 10
359.3770270247284
 20
342.8033830002062
 30
0.0
 10
359.2674106501718
 20
342.6718916438551
 30
0.0
 10
359.1792096476491
 20
342.5241477144643
 30
0.0
 10
359.1432350830348
 20
342.4158500580652
 30
0.0
 10
359.1251760389459
 20
342.3614851985428
 30
0.0
  0
LINE
  5
28D
330
1F
100
AcDbEntity
  8
0
  6
Continuous
 62
     7
 48
10.0
370
    15
100
AcDbLine
 10
362.459719234
 20
342.9336726067
 30
0.0
 11
360.1567493421
 21
343.0910595344
 31
0.0
  0
LINE
  5
28E
330
1F
100
AcDbEntity
  8
0
  6
Continuous
 62
     7
 48
10.0
370
    15
100
AcDbLine
 10
362.7309155877
 20
345.3207368544
 30
0.0
 11
362.5955152089
 21
342.5130879716
 31
0.0
  0
LINE
  5
28F
330
1F
100
AcDbEntity
  8
0
  6
Continuous
 62
     7
 48
10.0
370
    15
100
AcDbLine
 10
356.3285477408
 20
345.7582801365
 30
0.0
 11
362.7309155877
 21
345.3207368544
 31
0.0
  0
LINE
  5
290
330
1F
100
AcDbEntity
  8
0
  6
Continuous
 62
     7
 48
10.0
370
    15
100
AcDbLine
 10
356.4832362578
 20
342.8066473992
 30
0.0
 11
356.3285477408
 21
345.7582801365
 31
0.0
  0
LINE
  5
291
330
1F
100
AcDbEntity
  8
0
  6
Continuous
 62
     7
 48
10.0
370
    15
100
AcDbLine
 10
358.8944594174
 20
341.532422875
 30
0.0
 11
356.4832362578
 21
342.8066473992
 31
0.0
  0
LINE
  5
292
330
1F
100
AcDbEntity
  8
0
  6
Continuous
 62
     7
 48
10.0
370
    15
100
AcDbLine
 10
359.1251760389
 20
342.3614851985
 30
0.0
 11
358.8944594174
 21
341.532422875
 31
0.0
  0
LINE
  5
293
330
1F
100
AcDbEntity
  8
0
  6
Continuous
 62
     7
 48
10.0
370
    15
100
AcDbLine
 10
362.459719234
 20
342.4325063488
 30
0.0
 11
360.122658433
 21
342.5922230783
 31
0.0
  0
LINE
  5
294
330
1F
100
AcDbEntity
  8
0
  6
Continuous
 62
     7
 48
10.0
370
    15
100
AcDbLine
 10
360.122658433
 20
342.5922230783
 30
0.0
 11
360.1567493421
 21
343.0910595344
 31
0.0
  0
SPLINE
  5
295
330
1F
100
AcDbEntity
  8
0
  6
Continuous
 62
     7
 48
10.0
370
    15
100
AcDbSpline
210
0.0
220
0.0
230
1.0
 70
    24
 71
     3
 72
    16
 73
    12
 74
     0
 42
0.00000001
 43
0.00000001
 40
0.0
 40
0.0
 40
0.0
 40
0.0
 40
0.1030760995367468
 40
0.2021339768887641
 40
0.2996442838808842
 40
0.3981941342529366
 40
0.5002916473540986
 40
0.6237330136723386
 40
0.7501665398828233
 40
0.8726446598704738
 40
1.0
 40
1.0
 40
1.0
 40
1.0
 10
355.8260618682343
 20
345.7926204498557
 30
0.0
 10
355.8274008791754
 20
345.7925289407053
 30
0.0
 10
355.8300267023083
 20
345.7923494897117
 30
0.0
 10
355.8487636727563
 20
345.7910689891621
 30
0.0
 10
355.8785411984777
 20
345.7890339676436
 30
0.0
 10
355.9203338067328
 20
345.7861778251317
 30
0.0
 10
355.976079431881
 20
345.7823681215386
 30
0.0
 10
356.0478792675212
 20
345.7774612595005
 30
0.0
 10
356.1347094631937
 20
345.7715272098317
 30
0.0
 10
356.2296128235679
 20
345.7650414331979
 30
0.0
 10
356.2951430107871
 20
345.7605630442832
 30
0.0
 10
356.3285477407946
 20
345.7582801365285
 30
0.0
  0
SPLINE
  5
296
330
1F
100
AcDbEntity
  8
0
  6
Continuous
 62
     7
 48
10.0
370
    15
100
AcDbSpline
210
0.0
220
0.0
230
1.0
 70
    24
 71
     3
 72
    10
 73
     6
 74
     0
 42
0.00000001
 43
0.00000001
 40
0.0
 40
0.0
 40
0.0
 40
0.0
 40
0.3337911524387621
 40
0.6662107035033051
 40
1.0
 40
1.0
 40
1.0
 40
1.0
 10
362.7309155877088
 20
345.3207368544083
 30
0.0
 10
362.7613898538038
 20
345.3186542170582
 30
0.0
 10
362.8222131623475
 20
345.3144975002487
 30
0.0
 10
362.91289515952
 20
345.3083002151785
 30
0.0
 10
362.9719093686628
 20
345.3042671337658
 30
0.0
 10
363.0014771407288
 20
345.3022464469911
 30
0.0
  0
LINE
  5
297
330
1F
100
AcDbEntity
  8
0
  6
Continuous
 62
     7
 48
10.0
370
    15
100
AcDbLine
 10
363.0014771407
 20
345.302246447
 30
0.0
 11
366.3924073767
 21
345.070507381
 31
0.0
  0
LINE
  5
298
330
1F
100
AcDbEntity
  8
0
  6
Continuous
 62
     7
 48
10.0
370
    15
100
AcDbLine
 10
367.119719234
 20
345.020802268
 30
0.0
 11
366.3924073767
 21
345.070507381
 31
0.0
  0
LINE
  5
299
330
1F
100
AcDbEntity
  8
0
  6
Continuous
 62
     7
 48
10.0
370
    15
100
AcDbLine
 10
355.9839214904
 20
342.7804794211
 30
0.0
 11
355.8260618682
 21
345.7926204499
 31
0.0
  0
LINE
  5
29A
330
1F
100
AcDbEntity
  8
0
  6
Continuous
 62
     7
 48
10.0
370
    15
100
AcDbLine
 10
358.6608457575
 20
341.0903542628
 30
0.0
 11
356.2496225979
 21
342.364578787
 31
0.0
  0
LINE
  5
29B
330
1F
100
AcDbEntity
  8
0
  6
Continuous
 62
     7
 48
10.0
370
    15
100
AcDbLine
 10
359.6068717814
 20
342.2274359104
 30
0.0
 11
359.3761551599
 21
341.3983735868
 31
0.0
  0
LINE
  5
29C
330
1F
100
AcDbEntity
  8
0
  6
Continuous
 62
     7
 48
10.0
370
    15
100
AcDbLine
 10
359.6068717814
 20
342.2274359104
 30
0.0
 11
359.1251760389
 21
342.3614851985
 31
0.0
  0
LINE
  5
29D
330
1F
100
AcDbEntity
  8
0
  6
Continuous
 62
     7
 48
10.0
370
    15
100
AcDbLine
 10
363.0014771407
 20
345.302246447
 30
0.0
 11
362.8780181381
 21
342.7422127627
 31
0.0
  0
ARC
  5
29E
330
1F
100
AcDbEntity
  8
0
  6
Continuous
 62
     7
 48
100.0
370
    15
100
AcDbCircle
 10
360.0885675239
 20
342.0933866222
 30
0.0
 40
0.4999999999999513
100
AcDbArc
 50
86.090436479
 51
164.4488476591
  0
LINE
  5
29F
330
1F
100
AcDbEntity
  8
0
  6
Continuous
 62
     7
 48
10.0
370
    15
100
AcDbLine
 10
366.3924073767
 20
345.070507381
 30
0.0
 11
366.2532231185
 21
342.1843963494
 31
0.0
  0
ARC
  5
2A0
330
1F
100
AcDbEntity
  8
0
  6
Continuous
 62
     7
 48
100.0
370
    15
100
AcDbCircle
 10
366.2049320109
 20
342.3905060124
 30
0.0
 40
0.8129199241792217
100
AcDbArc
 50
262.763985482
 51
342.7386265051
  0
LINE
  5
2A1
330
1F
100
AcDbEntity
  8
0
  6
Continuous
 62
     7
 48
10.0
370
    15
100
AcDbLine
 10
366.2532231185
 20
342.1843963494
 30
0.0
 11
366.9812388835
 21
342.1492873972
 31
0.0
  0
LINE
  5
2A2
330
1F
100
AcDbEntity
  8
0
  6
Continuous
 62
     7
 48
10.0
370
    15
100
AcDbLine
 10
367.119719234
 20
345.020802268
 30
0.0
 11
366.9812388747
 21
342.1492872153
 31
0.0
  0
SPLINE
  5
2A3
330
1F
100
AcDbEntity
  8
0
  6
Continuous
 62
     7
 48
10.0
370
    15
100
AcDbSpline
210
0.0
220
0.0
230
1.0
 70
    24
 71
     3
 72
     9
 73
     5
 74
     0
 42
0.00000001
 43
0.00000001
 40
0.0
 40
0.0
 40
0.0
 40
0.0
 40
0.5000001506731636
 40
1.0
 40
1.0
 40
1.0
 40
1.0
 10
365.4997192339514
 20
326.0313900682028
 30
0.0
 10
365.4800796817655
 20
326.0313900682028
 30
0.0
 10
365.4408005892299
 20
326.0313900682028
 30
0.0
 10
365.4006563224047
 20
326.0313900682028
 30
0.0
 10
365.3805841950408
 20
326.0313900682028
 30
0.0
  0
SPLINE
  5
2A4
330
1F
100
AcDbEntity
  8
0
  6
Continuous
 62
     7
 48
10.0
370
    15
100
AcDbSpline
210
0.0
220
0.0
230
1.0
 70
    24
 71
     3
 72
     9
 73
     5
 74
     0
 42
0.00000001
 43
0.00000001
 40
0.0
 40
0.0
 40
0.0
 40
0.0
 40
0.4983135467092656
 40
1.0
 40
1.0
 40
1.0
 40
1.0
 10
365.4997192339514
 20
326.0314115414913
 30
0.0
 10
365.4997192339514
 20
325.9060685334014
 30
0.0
 10
365.4997192339514
 20
325.6545341151268
 30
0.0
 10
365.4997192339514
 20
325.4025144218014
 30
0.0
 10
365.4997192339514
 20
325.2760795556976
 30
0.0
  0
SPLINE
  5
2A5
330
1F
100
AcDbEntity
  8
0
  6
Continuous
 62
     7
 48
10.0
370
    15
100
AcDbSpline
210
0.0
220
0.0
230
1.0
 70
     8
 71
     3
 72
     8
 73
     4
 74
     0
 42
0.00000001
 43
0.00000001
 40
0.0
 40
0.0
 40
0.0
 40
0.0
 40
1.0
 40
1.0
 40
1.0
 40
1.0
 10
365.3267106231646
 20
324.4955095973551
 30
0.0
 10
365.3847654566008
 20
324.7556125261033
 30
0.0
 10
365.442435081288
 20
325.0158008111908
 30
0.0
 10
365.4997192339514
 20
325.2760733144623
 30
0.0
  0
SPLINE
  5
2A6
330
1F
100
AcDbEntity
  8
0
  6
Continuous
 62
     7
 48
10.0
370
    15
100
AcDbSpline
210
0.0
220
0.0
230
1.0
 70
     8
 71
     3
 72
     8
 73
     4
 74
     0
 42
0.00000001
 43
0.00000001
 40
0.0
 40
0.0
 40
0.0
 40
0.0
 40
1.0
 40
1.0
 40
1.0
 40
1.0
 10
365.352820628725
 20
324.2849010541487
 30
0.0
 10
365.344145210576
 20
324.355115794848
 30
0.0
 10
365.335441870359
 20
324.425318649903
 30
0.0
 10
365.3267106231646
 20
324.4955095973551
 30
0.0
  0
SPLINE
  5
2A7
330
1F
100
AcDbEntity
  8
0
  6
Continuous
 62
     7
 48
10.0
370
    15
100
AcDbSpline
210
0.0
220
0.0
230
1.0
 70
    24
 71
     3
 72
    10
 73
     6
 74
     0
 42
0.00000001
 43
0.00000001
 40
0.0
 40
0.0
 40
0.0
 40
0.0
 40
0.5
 40
0.5
 40
1.0
 40
1.0
 40
1.0
 40
1.0
 10
365.3527201718476
 20
324.2849010337048
 30
0.0
 10
365.5712503405515
 20
324.2849010337048
 30
0.0
 10
365.7658789805412
 20
324.2849010337048
 30
0.0
 10
366.0439729152758
 20
324.2849010337048
 30
0.0
 10
366.119719809825
 20
324.2849010337048
 30
0.0
 10
366.119719208859
 20
324.2849010337048
 30
0.0
  0
SPLINE
  5
2A8
330
1F
100
AcDbEntity
  8
0
  6
Continuous
 62
     7
 48
10.0
370
    15
100
AcDbSpline
210
0.0
220
0.0
230
1.0
 70
     8
 71
     3
 72
    22
 73
    18
 74
     0
 42
0.00000001
 43
0.00000001
 40
0.0
 40
0.0
 40
0.0
 40
0.0
 40
0.0289095193178583
 40
0.0600878380513762
 40
0.0935347402638583
 40
0.1292505500914643
 40
0.1672369695341382
 40
0.2074969343047139
 40
0.2500305783008378
 40
0.3695143071589908
 40
0.4999932088332621
 40
0.6383395228937481
 40
0.7499656972722557
 40
0.8154189749356728
 40
0.8789208554641459
 40
0.9404547186177994
 40
1.0
 40
1.0
 40
1.0
 40
1.0
 10
366.1197192089606
 20
324.2849010358107
 30
0.0
 10
366.1287568792119
 20
324.4721667433578
 30
0.0
 10
366.1475414899293
 20
324.8613946438271
 30
0.0
 10
366.1767410901462
 20
325.4663721178158
 30
0.0
 10
366.2080102678581
 20
326.1142810214513
 30
0.0
 10
366.2413187925647
 20
326.8045038089043
 30
0.0
 10
366.2766349929781
 20
327.5363260485707
 30
0.0
 10
366.3139202055686
 20
328.3087826415535
 30
0.0
 10
366.3760502747647
 20
329.5959922263682
 30
0.0
 10
366.4648605480284
 20
331.4366221688371
 30
0.0
 10
366.579779606225
 20
333.8204050633871
 30
0.0
 10
366.6886344070382
 20
336.0763349330913
 30
0.0
 10
366.7754588358155
 20
337.876290565235
 30
0.0
 10
366.8396826814987
 20
339.2088267148474
 30
0.0
 10
366.8893540760028
 20
340.2401396985891
 30
0.0
 10
366.9364572875592
 20
341.2187038845514
 30
0.0
 10
366.9664762177339
 20
341.8425078922126
 30
0.0
 10
366.9812391701061
 20
342.1492872744582
 30
0.0
  0
LINE
  5
2A9
330
1F
100
AcDbEntity
  8
0
  6
Continuous
 62
     7
 48
10.0
370
    15
100
AcDbLine
 10
342.2850280053
 20
252.0168582911
 30
0.0
 11
335.0142781406
 21
255.9574520947
 31
0.0
  0
SPLINE
  5
2AA
330
1F
100
AcDbEntity
  8
0
  6
Continuous
 62
     7
 48
10.0
370
    15
100
AcDbSpline
210
0.0
220
0.0
230
1.0
 70
     8
 71
     3
 72
    28
 73
    24
 74
     0
 42
0.00000001
 43
0.00000001
 40
0.0
 40
0.0
 40
0.0
 40
0.0
 40
0.010396176414385
 40
0.0312298385838476
 40
0.0625013145455546
 40
0.0937451459103581
 40
0.1250025335629371
 40
0.1874732704846717
 40
0.2500000690849895
 40
0.3333964995252277
 40
0.4167211055569236
 40
0.4999980732320568
 40
0.5445942595079791
 40
0.6249972196352656
 40
0.6905379660152944
 40
0.7499952949692849
 40
0.8016397920411968
 40
0.847967149722291
 40
0.8889876376541459
 40
0.9246974329390366
 40
0.955099304566157
 40
0.9801986883655995
 40
1.0
 40
1.0
 40
1.0
 40
1.0
 10
364.9131797914839
 20
324.2849010355806
 30
0.0
 10
364.8728131220138
 20
324.0248850756184
 30
0.0
 10
364.7515527161231
 20
323.2438040189708
 30
0.0
 10
364.4917413237802
 20
321.6832354137898
 30
0.0
 10
364.1146959698034
 20
319.6072827443584
 30
0.0
 10
363.6503067262507
 20
317.2792264896702
 30
0.0
 10
362.9825073218549
 20
314.1866359639309
 30
0.0
 10
362.0656982097392
 20
310.3379160607997
 30
0.0
 10
360.7291752755567
 20
305.2335652069598
 30
0.0
 10
359.1491644986132
 20
299.6483085936947
 30
0.0
 10
357.3476428998003
 20
293.5810202130916
 30
0.0
 10
355.8235433129088
 20
288.4568845201698
 30
0.0
 10
354.3241605558844
 20
283.4033393666727
 30
0.0
 10
352.9270805148134
 20
278.7880771765355
 30
0.0
 10
351.3448998533562
 20
273.8365871559753
 30
0.0
 10
349.9008628403315
 20
269.6056287657126
 30
0.0
 10
348.5283019263014
 20
265.8648298218926
 30
0.0
 10
347.2371196160494
 20
262.5919432516388
 30
0.0
 10
346.0223240588229
 20
259.7232429708553
 30
0.0
 10
344.9055513526943
 20
257.2514178205519
 30
0.0
 10
343.9073230551502
 20
255.1688684084544
 30
0.0
 10
343.0512213120571
 20
253.4650540294935
 30
0.0
 10
342.5195127079694
 20
252.460062099201
 30
0.0
 10
342.2850279707843
 20
252.0168583089367
 30
0.0
  0
LINE
  5
2AB
330
1F
100
AcDbEntity
  8
0
  6
Continuous
 62
     7
 48
10.0
370
    15
100
AcDbLine
 10
364.9131798409
 20
324.2849010337
 30
0.0
 11
365.3527210481
 21
324.2849010337
 31
0.0
  0
SPLINE
  5
2AC
330
1F
100
AcDbEntity
  8
0
  6
Continuous
 62
     7
 48
10.0
370
    15
100
AcDbSpline
210
0.0
220
0.0
230
1.0
 70
     8
 71
     3
 72
    25
 73
    21
 74
     0
 42
0.00000001
 43
0.00000001
 40
0.0
 40
0.0
 40
0.0
 40
0.0
 40
0.0168748732241626
 40
0.0436902796510614
 40
0.0804462655863603
 40
0.1271429490461277
 40
0.1837805359552426
 40
0.2503593078966222
 40
0.3151773290795837
 40
0.3785097756049172
 40
0.4403565011162338
 40
0.5007173613760423
 40
0.5919575896710063
 40
0.6749612186152208
 40
0.7497280129957168
 40
0.8162578210003941
 40
0.8745503072650875
 40
0.9246050522652276
 40
0.9664217038016178
 40
1.0
 40
1.0
 40
1.0
 40
1.0
 10
335.0142781470335
 20
255.9574520966894
 30
0.0
 10
335.2202473352376
 20
256.3342909467216
 30
0.0
 10
335.7535166115515
 20
257.3099542612001
 30
0.0
 10
336.7218233461953
 20
259.113813955679
 30
0.0
 10
338.0274765916878
 20
261.5978572219037
 30
0.0
 10
339.6478605730268
 20
264.773638901417
 30
0.0
 10
341.5559627341659
 20
268.6542012012905
 30
0.0
 10
343.5912950341632
 20
272.9853762409763
 30
0.0
 10
345.614145121308
 20
277.5096539618787
 30
0.0
 10
347.5062677516149
 20
281.9595272061637
 30
0.0
 10
349.275644693118
 20
286.3374756274628
 30
0.0
 10
351.2224476835137
 20
291.4088039040243
 30
0.0
 10
353.240683627708
 20
297.0284149542183
 30
0.0
 10
355.2330754156403
 20
303.0445481491686
 30
0.0
 10
356.9044815908806
 20
308.5028453545731
 30
0.0
 10
358.2925456233532
 20
313.3889657493947
 30
0.0
 10
359.4319835475435
 20
317.6911163353075
 30
0.0
 10
360.3519722419423
 20
321.4001941988441
 30
0.0
 10
361.0820372788478
 20
324.50813333965
 30
0.0
 10
361.4957710695812
 20
326.3816464316785
 30
0.0
 10
361.680033758129
 20
327.2160442186095
 30
0.0
  0
SPLINE
  5
2AD
330
1F
100
AcDbEntity
  8
0
  6
Continuous
 62
     7
 48
10.0
370
    15
100
AcDbSpline
210
0.0
220
0.0
230
1.0
 70
     8
 71
     3
 72
    12
 73
     8
 74
     0
 42
0.00000001
 43
0.00000001
 40
0.0
 40
0.0
 40
0.0
 40
0.0
 40
0.25
 40
0.25
 40
0.5
 40
0.5
 40
1.0
 40
1.0
 40
1.0
 40
1.0
 10
362.0705260724456
 20
327.4050054782752
 30
0.0
 10
361.869202811329
 20
327.3795510721878
 30
0.0
 10
361.6724487236281
 20
327.3235888571149
 30
0.0
 10
361.3011447831255
 20
327.153088045139
 30
0.0
 10
361.1308143172942
 20
327.0407957513311
 30
0.0
 10
360.6757237986629
 20
326.6287928001306
 30
0.0
 10
360.4598242079279
 20
326.2604773290752
 30
0.0
 10
360.3696589702625
 20
325.8575032934767
 30
0.0
  0
SPLINE
  5
2AE
330
1F
100
AcDbEntity
  8
0
  6
Continuous
 62
     7
 48
10.0
370
    15
100
AcDbSpline
210
0.0
220
0.0
230
1.0
 70
     8
 71
     3
 72
    10
 73
     6
 74
     0
 42
0.00000001
 43
0.00000001
 40
0.0
 40
0.0
 40
0.0
 40
0.0
 40
0.4999999999999999
 40
0.4999999999999999
 40
1.0
 40
1.0
 40
1.0
 40
1.0
 10
360.3696589702626
 20
325.8575032934767
 30
0.0
 10
357.6595147638949
 20
313.7450977077488
 30
0.0
 10
354.0976562284679
 20
301.8266907912588
 30
0.0
 10
345.33702718108
 20
278.600324581898
 30
0.0
 10
340.1403206007558
 20
267.2979053545716
 30
0.0
 10
334.175783861137
 20
256.4122663403598
 30
0.0
  0
ARC
  5
2AF
330
1F
100
AcDbEntity
  8
0
  6
Continuous
 62
     7
 48
100.0
370
    15
100
AcDbCircle
 10
544.0333447051
 20
641.9925164264
 30
0.0
 40
438.9897960964767
100
AcDbArc
 50
241.4421259127
 51
241.566626525
  0
ARC
  5
2B0
330
1F
100
AcDbEntity
  8
0
  6
Continuous
 62
     7
 48
100.0
370
    15
100
AcDbCircle
 10
246.525076234
 20
261.7527777992
 30
0.0
 40
11.80000070028798
100
AcDbArc
 50
188.5404562953
 51
262.5733144296
  0
ARC
  5
2B1
330
1F
100
AcDbEntity
  8
0
  6
Continuous
 62
     7
 48
100.0
370
    15
100
AcDbCircle
 10
533.309431234
 20
304.8200277992
 30
0.0
 40
301.8000939536834
100
AcDbArc
 50
179.9998529696
 51
188.5404561144
  0
LINE
  5
2B2
330
1F
100
AcDbEntity
  8
0
  6
Continuous
 62
     7
 48
10.0
370
    15
100
AcDbLine
 10
222.519719234
 20
248.7829446506
 30
0.0
 11
222.519719234
 21
261.270802268
 31
0.0
  0
LINE
  5
2B3
330
1F
100
AcDbEntity
  8
0
  6
Continuous
 62
     7
 48
10.0
370
    15
100
AcDbLine
 10
256.1466225065
 20
248.7829446506
 30
0.0
 11
222.519719234
 21
248.7829446506
 31
0.0
  0
ARC
  5
2B4
330
1F
100
AcDbEntity
  8
0
  6
Continuous
 62
     7
 48
100.0
370
    15
100
AcDbCircle
 10
289.5398545167
 20
591.7448111878
 30
0.0
 40
344.5837341528687
100
AcDbArc
 50
262.5733144296
 51
264.4388010155
  0
SPLINE
  5
2B5
330
1F
100
AcDbEntity
  8
0
  6
Continuous
 62
     7
 48
10.0
370
    15
100
AcDbSpline
210
0.0
220
0.0
230
1.0
 70
     8
 71
     3
 72
    28
 73
    24
 74
     0
 42
0.00000001
 43
0.00000001
 40
0.0
 40
0.0
 40
0.0
 40
0.0
 40
0.0624999999999998
 40
0.0624999999999998
 40
0.0937499999999997
 40
0.0937499999999997
 40
0.1249999999999997
 40
0.1249999999999997
 40
0.1874999999999997
 40
0.1874999999999997
 40
0.2499999999999997
 40
0.2499999999999997
 40
0.3750000000000008
 40
0.3750000000000008
 40
0.4375000000000007
 40
0.4375000000000007
 40
0.5000000000000007
 40
0.5000000000000007
 40
0.6250000000000008
 40
0.6250000000000008
 40
0.750000000000001
 40
0.750000000000001
 40
1.0
 40
1.0
 40
1.0
 40
1.0
 10
334.1757838627555
 20
256.4122663429025
 30
0.0
 10
333.8682675004317
 20
255.851032075076
 30
0.0
 10
333.5141304439099
 20
255.3218285710582
 30
0.0
 10
332.9203890750181
 20
254.5710014508411
 30
0.0
 10
332.7117756744665
 20
254.3277623127479
 30
0.0
 10
332.2805374428794
 20
253.8608855645804
 30
0.0
 10
332.0572675730166
 20
253.6363770067955
 30
0.0
 10
331.3665783352714
 20
252.9872221918777
 30
0.0
 10
330.8783790039798
 20
252.5868306003775
 30
0.0
 10
329.8545735060441
 20
251.8413860411353
 30
0.0
 10
329.3160678539267
 20
251.4949254526164
 30
0.0
 10
327.6681487794414
 20
250.5460959217494
 30
0.0
 10
326.522171104532
 20
250.0272553117707
 30
0.0
 10
324.7494693711151
 20
249.3780133080554
 30
0.0
 10
324.1494405075115
 20
249.1835170930671
 30
0.0
 10
322.9321286101185
 20
248.8359534413075
 30
0.0
 10
322.3139761812091
 20
248.6829789352338
 30
0.0
 10
320.4522423510346
 20
248.2866107857518
 30
0.0
 10
319.1933567482425
 20
248.1048132627058
 30
0.0
 10
316.667401095785
 20
247.858282113415
 30
0.0
 10
315.4009095925969
 20
247.792795112624
 30
0.0
 10
311.5965700452157
 20
247.6764088788811
 30
0.0
 10
309.0559520183664
 20
247.7048136367112
 30
0.0
 10
306.5197192155659
 20
247.5796850672695
 30
0.0
  0
SPLINE
  5
2B6
330
1F
100
AcDbEntity
  8
0
  6
Continuous
 62
     7
 48
10.0
370
    15
100
AcDbSpline
210
0.0
220
0.0
230
1.0
 70
     8
 71
     3
 72
    34
 73
    30
 74
     0
 42
0.00000001
 43
0.00000001
 40
0.0
 40
0.0
 40
0.0
 40
0.0
 40
0.0134558055507696
 40
0.0270167979845925
 40
0.0406844013098985
 40
0.0544600373706302
 40
0.0683451200441613
 40
0.0823410494841178
 40
0.0964492064391266
 40
0.1106709466790159
 40
0.1250075955603671
 40
0.1836347877566236
 40
0.2500042078863913
 40
0.2935475699772224
 40
0.375002034587777
 40
0.4447354579568851
 40
0.5000012528696827
 40
0.5399435825128975
 40
0.5816119023058665
 40
0.6250007763070957
 40
0.6775326472348809
 40
0.7499996078567758
 40
0.8233846471363129
 40
0.8749972487022867
 40
0.901524124482329
 40
0.9272836512440221
 40
0.9522800236979667
 40
0.9765174496227869
 40
1.0
 40
1.0
 40
1.0
 40
1.0
 10
342.9971509111789
 20
251.6618664733215
 30
0.0
 10
343.1577062697616
 20
251.9642710247336
 30
0.0
 10
343.4800720821839
 20
252.5714440880108
 30
0.0
 10
343.9535964211581
 20
253.491987420077
 30
0.0
 10
344.4221680975505
 20
254.4241270882371
 30
0.0
 10
344.8849221053816
 20
255.3683258744748
 30
0.0
 10
345.3421143328441
 20
256.3244543696843
 30
0.0
 10
345.7937145093038
 20
257.2925383204866
 30
0.0
 10
346.2397880272754
 20
258.2725550380176
 30
0.0
 10
346.680393470103
 20
259.2644915260414
 30
0.0
 10
347.5625931067477
 20
261.29928776464
 30
0.0
 10
348.9006394502929
 20
264.5817364772998
 30
0.0
 10
350.3902669419458
 20
268.6016442586474
 30
0.0
 10
351.9777573989313
 20
273.2020537562352
 30
0.0
 10
353.4928154775606
 20
277.9170165379555
 30
0.0
 10
355.0186919341395
 20
282.9405375265875
 30
0.0
 10
356.2123831513376
 20
286.9618775840751
 30
0.0
 10
357.2012887848227
 20
290.2998682183893
 30
0.0
 10
358.1096029507797
 20
293.3469476890274
 30
0.0
 10
359.1056641656422
 20
296.7022892677359
 30
0.0
 10
360.3074461472668
 20
300.8141103936232
 30
0.0
 10
361.6733777534976
 20
305.6730543109417
 30
0.0
 10
362.9372024004671
 20
310.5357168543793
 30
0.0
 10
363.8183632656738
 20
314.2888245211433
 30
0.0
 10
364.3766674355959
 20
316.8723276837847
 30
0.0
 10
364.767293511483
 20
318.7991078196459
 30
0.0
 10
365.1206021401737
 20
320.6737379004221
 30
0.0
 10
365.4398179572562
 20
322.4956706621156
 30
0.0
 10
365.627407933169
 20
323.6948137485673
 30
0.0
 10
365.7197191914928
 20
324.2849007544547
 30
0.0
  0
SPLINE
  5
2B7
330
1F
100
AcDbEntity
  8
0
  6
Continuous
 62
     7
 48
10.0
370
    15
100
AcDbSpline
210
0.0
220
0.0
230
1.0
 70
     8
 71
     3
 72
    14
 73
    10
 74
     0
 42
0.00000001
 43
0.00000001
 40
0.0
 40
0.0
 40
0.0
 40
0.0
 40
0.2499999999999993
 40
0.2499999999999993
 40
0.4999999999999996
 40
0.4999999999999996
 40
0.7499999999999998
 40
0.7499999999999998
 40
1.0
 40
1.0
 40
1.0
 40
1.0
 10
342.9971508840527
 20
251.6618664850985
 30
0.0
 10
342.9959966229926
 20
251.6597080957874
 30
0.0
 10
342.9797813240194
 20
251.6654398968224
 30
0.0
 10
342.9115994177898
 20
251.6961724450037
 30
0.0
 10
342.8595150806533
 20
251.721246204741
 30
0.0
 10
342.725835783981
 20
251.7878868428956
 30
0.0
 10
342.6444913698578
 20
251.8293287640238
 30
0.0
 10
342.469367061715
 20
251.9198843984961
 30
0.0
 10
342.3759393160076
 20
251.9688082101021
 30
0.0
 10
342.2850280048369
 20
252.0168582909386
 30
0.0
  0
ARC
  5
2B8
330
1F
100
AcDbEntity
  8
0
  6
Continuous
 62
     7
 48
100.0
370
    15
100
AcDbCircle
 10
364.0017735824
 20
326.3397786356
 30
0.0
 40
1.99806563754179
100
AcDbArc
 50
147.2458988869
 51
189.1492574519
  0
LINE
  5
2B9
330
1F
100
AcDbEntity
  8
0
  6
Continuous
 62
     7
 48
10.0
370
    15
100
AcDbLine
 10
360.3774768974
 20
325.859405703
 30
0.0
 11
360.3696597284
 21
325.8575030422
 31
0.0
  0
SPLINE
  5
2BA
330
1F
100
AcDbEntity
  8
0
  6
Continuous
 62
     7
 48
10.0
370
    15
100
AcDbSpline
210
0.0
220
0.0
230
1.0
 70
     8
 71
     3
 72
     8
 73
     4
 74
     0
 42
0.00000001
 43
0.00000001
 40
0.0
 40
0.0
 40
0.0
 40
0.0
 40
1.0
 40
1.0
 40
1.0
 40
1.0
 10
362.4597192339513
 20
326.0219191733802
 30
0.0
 10
362.3161838441848
 20
326.0219226006124
 30
0.0
 10
362.1726535308694
 20
326.0219739963589
 30
0.0
 10
362.0291283186336
 20
326.0220733574275
 30
0.0
  0
ARC
  5
2BB
330
1F
100
AcDbEntity
  8
0
  6
Continuous
 62
     7
 48
100.0
370
    15
100
AcDbCircle
 10
222.2698753864
 20
258.8048133059
 30
0.0
 40
10.02498245845575
100
AcDbArc
 50
265.7086215669
 51
271.4280803331
  0
LINE
  5
2BC
330
1F
100
AcDbEntity
  8
0
  6
Continuous
 62
     7
 48
10.0
370
    15
100
AcDbLine
 10
306.5197192248
 20
247.5796850677
 30
0.0
 11
306.519719234
 21
246.7842714952
 31
0.0
  0
SPLINE
  5
2BD
330
1F
100
AcDbEntity
  8
0
  6
Continuous
 62
     7
 48
10.0
370
    15
100
AcDbSpline
210
0.0
220
0.0
230
1.0
 70
     8
 71
     3
 72
    28
 73
    24
 74
     0
 42
0.00000001
 43
0.00000001
 40
0.0
 40
0.0
 40
0.0
 40
0.0
 40
0.0323914607293504
 40
0.0658757662886222
 40
0.1004646825894438
 40
0.1361678508419041
 40
0.172993859434185
 40
0.21095190571168
 40
0.2500541533287446
 40
0.3076683206472861
 40
0.3750729515782988
 40
0.4517016565739532
 40
0.5000844510819704
 40
0.6250238251502611
 40
0.6825170620191625
 40
0.7500159809668264
 40
0.8038026482568076
 40
0.8749787255113609
 40
0.9118292803896537
 40
0.9374838660847441
 40
0.9606948822514585
 40
0.9815454124548594
 40
1.0
 40
1.0
 40
1.0
 40
1.0
 10
306.5197192339516
 20
246.784271876308
 30
0.0
 10
306.8587556344705
 20
246.7835065895453
 30
0.0
 10
307.5482670730108
 20
246.781950196262
 30
0.0
 10
308.599777133943
 20
246.7724678960856
 30
0.0
 10
309.6859343035633
 20
246.7618553714659
 30
0.0
 10
310.8070917511123
 20
246.7532890560284
 30
0.0
 10
311.963552266566
 20
246.7516320337319
 30
0.0
 10
313.1555638986183
 20
246.7622502319904
 30
0.0
 10
314.5648333977416
 20
246.795533259133
 30
0.0
 10
316.2810199019552
 20
246.8774376216056
 30
0.0
 10
318.3841154867497
 20
247.0631005741151
 30
0.0
 10
320.3787340641612
 20
247.3546952311266
 30
0.0
 10
322.9399250596124
 20
247.8895938657031
 30
0.0
 10
325.2638353714933
 20
248.5813365499628
 30
0.0
 10
327.6791609997472
 20
249.5900773876787
 30
0.0
 10
329.3441620562987
 20
250.4509921077403
 30
0.0
 10
331.0408376343246
 20
251.5407908076764
 30
0.0
 10
332.3592425194521
 20
252.6136883661233
 30
0.0
 10
333.3382715982095
 20
253.6150901884253
 30
0.0
 10
333.9180642857818
 20
254.3004234815353
 30
0.0
 10
334.3534587042349
 20
254.8863148601215
 30
0.0
 10
334.7148815845293
 20
255.432244023531
 30
0.0
 10
334.9186191063194
 20
255.7896448126263
 30
0.0
 10
335.0142781997778
 20
255.9574520735856
 30
0.0
  0
SPLINE
  5
2BE
330
1F
100
AcDbEntity
  8
0
  6
Continuous
 62
     7
 48
10.0
370
    15
100
AcDbSpline
210
0.0
220
0.0
230
1.0
 70
     8
 71
     3
 72
    30
 73
    26
 74
     0
 42
0.00000001
 43
0.00000001
 40
0.0
 40
0.0
 40
0.0
 40
0.0
 40
0.0158584261710221
 40
0.0357262372557063
 40
0.0587873863214486
 40
0.071451855961831
 40
0.1071754498598595
 40
0.1429022737702246
 40
0.1782303467519726
 40
0.2500389902173539
 40
0.3748808426399366
 40
0.4061491707825716
 40
0.4374039084704484
 40
0.4999105469177508
 40
0.5624211778133079
 40
0.6249364886864096
 40
0.7499341457414069
 40
0.8124517940957783
 40
0.8749677249841077
 40
0.906226132408325
 40
0.9374835711391838
 40
0.9687410835648166
 40
0.9812444026888857
 40
0.9948098932692842
 40
1.0
 40
1.0
 40
1.0
 40
1.0
 10
342.2722684692095
 20
251.9930135542733
 30
0.0
 10
342.1706226540312
 20
251.7965709635188
 30
0.0
 10
341.9416325594315
 20
251.3540204525956
 30
0.0
 10
341.5535749656092
 20
250.6317376930904
 30
0.0
 10
341.1803465967924
 20
249.9521535713002
 30
0.0
 10
340.6910185332247
 20
249.0842689585967
 30
0.0
 10
340.0973873885512
 20
248.0721753009778
 30
0.0
 10
339.2579437071901
 20
246.8407592377735
 30
0.0
 10
338.0184500887831
 20
245.2788924168744
 30
0.0
 10
335.7414751908123
 20
242.9676298603574
 30
0.0
 10
333.13416027513
 20
241.1013465624557
 30
0.0
 10
330.8391084947662
 20
239.8510132411459
 30
0.0
 10
329.2698595415645
 20
239.0886609629252
 30
0.0
 10
327.240834569437
 20
238.2826961183228
 30
0.0
 10
324.7301015541725
 20
237.5388569602532
 30
0.0
 10
321.3174366578323
 20
236.8083354162557
 30
0.0
 10
317.8466382281808
 20
236.4028576884454
 30
0.0
 10
314.3656345043777
 20
236.1887507945152
 30
0.0
 10
312.1865731399636
 20
236.1102833794897
 30
0.0
 10
310.4431747618285
 20
236.0568387113924
 30
0.0
 10
309.1355262353624
 20
236.0183877992102
 30
0.0
 10
308.0893061527941
 20
235.9900062925333
 30
0.0
 10
307.2897317670427
 20
235.9710715225846
 30
0.0
 10
306.8537564199952
 20
235.9597441707913
 30
0.0
 10
306.5921199380366
 20
235.954981607145
 30
0.0
 10
306.5197190838549
 20
235.953663695845
 30
0.0
  0
LINE
  5
2BF
330
1F
100
AcDbEntity
  8
0
  6
Continuous
 62
     7
 48
10.0
370
    15
100
AcDbLine
 10
342.2722684024
 20
251.993013581
 30
0.0
 11
342.2850280053
 21
252.0168582911
 31
0.0
  0
LINE
  5
2C0
330
1F
100
AcDbEntity
  8
0
  6
Continuous
 62
     7
 48
10.0
370
    15
100
AcDbLine
 10
306.519719234
 20
246.7842714952
 30
0.0
 11
306.519610376
 21
235.9536580832
 31
0.0
  0
SPLINE
  5
2C1
330
1F
100
AcDbEntity
  8
0
  6
Continuous
 62
     7
 48
10.0
370
    15
100
AcDbSpline
210
0.0
220
0.0
230
1.0
 70
     8
 71
     3
 72
    14
 73
    10
 74
     0
 42
0.00000001
 43
0.00000001
 40
0.0
 40
0.0
 40
0.0
 40
0.0
 40
0.25
 40
0.25
 40
0.5
 40
0.5
 40
0.75
 40
0.75
 40
1.0
 40
1.0
 40
1.0
 40
1.0
 10
306.5197192154554
 20
247.5796850877217
 30
0.0
 10
302.3200471413114
 20
247.3724884306802
 30
0.0
 10
298.1187969669461
 20
247.2422444978079
 30
0.0
 10
289.7130804635736
 20
247.1354864411695
 30
0.0
 10
285.5068079887557
 20
247.1590518476538
 30
0.0
 10
277.1041712019572
 20
247.3599032942957
 30
0.0
 10
272.9069935066551
 20
247.5371058267697
 30
0.0
 10
264.5207682405234
 20
248.0448812820888
 30
0.0
 10
260.3317205837923
 20
248.3754534257453
 30
0.0
 10
256.1466225065197
 20
248.7829446506175
 30
0.0
  0
LINE
  5
2C2
330
1F
100
AcDbEntity
  8
0
  6
Continuous
 62
     7
 48
10.0
370
    15
100
AcDbLine
 10
222.5197192335
 20
246.7842714952
 30
0.0
 11
222.519719234
 21
248.7829446506
 31
0.0
  0
LINE
  5
2C3
330
1F
100
AcDbEntity
  8
0
  6
Continuous
 62
     7
 48
10.0
370
    15
100
AcDbLine
 10
222.5197192335
 20
246.7842714952
 30
0.0
 11
306.519719234
 21
246.7842714952
 31
0.0
  0
ARC
  5
2C4
330
1F
100
AcDbEntity
  8
0
  6
Continuous
 62
     7
 48
100.0
370
    15
100
AcDbCircle
 10
222.2823596831
 20
248.0647214632
 30
0.0
 40
1.302264057979244
100
AcDbArc
 50
234.1527324997
 51
280.5018245553
  0
LINE
  5
2C5
330
1F
100
AcDbEntity
  8
0
  6
Continuous
 62
     7
 48
10.0
370
    15
100
AcDbLine
 10
342.984309722
 20
251.6378622795
 30
0.0
 11
342.9971509112
 21
251.6618664733
 31
0.0
  0
LINE
  5
2C6
330
1F
100
AcDbEntity
  8
0
  6
Continuous
 62
     7
 48
10.0
370
    15
100
AcDbLine
 10
222.519719233
 20
235.494296463
 30
0.0
 11
222.5197192335
 21
246.7842714952
 31
0.0
  0
SPLINE
  5
2C7
330
1F
100
AcDbEntity
  8
0
  6
Continuous
 62
     7
 48
10.0
370
    15
100
AcDbSpline
210
0.0
220
0.0
230
1.0
 70
     8
 71
     3
 72
    23
 73
    19
 74
     0
 42
0.00000001
 43
0.00000001
 40
0.0
 40
0.0
 40
0.0
 40
0.0
 40
0.0146224964235298
 40
0.0312499944408938
 40
0.0624999957340598
 40
0.1249999948687335
 40
0.1874999978515527
 40
0.2500000003296792
 40
0.3749999233590093
 40
0.4999996272603495
 40
0.6249990135053475
 40
0.6887276157381573
 40
0.7499990049446101
 40
0.8134357420639835
 40
0.8749994240313477
 40
0.9166631463339275
 40
0.9583292618556136
 40
1.0
 40
1.0
 40
1.0
 40
1.0
 10
306.4885092471564
 20
235.9526869750942
 30
0.0
 10
306.0792976721468
 20
235.9403958940595
 30
0.0
 10
305.2047644136791
 20
235.9141284084754
 30
0.0
 10
303.4555236420452
 20
235.8673733168009
 30
0.0
 10
300.3661703605098
 20
235.7895015771753
 30
0.0
 10
295.9930923279065
 20
235.6718732575824
 30
0.0
 10
290.7455010132041
 20
235.527270323197
 30
0.0
 10
283.7487004703498
 20
235.3349999415306
 30
0.0
 10
275.0022943242187
 20
235.1084643342342
 30
0.0
 10
264.5050648443195
 20
234.8982129304506
 30
0.0
 10
255.7214709679872
 20
234.807100619894
 30
0.0
 10
248.7218415290406
 20
234.8053527102388
 30
0.0
 10
243.4460149572851
 20
234.8439459229951
 30
0.0
 10
238.2313302939262
 20
234.926507552261
 30
0.0
 10
233.5664622937045
 20
235.0432211160494
 30
0.0
 10
229.5120871600384
 20
235.1800120044848
 30
0.0
 10
226.0152384698903
 20
235.3213820005079
 30
0.0
 10
223.6849353985654
 20
235.4366561774627
 30
0.0
 10
222.5197192329619
 20
235.4942964630192
 30
0.0
  0
LINE
  5
2C8
330
1F
100
AcDbEntity
  8
0
  6
Continuous
 62
     7
 48
10.0
370
    15
100
AcDbLine
 10
306.519610376
 20
235.9536558522
 30
0.0
 11
306.4885092472
 21
235.9526869751
 31
0.0
  0
ARC
  5
2C9
330
1F
100
AcDbEntity
  8
0
  6
Continuous
 62
     7
 48
100.0
370
    15
100
AcDbCircle
 10
222.2823596834
 20
236.7747464251
 30
0.0
 40
1.302264058702962
100
AcDbArc
 50
234.1527325078
 51
280.5018245593
  0
SPLINE
  5
2CA
330
1F
100
AcDbEntity
  8
0
  6
Continuous
 62
     7
 48
10.0
370
    15
100
AcDbSpline
210
0.0
220
0.0
230
1.0
 70
     8
 71
     3
 72
    14
 73
    10
 74
     0
 42
0.00000001
 43
0.00000001
 40
0.0
 40
0.0
 40
0.0
 40
0.0
 40
0.25
 40
0.25
 40
0.5
 40
0.5
 40
0.75
 40
0.75
 40
1.0
 40
1.0
 40
1.0
 40
1.0
 10
334.1884845752373
 20
256.4354487134935
 30
0.0
 10
334.1901352254858
 20
256.4384620236743
 30
0.0
 10
334.2142203890655
 20
256.4294177730551
 30
0.0
 10
334.3156955068984
 20
256.3819189710023
 30
0.0
 10
334.3932626492539
 20
256.3433531975434
 30
0.0
 10
334.592464696208
 20
256.2410784815298
 30
0.0
 10
334.7137279093599
 20
256.1775603735459
 30
0.0
 10
334.9748934121756
 20
256.0388714980174
 30
0.0
 10
335.114270029379
 20
255.9639908720386
 30
0.0
 10
335.2499271190876
 20
255.8904807455585
 30
0.0
  0
ARC
  5
2CB
330
1F
100
AcDbEntity
  8
0
  6
Continuous
 62
     7
 48
100.0
370
    15
100
AcDbCircle
 10
329.0578609081
 20
245.1284841494
 30
0.0
 40
12.38987014571474
100
AcDbArc
 50
60.0828892743
 51
65.602756318
  0
SPLINE
  5
2CC
330
1F
100
AcDbEntity
  8
0
  6
Continuous
 62
     7
 48
10.0
370
    15
100
AcDbSpline
210
0.0
220
0.0
230
1.0
 70
     8
 71
     3
 72
     8
 73
     4
 74
     0
 42
0.00000001
 43
0.00000001
 40
0.0
 40
0.0
 40
0.0
 40
0.0
 40
1.0
 40
1.0
 40
1.0
 40
1.0
 10
335.2499208833764
 20
255.8904841466991
 30
0.0
 10
335.2457089470439
 20
255.8827779438963
 30
0.0
 10
335.241490850859
 20
255.875075683103
 30
0.0
 10
335.2372665919892
 20
255.8673773709601
 30
0.0
  0
SPLINE
  5
2CD
330
1F
100
AcDbEntity
  8
0
  6
Continuous
 62
     7
 48
10.0
370
    15
100
AcDbSpline
210
0.0
220
0.0
230
1.0
 70
     8
 71
     3
 72
    14
 73
    10
 74
     0
 42
0.00000001
 43
0.00000001
 40
0.0
 40
0.0
 40
0.0
 40
0.0
 40
0.2499999999999993
 40
0.2499999999999993
 40
0.4999999999999996
 40
0.4999999999999996
 40
0.7499999999999998
 40
0.7499999999999998
 40
1.0
 40
1.0
 40
1.0
 40
1.0
 10
342.9843097372642
 20
251.6378623081023
 30
0.0
 10
342.9831537422025
 20
251.6357014274599
 30
0.0
 10
342.966954795905
 20
251.6414258639091
 30
0.0
 10
342.8988221702999
 20
251.6721466642062
 30
0.0
 10
342.846769799577
 20
251.6972165961039
 30
0.0
 10
342.7131350562288
 20
251.7638707931895
 30
0.0
 10
342.6318022006412
 20
251.8053306045309
 30
0.0
 10
342.4566651751522
 20
251.8959475855824
 30
0.0
 10
342.3632135617542
 20
251.9449145402595
 30
0.0
 10
342.2722683842708
 20
251.9930135471164
 30
0.0
  0
SPLINE
  5
2CE
330
1F
100
AcDbEntity
  8
0
  6
Continuous
 62
     7
 48
10.0
370
    15
100
AcDbSpline
210
0.0
220
0.0
230
1.0
 70
     8
 71
     3
 72
    27
 73
    23
 74
     0
 42
0.00000001
 43
0.00000001
 40
0.0
 40
0.0
 40
0.0
 40
0.0
 40
0.0311045107844244
 40
0.0623301248536944
 40
0.0936470641624517
 40
0.1250255549907304
 40
0.1420349446147268
 40
0.1875392081100784
 40
0.2500538649904806
 40
0.380473593484068
 40
0.499974088492449
 40
0.5621984964003566
 40
0.6249808618160457
 40
0.6882952726334691
 40
0.7499817536909696
 40
0.8147608786238798
 40
0.8749678723464644
 40
0.9062221068749293
 40
0.937486345553903
 40
0.9687412866966093
 40
0.9874997941677763
 40
1.0
 40
1.0
 40
1.0
 40
1.0
 10
306.55078402087
 20
235.1790013730457
 30
0.0
 10
306.993411497582
 20
235.1919697961713
 30
0.0
 10
307.880389790806
 20
235.2179571340907
 30
0.0
 10
309.2131489183487
 20
235.250814598584
 30
0.0
 10
310.5497494877669
 20
235.2845228802053
 30
0.0
 10
311.6839315691744
 20
235.316625890211
 30
0.0
 10
313.0197254842405
 20
235.3609537776695
 30
0.0
 10
314.798022869344
 20
235.4340325786444
 30
0.0
 10
318.1853271299311
 20
235.6459186189582
 30
0.0
 10
322.608027359172
 20
236.178532172197
 30
0.0
 10
326.9300934126404
 20
237.2858011342604
 30
0.0
 10
330.1621310853383
 20
238.5897404491583
 30
0.0
 10
332.5429955473597
 20
239.8306429413952
 30
0.0
 10
334.7848302419474
 20
241.2943567644878
 30
0.0
 10
336.8885340715528
 20
242.9962569289499
 30
0.0
 10
338.7617574135034
 20
244.8890266421356
 30
0.0
 10
340.1265031079165
 20
246.6515947638746
 30
0.0
 10
341.0629575487758
 20
248.1262134698023
 30
0.0
 10
341.7263594259985
 20
249.2839633302252
 30
0.0
 10
342.2746694439367
 20
250.3023033899679
 30
0.0
 10
342.6911828098886
 20
251.0883931625821
 30
0.0
 10
342.9005748672727
 20
251.480900517318
 30
0.0
 10
342.9843097219843
 20
251.6378622795389
 30
0.0
  0
SPLINE
  5
2CF
330
1F
100
AcDbEntity
  8
0
  6
Continuous
 62
     7
 48
10.0
370
    15
100
AcDbSpline
210
0.0
220
0.0
230
1.0
 70
     8
 71
     3
 72
    14
 73
    10
 74
     0
 42
0.00000001
 43
0.00000001
 40
0.0
 40
0.0
 40
0.0
 40
0.0
 40
0.25
 40
0.25
 40
0.5
 40
0.5
 40
0.75
 40
0.75
 40
1.0
 40
1.0
 40
1.0
 40
1.0
 10
306.550784024153
 20
235.1790012241126
 30
0.0
 10
306.5500342507094
 20
235.1789779262584
 30
0.0
 10
306.5487197024781
 20
235.1957821779343
 30
0.0
 10
306.5449058468683
 20
235.2689122441894
 30
0.0
 10
306.5424057425544
 20
235.3253475843785
 30
0.0
 10
306.5365832406229
 20
235.470738843257
 30
0.0
 10
306.5332714543322
 20
235.5594236645007
 30
0.0
 10
306.5264742200645
 20
235.7509603645775
 30
0.0
 10
306.5229996387591
 20
235.8534479708848
 30
0.0
 10
306.5197192300649
 20
235.9536592293584
 30
0.0
  0
SPLINE
  5
2D0
330
1F
100
AcDbEntity
  8
0
  6
Continuous
 62
     7
 48
10.0
370
    15
100
AcDbSpline
210
0.0
220
0.0
230
1.0
 70
     8
 71
     3
 72
     9
 73
     5
 74
     0
 42
0.00000001
 43
0.00000001
 40
0.0
 40
0.0
 40
0.0
 40
0.0
 40
0.2397004126363296
 40
0.9999999999999999
 40
0.9999999999999999
 40
0.9999999999999999
 40
0.9999999999999999
 10
329.4148347906634
 20
238.3144529815445
 30
0.0
 10
329.3962088991411
 20
238.3054964937025
 30
0.0
 10
329.3185040202987
 20
238.2681311519263
 30
0.0
 10
329.2394347938238
 20
238.2337173217428
 30
0.0
 10
329.1793184935618
 20
238.2075525008547
 30
0.0
  0
SPLINE
  5
2D1
330
1F
100
AcDbEntity
  8
0
  6
Continuous
 62
     7
 48
10.0
370
    15
100
AcDbSpline
210
0.0
220
0.0
230
1.0
 70
     8
 71
     3
 72
    22
 73
    18
 74
     0
 42
0.00000001
 43
0.00000001
 40
0.0
 40
0.0
 40
0.0
 40
0.0
 40
0.0126783810745158
 40
0.0402951480957703
 40
0.0685864620564083
 40
0.1092383474862523
 40
0.1643917634106999
 40
0.2341880348301584
 40
0.2832029316980521
 40
0.3376542397748444
 40
0.3976163710877717
 40
0.4631530163191858
 40
0.5342996079700892
 40
0.682225072636103
 40
0.8094738926538446
 40
0.9154178435755322
 40
1.0
 40
1.0
 40
1.0
 40
1.0
 10
329.0609460257343
 20
238.1546814233602
 30
0.0
 10
328.972869795792
 20
238.1149751759138
 30
0.0
 10
328.6929409382836
 20
237.9887785336316
 30
0.0
 10
328.2095336953341
 20
237.7898087366117
 30
0.0
 10
327.5234936689062
 20
237.5237013905857
 30
0.0
 10
326.6309721116846
 20
237.2104673078514
 30
0.0
 10
325.4239168390068
 20
236.8408696527391
 30
0.0
 10
324.1382906936778
 20
236.5146987563723
 30
0.0
 10
322.8460646778265
 20
236.2424202829472
 30
0.0
 10
321.6194144943549
 20
236.0253016294756
 30
0.0
 10
320.2617869522326
 20
235.8296093986791
 30
0.0
 10
318.7723457475774
 20
235.6611831409129
 30
0.0
 10
316.6106558745096
 20
235.4779324043878
 30
0.0
 10
313.9733330209378
 20
235.3504078191647
 30
0.0
 10
311.0691271107481
 20
235.2792769026246
 30
0.0
 10
308.6471402005346
 20
235.2360065396329
 30
0.0
 10
307.1952646391992
 20
235.1965255351632
 30
0.0
 10
306.5507190304726
 20
235.1789983387996
 30
0.0
  0
LINE
  5
2D2
330
1F
100
AcDbEntity
  8
0
  6
Continuous
 62
     7
 48
10.0
370
    15
100
AcDbLine
 10
306.519719234
 20
235.1780336321
 30
0.0
 11
306.5507840209
 21
235.179001373
 31
0.0
  0
ARC
  5
2D3
330
1F
100
AcDbEntity
  8
0
  6
Continuous
 62
     7
 48
100.0
370
    15
100
AcDbCircle
 10
207.8071560718
 20
236.0929773524
 30
0.0
 40
14.72473882817284
100
AcDbArc
 50
354.6517774917
 51
357.6698163058
  0
SPLINE
  5
2D4
330
1F
100
AcDbEntity
  8
0
  6
Continuous
 62
     7
 48
10.0
370
    15
100
AcDbSpline
210
0.0
220
0.0
230
1.0
 70
     8
 71
     3
 72
    28
 73
    24
 74
     0
 42
0.00000001
 43
0.00000001
 40
0.0
 40
0.0
 40
0.0
 40
0.0
 40
0.1102536833582597
 40
0.2244495461842132
 40
0.3343900321914257
 40
0.3774641835061544
 40
0.4218555391122343
 40
0.467571581310298
 40
0.5146213474569762
 40
0.557044029450294
 40
0.595067987958524
 40
0.6447142341757247
 40
0.698761528350319
 40
0.7572367574871164
 40
0.8184859127172394
 40
0.8716984324847068
 40
0.891233512807809
 40
0.9107825278521072
 40
0.9303462084323189
 40
0.9489448464684702
 40
0.9654714366055744
 40
0.9849258920187374
 40
1.0
 40
1.0
 40
1.0
 40
1.0
 10
222.4677923908678
 20
234.7205020887532
 30
0.0
 10
225.322871578781
 20
234.5877883447982
 30
0.0
 10
231.1351148393061
 20
234.3176156059308
 30
0.0
 10
239.801973122394
 20
234.109526989219
 30
0.0
 10
246.7289500911533
 20
234.0373483885193
 30
0.0
 10
251.8465691714509
 20
234.0301566081382
 30
0.0
 10
255.299193994374
 20
234.0408976703892
 30
0.0
 10
258.8547976588351
 20
234.0673418353469
 30
0.0
 10
262.3592250327133
 20
234.1074446388354
 30
0.0
 10
265.6640933464528
 20
234.1566310356224
 30
0.0
 10
269.0361042765841
 20
234.2160571697422
 30
0.0
 10
272.7092334629605
 20
234.2904956967488
 30
0.0
 10
276.9121846536343
 20
234.3865626254415
 30
0.0
 10
281.4156026084614
 20
234.4993159308708
 30
0.0
 10
285.8971895434461
 20
234.6186644016333
 30
0.0
 10
289.3695797360168
 20
234.7139155740941
 30
0.0
 10
291.761345057556
 20
234.7797931794906
 30
0.0
 10
293.2811380734557
 20
234.8216282837148
 30
0.0
 10
294.7766679932975
 20
234.8626526572742
 30
0.0
 10
296.1938805388558
 20
234.9012976044457
 30
0.0
 10
297.6082730148128
 20
234.9395345049965
 30
0.0
 10
298.9313390255596
 20
234.9750057468866
 30
0.0
 10
299.826140992287
 20
234.9985130078848
 30
0.0
 10
300.2167839887598
 20
235.008775554478
 30
0.0
  0
SPLINE
  5
2D5
330
1F
100
AcDbEntity
  8
0
  6
Continuous
 62
     7
 48
10.0
370
    15
100
AcDbSpline
210
0.0
220
0.0
230
1.0
 70
     8
 71
     3
 72
    14
 73
    10
 74
     0
 42
0.00000001
 43
0.00000001
 40
0.0
 40
0.0
 40
0.0
 40
0.0
 40
0.25
 40
0.25
 40
0.5
 40
0.5
 40
0.75
 40
0.75
 40
1.0
 40
1.0
 40
1.0
 40
1.0
 10
306.5197192328803
 20
235.1780336320563
 30
0.0
 10
306.5189722627188
 20
235.178010307765
 30
0.0
 10
306.5176660443113
 20
235.1945217441619
 30
0.0
 10
306.513864987523
 20
235.2668602246763
 30
0.0
 10
306.5113687233919
 20
235.3228142642122
 30
0.0
 10
306.5055324975205
 20
235.4676734053725
 30
0.0
 10
306.5022027595355
 20
235.5563247463596
 30
0.0
 10
306.4953472696174
 20
235.7484890862715
 30
0.0
 10
306.4918328068195
 20
235.8516302737845
 30
0.0
 10
306.4885092460921
 20
235.9526869750607
 30
0.0
  0
SPLINE
  5
2D6
330
1F
100
AcDbEntity
  8
0
  6
Continuous
 62
     7
 48
10.0
370
    15
100
AcDbSpline
210
0.0
220
0.0
230
1.0
 70
     8
 71
     3
 72
    10
 73
     6
 74
     0
 42
0.00000001
 43
0.00000001
 40
0.0
 40
0.0
 40
0.0
 40
0.0
 40
0.5
 40
0.5
 40
1.0
 40
1.0
 40
1.0
 40
1.0
 10
221.5197192339525
 20
235.7191544783144
 30
0.0
 10
221.5197188547153
 20
235.466013100578
 30
0.0
 10
221.6201970286381
 20
235.2142367898467
 30
0.0
 10
221.9687741413091
 20
234.8470634996802
 30
0.0
 10
222.2149931677701
 20
234.7336467236334
 30
0.0
 10
222.4677930388352
 20
234.7205020550612
 30
0.0
  0
LINE
  5
2D7
330
1F
100
AcDbEntity
  8
0
  6
Continuous
 62
     7
 48
10.0
370
    15
100
AcDbLine
 10
260.2209902489
 20
248.4316325152
 30
0.0
 11
250.5438002712
 21
249.374751755
 31
0.0
  0
SPLINE
  5
2D8
330
1F
100
AcDbEntity
  8
0
  6
Continuous
 62
     7
 48
10.0
370
    15
100
AcDbSpline
210
0.0
220
0.0
230
1.0
 70
     8
 71
     3
 72
     8
 73
     4
 74
     0
 42
0.00000001
 43
0.00000001
 40
0.0
 40
0.0
 40
0.0
 40
0.0
 40
1.0
 40
1.0
 40
1.0
 40
1.0
 10
250.5438002712398
 20
249.3747517549705
 30
0.0
 10
249.2808305493568
 20
249.5186043916949
 30
0.0
 10
248.018656823411
 20
249.6694455576973
 30
0.0
 10
246.7573563824565
 20
249.8272660162373
 30
0.0
  0
SPLINE
  5
2D9
330
1F
100
AcDbEntity
  8
0
  6
Continuous
 62
     7
 48
10.0
370
    15
100
AcDbSpline
210
0.0
220
0.0
230
1.0
 70
     8
 71
     3
 72
     8
 73
     4
 74
     0
 42
0.00000001
 43
0.00000001
 40
0.0
 40
0.0
 40
0.0
 40
0.0
 40
1.0
 40
1.0
 40
1.0
 40
1.0
 10
246.7573563824565
 20
249.8272660162373
 30
0.0
 10
246.1713438273797
 20
249.9005909490998
 30
0.0
 10
245.5855197801526
 20
249.975422435849
 30
0.0
 10
244.9998919844847
 20
250.0517594873256
 30
0.0
  0
SPLINE
  5
2DA
330
1F
100
AcDbEntity
  8
0
  6
Continuous
 62
     7
 48
10.0
370
    15
100
AcDbSpline
210
0.0
220
0.0
230
1.0
 70
     8
 71
     3
 72
     9
 73
     5
 74
     0
 42
0.00000001
 43
0.00000001
 40
0.0
 40
0.0
 40
0.0
 40
0.0
 40
0.7828847856983865
 40
1.0
 40
1.0
 40
1.0
 40
1.0
 10
234.8550793624356
 20
260.0060131506395
 30
0.0
 10
234.6330471073406
 20
261.4996130867162
 30
0.0
 10
234.34943927749
 20
263.4074288513875
 30
0.0
 10
234.1100716567726
 20
265.3211966741585
 30
0.0
 10
234.0581013045037
 20
265.736704785123
 30
0.0
  0
LINE
  5
2DB
330
1F
100
AcDbEntity
  8
0
  6
Continuous
 62
   142
420
    32960
 48
10.0
370
     0
100
AcDbLine
 10
362.3213997867
 20
327.420802268
 30
0.0
 11
362.2350053118
 21
327.4071169738
 31
0.0
  0
LINE
  5
2DC
330
1F
100
AcDbEntity
  8
0
  6
Continuous
 62
     7
 48
10.0
370
    15
100
AcDbLine
 10
366.9812389707
 20
342.1492892071
 30
0.0
 11
366.2532232691
 21
342.1843981562
 31
0.0
  0
SPLINE
  5
2DD
330
1F
100
AcDbEntity
  8
0
  6
Continuous
 62
     8
 48
10.0
370
    15
100
AcDbSpline
210
0.0
220
0.0
230
1.0
 70
     8
 71
     3
 72
    12
 73
     8
 74
     0
 42
0.00000001
 43
0.00000001
 40
0.0
 40
0.0
 40
0.0
 40
0.0
 40
0.073485826404939
 40
0.3900803542709311
 40
0.6649218712119335
 40
0.8682626150239405
 40
0.9999999999999999
 40
0.9999999999999999
 40
0.9999999999999999
 40
0.9999999999999999
 10
300.2167839887598
 20
235.008775554478
 30
0.0
 10
300.3711782741348
 20
235.0128519319194
 30
0.0
 10
301.1907400928268
 20
235.0344903189976
 30
0.0
 10
302.5877778148758
 20
235.0701953637061
 30
0.0
 10
304.2576433257512
 20
235.1129666616327
 30
0.0
 10
305.5390547261723
 20
235.1481207927497
 30
0.0
 10
306.2429714096301
 20
235.1695920976589
 30
0.0
 10
306.5197192339514
 20
235.1780336320885
 30
0.0
  0
DIMENSION
  5
2DE
330
1F
100
AcDbEntity
  8
SLD-0
 48
10.0
100
AcDbDimension
  2
*D12
 10
367.119719234
 20
213.3438725657
 30
0.0
 11
292.5866939205
 21
213.3438725657
 31
0.0
 70
   160
 71
     2
 42
-1.0
 73
     0
 74
     0
 75
     0
  3
SLDDIMSTYLE0
100
AcDbAlignedDimension
 13
221.519719234
 23
266.5675010346
 33
0.0
 14
367.119719234
 24
345.020802268
 34
0.0
 50
0.0
100
AcDbRotatedDimension
  0
DIMENSION
  5
2E8
330
1F
100
AcDbEntity
  8
SLD-0
 48
10.0
100
AcDbDimension
  2
*D13
 10
202.2487648082
 20
234.7205035818
 30
0.0
 11
202.2487648082
 21
273.3642404042
 31
0.0
 70
   160
 71
     2
 42
-1.0
 73
     0
 74
     0
 75
     0
  3
SLDDIMSTYLE0
100
AcDbAlignedDimension
 13
222.519719234
 23
307.770802268
 33
0.0
 14
222.4677924878
 24
234.7205035818
 34
0.0
 50
90.0
100
AcDbRotatedDimension
  0
DIMENSION
  5
2F2
330
1F
100
AcDbEntity
  8
SLD-0
 48
10.0
100
AcDbDimension
  2
*D14
 10
387.2727996839
 20
345.070507381
 30
0.0
 11
387.2727996839
 21
277.3155191248
 31
0.0
 70
   160
 71
     2
 42
-1.0
 73
     0
 74
     0
 75
     0
  3
SLDDIMSTYLE0
100
AcDbAlignedDimension
 13
222.4677924878
 23
234.7205035818
 33
0.0
 14
366.3924073767
 24
345.070507381
 34
0.0
 50
90.0
100
AcDbRotatedDimension
  0
ENDSEC
  0
SECTION
  2
OBJECTS
  0
DICTIONARY
  5
C
330
0
100
AcDbDictionary
281
     1
  3
ACAD_GROUP
350
D
  3
ACAD_IMAGE_DICT
350
73
  3
ACAD_IMAGE_VARS
350
320
  3
ACAD_LAYOUT
350
1A
  3
ACAD_MATERIAL
350
3B
  3
ACAD_MLEADERSTYLE
350
31F
  3
ACAD_MLINESTYLE
350
17
  3
ACAD_PLOTSETTINGS
350
19
  3
ACAD_PLOTSTYLENAME
350
E
  3
ACAD_SCALELIST
350
4A
  3
ACAD_TABLESTYLE
350
31E
  3
ACAD_VISUALSTYLE
350
2A
  3
AcDbVariableDictionary
350
2FC
  0
IMAGEDEF_REACTOR
  5
76
330
75
100
AcDbRasterImageDefReactor
 90
        2
330
75
  0
DICTIONARY
  5
D
102
{ACAD_REACTORS
330
C
102
}
330
C
100
AcDbDictionary
281
     1
  0
DICTIONARY
  5
73
102
{ACAD_REACTORS
330
C
102
}
330
C
100
AcDbDictionary
281
     1
  3
S:\MWDesign CLIENT L -Z\Marley NZ\RAINWATER PRODUCTS\12-501 illustration of rainwater products\12-501 Illustration\dxf5376.bmp
350
74
  0
RASTERVARIABLES
  5
320
102
{ACAD_REACTORS
330
C
102
}
330
C
100
AcDbRasterVariables
 90
        0
 70
     1
 71
     1
 72
     1
  0
DICTIONARY
  5
1A
102
{ACAD_REACTORS
330
C
102
}
330
C
100
AcDbDictionary
281
     1
  3
Layout1
350
1E
  3
Layout2
350
26
  3
Model
350
22
  0
DICTIONARY
  5
3B
102
{ACAD_REACTORS
330
C
102
}
330
C
100
AcDbDictionary
281
     1
  3
ByBlock
350
3D
  3
ByLayer
350
3C
  3
Global
350
3E
  0
DICTIONARY
  5
31F
102
{ACAD_REACTORS
330
C
102
}
330
C
100
AcDbDictionary
281
     1
  0
DICTIONARY
  5
17
102
{ACAD_REACTORS
330
C
102
}
330
C
100
AcDbDictionary
281
     1
  3
Standard
350
18
  0
DICTIONARY
  5
19
102
{ACAD_REACTORS
330
C
102
}
330
C
100
AcDbDictionary
281
     1
  0
ACDBDICTIONARYWDFLT
  5
E
102
{ACAD_REACTORS
330
C
102
}
330
C
100
AcDbDictionary
281
     1
  3
Normal
350
F
100
AcDbDictionaryWithDefault
340
F
  0
DICTIONARY
  5
4A
102
{ACAD_REACTORS
330
C
102
}
330
C
100
AcDbDictionary
281
     1
  3
A0
350
4B
  3
A1
350
4C
  3
A2
350
4D
  3
A3
350
4E
  3
A4
350
4F
  3
A5
350
50
  3
A6
350
51
  3
A7
350
52
  3
A8
350
53
  3
A9
350
54
  3
B0
350
55
  3
B1
350
56
  3
B2
350
57
  3
B3
350
58
  3
B4
350
59
  3
B5
350
5A
  3
B6
350
5B
  3
B7
350
5C
  3
B8
350
5D
  3
B9
350
5E
  3
C0
350
5F
  3
C1
350
60
  3
C2
350
61
  3
C3
350
62
  3
C4
350
63
  3
C5
350
64
  3
C6
350
65
  3
C7
350
66
  3
C8
350
67
  3
C9
350
68
  3
D0
350
69
  3
D1
350
6A
  3
D2
350
6B
  0
DICTIONARY
  5
31E
102
{ACAD_REACTORS
330
C
102
}
330
C
100
AcDbDictionary
281
     1
  0
DICTIONARY
  5
2A
102
{ACAD_REACTORS
330
C
102
}
330
C
100
AcDbDictionary
281
     1
  3
2dWireframe
350
2F
  3
3D Hidden
350
31
  3
3dWireframe
350
30
  3
Basic
350
32
  3
Brighten
350
36
  3
ColorChange
350
3A
  3
Conceptual
350
34
  3
Dim
350
35
  3
Facepattern
350
39
  3
Flat
350
2B
  3
FlatWithEdges
350
2C
  3
Gouraud
350
2D
  3
GouraudWithEdges
350
2E
  3
Linepattern
350
38
  3
Realistic
350
33
  3
Thicken
350
37
  0
DICTIONARY
  5
2FC
102
{ACAD_REACTORS
330
C
102
}
330
C
100
AcDbDictionary
281
     1
  3
CANNOSCALE
350
2FD
  0
IMAGEDEF
  5
74
102
{ACAD_REACTORS
330
73
330
76
102
}
330
73
100
AcDbRasterImageDef
 90
        0
  1
S:\MWDesign CLIENT L -Z\Marley NZ\RAINWATER PRODUCTS\12-501 illustration of rainwater products\12-501 Illustration\dxf5376.bmp
 10
394.0
 20
64.0
 11
0.2645502645502645
 21
0.2645502645502645
280
     1
281
     3
  0
LAYOUT
  5
1E
102
{ACAD_REACTORS
330
1A
102
}
330
1A
100
AcDbPlotSettings
  1

  2
none_device
  4

  6

 40
0.0
 41
0.0
 42
0.0
 43
0.0
 44
0.0
 45
0.0
 46
0.0
 47
0.0
 48
0.0
 49
0.0
140
0.0
141
0.0
142
1.0
143
1.0
 70
   688
 72
     0
 73
     0
 74
     5
  7

 75
    16
 76
     0
 77
     2
 78
   300
147
1.0
148
0.0
149
0.0
100
AcDbLayout
  1
Layout1
 70
     1
 71
     1
 10
0.0
 20
0.0
 11
420.0
 21
297.0
 12
0.0
 22
0.0
 32
0.0
 14
1.0000000000E+20
 24
1.0000000000E+20
 34
1.0000000000E+20
 15
-1.0000000000E+20
 25
-1.0000000000E+20
 35
-1.0000000000E+20
146
0.0
 13
0.0
 23
0.0
 33
0.0
 16
1.0
 26
0.0
 36
0.0
 17
0.0
 27
1.0
 37
0.0
 76
     0
330
1B
  0
LAYOUT
  5
26
102
{ACAD_REACTORS
330
1A
102
}
330
1A
100
AcDbPlotSettings
  1

  2
none_device
  4

  6

 40
0.0
 41
0.0
 42
0.0
 43
0.0
 44
0.0
 45
0.0
 46
0.0
 47
0.0
 48
0.0
 49
0.0
140
0.0
141
0.0
142
1.0
143
1.0
 70
   688
 72
     0
 73
     0
 74
     5
  7

 75
    16
 76
     0
 77
     2
 78
   300
147
1.0
148
0.0
149
0.0
100
AcDbLayout
  1
Layout2
 70
     1
 71
     2
 10
0.0
 20
0.0
 11
0.0
 21
0.0
 12
0.0
 22
0.0
 32
0.0
 14
0.0
 24
0.0
 34
0.0
 15
0.0
 25
0.0
 35
0.0
146
0.0
 13
0.0
 23
0.0
 33
0.0
 16
1.0
 26
0.0
 36
0.0
 17
0.0
 27
1.0
 37
0.0
 76
     0
330
23
  0
LAYOUT
  5
22
102
{ACAD_REACTORS
330
1A
102
}
330
1A
100
AcDbPlotSettings
  1

  2
none_device
  4

  6

 40
0.0
 41
0.0
 42
0.0
 43
0.0
 44
0.0
 45
0.0
 46
0.0
 47
0.0
 48
0.0
 49
0.0
140
0.0
141
0.0
142
1.0
143
1.0
 70
  1712
 72
     0
 73
     0
 74
     0
  7

 75
     0
 76
     0
 77
     2
 78
   300
147
1.0
148
0.0
149
0.0
100
AcDbLayout
  1
Model
 70
     1
 71
     0
 10
0.0
 20
0.0
 11
420.0
 21
594.0
 12
0.0
 22
0.0
 32
0.0
 14
0.0
 24
0.0
 34
0.0
 15
420.0
 25
594.0
 35
0.0
146
0.0
 13
0.0
 23
0.0
 33
0.0
 16
1.0
 26
0.0
 36
0.0
 17
0.0
 27
1.0
 37
0.0
 76
     0
330
1F
331
29
  0
MATERIAL
  5
3D
102
{ACAD_REACTORS
330
3B
102
}
330
3B
100
AcDbMaterial
  1
ByBlock
 72
     1
 94
      127
  0
MATERIAL
  5
3C
102
{ACAD_REACTORS
330
3B
102
}
330
3B
100
AcDbMaterial
  1
ByLayer
 72
     1
 94
      127
  0
MATERIAL
  5
3E
102
{ACAD_REACTORS
330
3B
102
}
330
3B
100
AcDbMaterial
  1
Global
 72
     1
 94
      127
  0
MLINESTYLE
  5
18
102
{ACAD_REACTORS
330
17
102
}
330
17
100
AcDbMlineStyle
  2
Standard
 70
     0
  3

 62
   256
 51
90.0
 52
90.0
 71
     2
 49
0.5
 62
   256
  6
BYLAYER
 49
-0.5
 62
   256
  6
BYLAYER
  0
ACDBPLACEHOLDER
  5
F
102
{ACAD_REACTORS
330
E
102
}
330
E
  0
SCALE
  5
4B
102
{ACAD_REACTORS
330
4A
102
}
330
4A
100
AcDbScale
 70
     0
300
1:1
140
1.0
141
1.0
290
     1
  0
SCALE
  5
4C
102
{ACAD_REACTORS
330
4A
102
}
330
4A
100
AcDbScale
 70
     0
300
1:2
140
1.0
141
2.0
290
     0
  0
SCALE
  5
4D
102
{ACAD_REACTORS
330
4A
102
}
330
4A
100
AcDbScale
 70
     0
300
1:4
140
1.0
141
4.0
290
     0
  0
SCALE
  5
4E
102
{ACAD_REACTORS
330
4A
102
}
330
4A
100
AcDbScale
 70
     0
300
1:5
140
1.0
141
5.0
290
     0
  0
SCALE
  5
4F
102
{ACAD_REACTORS
330
4A
102
}
330
4A
100
AcDbScale
 70
     0
300
1:8
140
1.0
141
8.0
290
     0
  0
SCALE
  5
50
102
{ACAD_REACTORS
330
4A
102
}
330
4A
100
AcDbScale
 70
     0
300
1:10
140
1.0
141
10.0
290
     0
  0
SCALE
  5
51
102
{ACAD_REACTORS
330
4A
102
}
330
4A
100
AcDbScale
 70
     0
300
1:16
140
1.0
141
16.0
290
     0
  0
SCALE
  5
52
102
{ACAD_REACTORS
330
4A
102
}
330
4A
100
AcDbScale
 70
     0
300
1:20
140
1.0
141
20.0
290
     0
  0
SCALE
  5
53
102
{ACAD_REACTORS
330
4A
102
}
330
4A
100
AcDbScale
 70
     0
300
1:30
140
1.0
141
30.0
290
     0
  0
SCALE
  5
54
102
{ACAD_REACTORS
330
4A
102
}
330
4A
100
AcDbScale
 70
     0
300
1:40
140
1.0
141
40.0
290
     0
  0
SCALE
  5
55
102
{ACAD_REACTORS
330
4A
102
}
330
4A
100
AcDbScale
 70
     0
300
1:50
140
1.0
141
50.0
290
     0
  0
SCALE
  5
56
102
{ACAD_REACTORS
330
4A
102
}
330
4A
100
AcDbScale
 70
     0
300
1:100
140
1.0
141
100.0
290
     0
  0
SCALE
  5
57
102
{ACAD_REACTORS
330
4A
102
}
330
4A
100
AcDbScale
 70
     0
300
2:1
140
2.0
141
1.0
290
     0
  0
SCALE
  5
58
102
{ACAD_REACTORS
330
4A
102
}
330
4A
100
AcDbScale
 70
     0
300
4:1
140
4.0
141
1.0
290
     0
  0
SCALE
  5
59
102
{ACAD_REACTORS
330
4A
102
}
330
4A
100
AcDbScale
 70
     0
300
8:1
140
8.0
141
1.0
290
     0
  0
SCALE
  5
5A
102
{ACAD_REACTORS
330
4A
102
}
330
4A
100
AcDbScale
 70
     0
300
10:1
140
10.0
141
1.0
290
     0
  0
SCALE
  5
5B
102
{ACAD_REACTORS
330
4A
102
}
330
4A
100
AcDbScale
 70
     0
300
100:1
140
100.0
141
1.0
290
     0
  0
SCALE
  5
5C
102
{ACAD_REACTORS
330
4A
102
}
330
4A
100
AcDbScale
 70
     0
300
1/128" = 1'-0"
140
0.0078125
141
12.0
290
     0
  0
SCALE
  5
5D
102
{ACAD_REACTORS
330
4A
102
}
330
4A
100
AcDbScale
 70
     0
300
1/64" = 1'-0"
140
0.015625
141
12.0
290
     0
  0
SCALE
  5
5E
102
{ACAD_REACTORS
330
4A
102
}
330
4A
100
AcDbScale
 70
     0
300
1/32" = 1'-0"
140
0.03125
141
12.0
290
     0
  0
SCALE
  5
5F
102
{ACAD_REACTORS
330
4A
102
}
330
4A
100
AcDbScale
 70
     0
300
1/16" = 1'-0"
140
0.0625
141
12.0
290
     0
  0
SCALE
  5
60
102
{ACAD_REACTORS
330
4A
102
}
330
4A
100
AcDbScale
 70
     0
300
3/32" = 1'-0"
140
0.09375
141
12.0
290
     0
  0
SCALE
  5
61
102
{ACAD_REACTORS
330
4A
102
}
330
4A
100
AcDbScale
 70
     0
300
1/8" = 1'-0"
140
0.125
141
12.0
290
     0
  0
SCALE
  5
62
102
{ACAD_REACTORS
330
4A
102
}
330
4A
100
AcDbScale
 70
     0
300
3/16" = 1'-0"
140
0.1875
141
12.0
290
     0
  0
SCALE
  5
63
102
{ACAD_REACTORS
330
4A
102
}
330
4A
100
AcDbScale
 70
     0
300
1/4" = 1'-0"
140
0.25
141
12.0
290
     0
  0
SCALE
  5
64
102
{ACAD_REACTORS
330
4A
102
}
330
4A
100
AcDbScale
 70
     0
300
3/8" = 1'-0"
140
0.375
141
12.0
290
     0
  0
SCALE
  5
65
102
{ACAD_REACTORS
330
4A
102
}
330
4A
100
AcDbScale
 70
     0
300
1/2" = 1'-0"
140
0.5
141
12.0
290
     0
  0
SCALE
  5
66
102
{ACAD_REACTORS
330
4A
102
}
330
4A
100
AcDbScale
 70
     0
300
3/4" = 1'-0"
140
0.75
141
12.0
290
     0
  0
SCALE
  5
67
102
{ACAD_REACTORS
330
4A
102
}
330
4A
100
AcDbScale
 70
     0
300
1" = 1'-0"
140
1.0
141
12.0
290
     0
  0
SCALE
  5
68
102
{ACAD_REACTORS
330
4A
102
}
330
4A
100
AcDbScale
 70
     0
300
1-1/2" = 1'-0"
140
1.5
141
12.0
290
     0
  0
SCALE
  5
69
102
{ACAD_REACTORS
330
4A
102
}
330
4A
100
AcDbScale
 70
     0
300
3" = 1'-0"
140
3.0
141
12.0
290
     0
  0
SCALE
  5
6A
102
{ACAD_REACTORS
330
4A
102
}
330
4A
100
AcDbScale
 70
     0
300
6" = 1'-0"
140
6.0
141
12.0
290
     0
  0
SCALE
  5
6B
102
{ACAD_REACTORS
330
4A
102
}
330
4A
100
AcDbScale
 70
     0
300
1'-0" = 1'-0"
140
12.0
141
12.0
290
     0
  0
VISUALSTYLE
  5
2F
102
{ACAD_REACTORS
330
2A
102
}
102
{ACAD_XDICTIONARY
360
306
102
}
330
2A
100
AcDbVisualStyle
  2
2dWireframe
 70
     4
 71
     0
 72
     2
 73
     0
 90
        0
 40
-0.6
 41
-30.0
 62
     5
 63
     7
421
 16777215
 74
     1
 91
        4
 64
     7
 65
   257
 75
     1
175
     1
 42
1.0
 92
        0
 66
   257
 43
1.0
 76
     1
 77
     6
 78
     2
 67
     7
 79
     5
170
     0
171
     0
290
     0
174
     0
 93
        1
 44
0.0
173
     0
291
     0
 45
0.0
  0
VISUALSTYLE
  5
31
102
{ACAD_REACTORS
330
2A
102
}
102
{ACAD_XDICTIONARY
360
30A
102
}
330
2A
100
AcDbVisualStyle
  2
3D Hidden
 70
     6
 71
     1
 72
     2
 73
     2
 90
        0
 40
-0.6
 41
-30.0
 62
     5
 63
     7
421
 16777215
 74
     2
 91
        2
 64
     7
 65
   257
 75
     2
175
     1
 42
40.0
 92
        0
 66
   257
 43
1.0
 76
     1
 77
     6
 78
     2
 67
     7
 79
     3
170
     0
171
     0
290
     0
174
     0
 93
        1
 44
0.0
173
     0
291
     0
 45
0.0
  0
VISUALSTYLE
  5
30
102
{ACAD_REACTORS
330
2A
102
}
102
{ACAD_XDICTIONARY
360
308
102
}
330
2A
100
AcDbVisualStyle
  2
3dWireframe
 70
     5
 71
     0
 72
     2
 73
     0
 90
        0
 40
-0.6
 41
-30.0
 62
     5
 63
     7
421
 16777215
 74
     1
 91
        4
 64
     7
 65
   257
 75
     1
175
     1
 42
1.0
 92
        0
 66
   257
 43
1.0
 76
     1
 77
     6
 78
     2
 67
     7
 79
     5
170
     0
171
     0
290
     0
174
     0
 93
        1
 44
0.0
173
     0
291
     0
 45
0.0
  0
VISUALSTYLE
  5
32
102
{ACAD_REACTORS
330
2A
102
}
102
{ACAD_XDICTIONARY
360
30C
102
}
330
2A
100
AcDbVisualStyle
  2
Basic
 70
     7
 71
     1
 72
     0
 73
     1
 90
        0
 40
-0.6
 41
-30.0
 62
     5
 63
     7
421
 16777215
 74
     0
 91
        4
 64
     7
 65
   257
 75
     1
175
     1
 42
1.0
 92
        8
 66
     7
 43
1.0
 76
     1
 77
     6
 78
     2
 67
     7
 79
     5
170
     0
171
     0
290
     0
174
     0
 93
        1
 44
0.0
173
     0
291
     1
 45
0.0
  0
VISUALSTYLE
  5
36
102
{ACAD_REACTORS
330
2A
102
}
102
{ACAD_XDICTIONARY
360
314
102
}
330
2A
100
AcDbVisualStyle
  2
Brighten
 70
    12
 71
     2
 72
     2
 73
     0
 90
        0
 40
-0.6
 41
-30.0
 62
     5
 63
     7
421
 16777215
 74
     1
 91
        4
 64
     7
 65
   257
 75
     1
175
     1
 42
1.0
 92
        8
 66
     7
 43
1.0
 76
     1
 77
     6
 78
     2
 67
     7
 79
     5
170
     0
171
     0
290
     0
174
     0
 93
        1
 44
50.0
173
     0
291
     1
 45
0.0
  0
VISUALSTYLE
  5
3A
102
{ACAD_REACTORS
330
2A
102
}
102
{ACAD_XDICTIONARY
360
31C
102
}
330
2A
100
AcDbVisualStyle
  2
ColorChange
 70
    16
 71
     2
 72
     2
 73
     3
 90
        0
 40
-0.6
 41
-30.0
 62
     5
 63
     8
421
  8421504
 74
     1
 91
        4
 64
     7
 65
   257
 75
     1
175
     1
 42
1.0
 92
        8
 66
     8
424
  8421504
 43
1.0
 76
     1
 77
     6
 78
     2
 67
     7
 79
     5
170
     0
171
     0
290
     0
174
     0
 93
        1
 44
0.0
173
     0
291
     1
 45
0.0
  0
VISUALSTYLE
  5
34
102
{ACAD_REACTORS
330
2A
102
}
102
{ACAD_XDICTIONARY
360
310
102
}
330
2A
100
AcDbVisualStyle
  2
Conceptual
 70
     9
 71
     3
 72
     2
 73
     0
 90
        0
 40
-0.6
 41
-30.0
 62
     5
 63
     7
421
 16777215
 74
     2
 91
        2
 64
     7
 65
   257
 75
     1
175
     1
 42
40.0
 92
        8
 66
     7
 43
1.0
 76
     1
 77
     6
 78
     2
 67
     7
 79
     3
170
     0
171
     0
290
     0
174
     0
 93
        1
 44
0.0
173
     0
291
     0
 45
0.0
  0
VISUALSTYLE
  5
35
102
{ACAD_REACTORS
330
2A
102
}
102
{ACAD_XDICTIONARY
360
312
102
}
330
2A
100
AcDbVisualStyle
  2
Dim
 70
    11
 71
     2
 72
     2
 73
     0
 90
        0
 40
-0.6
 41
-30.0
 62
     5
 63
     7
421
 16777215
 74
     1
 91
        4
 64
     7
 65
   257
 75
     1
175
     1
 42
1.0
 92
        8
 66
     7
 43
1.0
 76
     1
 77
     6
 78
     2
 67
     7
 79
     5
170
     0
171
     0
290
     0
174
     0
 93
        1
 44
-50.0
173
     0
291
     1
 45
0.0
  0
VISUALSTYLE
  5
39
102
{ACAD_REACTORS
330
2A
102
}
102
{ACAD_XDICTIONARY
360
31A
102
}
330
2A
100
AcDbVisualStyle
  2
Facepattern
 70
    15
 71
     2
 72
     2
 73
     0
 90
        0
 40
-0.6
 41
-30.0
 62
     5
 63
     7
421
 16777215
 74
     1
 91
        4
 64
     7
 65
   257
 75
     1
175
     1
 42
1.0
 92
        8
 66
     7
 43
1.0
 76
     1
 77
     6
 78
     2
 67
     7
 79
     5
170
     0
171
     0
290
     0
174
     0
 93
        1
 44
0.0
173
     0
291
     1
 45
0.0
  0
VISUALSTYLE
  5
2B
102
{ACAD_REACTORS
330
2A
102
}
102
{ACAD_XDICTIONARY
360
2FE
102
}
330
2A
100
AcDbVisualStyle
  2
Flat
 70
     0
 71
     2
 72
     1
 73
     1
 90
        2
 40
-0.6
 41
30.0
 62
     5
 63
     7
421
 16777215
 74
     0
 91
        4
 64
     7
 65
   257
 75
     1
175
     1
 42
1.0
 92
        8
 66
     7
 43
1.0
 76
     1
 77
     6
 78
     2
 67
     7
 79
     5
170
     0
171
     0
290
     0
174
     0
 93
       13
 44
0.0
173
     0
291
     1
 45
0.0
  0
VISUALSTYLE
  5
2C
102
{ACAD_REACTORS
330
2A
102
}
102
{ACAD_XDICTIONARY
360
300
102
}
330
2A
100
AcDbVisualStyle
  2
FlatWithEdges
 70
     1
 71
     2
 72
     1
 73
     1
 90
        2
 40
-0.6
 41
30.0
 62
     5
 63
     7
421
 16777215
 74
     1
 91
        4
 64
     7
 65
   257
 75
     1
175
     1
 42
1.0
 92
        0
 66
   257
 43
1.0
 76
     1
 77
     6
 78
     2
 67
     7
 79
     5
170
     0
171
     0
290
     0
174
     0
 93
       13
 44
0.0
173
     0
291
     1
 45
0.0
  0
VISUALSTYLE
  5
2D
102
{ACAD_REACTORS
330
2A
102
}
102
{ACAD_XDICTIONARY
360
302
102
}
330
2A
100
AcDbVisualStyle
  2
Gouraud
 70
     2
 71
     2
 72
     2
 73
     1
 90
        2
 40
-0.6
 41
30.0
 62
     5
 63
     7
421
 16777215
 74
     0
 91
        4
 64
     7
 65
   257
 75
     1
175
     1
 42
1.0
 92
        0
 66
     7
 43
1.0
 76
     1
 77
     6
 78
     2
 67
     7
 79
     5
170
     0
171
     0
290
     0
174
     0
 93
       13
 44
0.0
173
     0
291
     1
 45
0.0
  0
VISUALSTYLE
  5
2E
102
{ACAD_REACTORS
330
2A
102
}
102
{ACAD_XDICTIONARY
360
304
102
}
330
2A
100
AcDbVisualStyle
  2
GouraudWithEdges
 70
     3
 71
     2
 72
     2
 73
     1
 90
        2
 40
-0.6
 41
30.0
 62
     5
 63
     7
421
 16777215
 74
     1
 91
        4
 64
     7
 65
   257
 75
     1
175
     1
 42
1.0
 92
        0
 66
   257
 43
1.0
 76
     1
 77
     6
 78
     2
 67
     7
 79
     5
170
     0
171
     0
290
     0
174
     0
 93
       13
 44
0.0
173
     0
291
     1
 45
0.0
  0
VISUALSTYLE
  5
38
102
{ACAD_REACTORS
330
2A
102
}
102
{ACAD_XDICTIONARY
360
318
102
}
330
2A
100
AcDbVisualStyle
  2
Linepattern
 70
    14
 71
     2
 72
     2
 73
     0
 90
        0
 40
-0.6
 41
-30.0
 62
     5
 63
     7
421
 16777215
 74
     1
 91
        4
 64
     7
 65
   257
 75
     7
175
     7
 42
1.0
 92
        8
 66
     7
 43
1.0
 76
     1
 77
     6
 78
     2
 67
     7
 79
     5
170
     0
171
     0
290
     0
174
     0
 93
        1
 44
0.0
173
     0
291
     1
 45
0.0
  0
VISUALSTYLE
  5
33
102
{ACAD_REACTORS
330
2A
102
}
102
{ACAD_XDICTIONARY
360
30E
102
}
330
2A
100
AcDbVisualStyle
  2
Realistic
 70
     8
 71
     2
 72
     2
 73
     0
 90
        0
 40
-0.6
 41
-30.0
 62
     5
 63
     7
421
 16777215
 74
     1
 91
        0
 64
     7
 65
   257
 75
     1
175
     1
 42
1.0
 92
        8
 66
     8
424
  7895160
 43
1.0
 76
     1
 77
     6
 78
     2
 67
     7
 79
     5
170
     0
171
     0
290
     0
174
     0
 93
       13
 44
0.0
173
     0
291
     0
 45
0.0
  0
VISUALSTYLE
  5
37
102
{ACAD_REACTORS
330
2A
102
}
102
{ACAD_XDICTIONARY
360
316
102
}
330
2A
100
AcDbVisualStyle
  2
Thicken
 70
    13
 71
     2
 72
     2
 73
     0
 90
        0
 40
-0.6
 41
-30.0
 62
     5
 63
     7
421
 16777215
 74
     1
 91
        4
 64
     7
 65
   257
 75
     1
175
     1
 42
1.0
 92
       12
 66
     7
 43
1.0
 76
     1
 77
     6
 78
     2
 67
     7
 79
     5
170
     0
171
     0
290
     0
174
     0
 93
        1
 44
0.0
173
     0
291
     1
 45
0.0
  0
DICTIONARYVAR
  5
2FD
102
{ACAD_REACTORS
330
2FC
102
}
330
2FC
100
DictionaryVariables
280
     0
  1
1:1
  0
DICTIONARY
  5
306
330
2F
100
AcDbDictionary
280
     1
281
     1
  3
ACAD_XREC_ROUNDTRIP
360
307
  0
DICTIONARY
  5
30A
330
31
100
AcDbDictionary
280
     1
281
     1
  3
ACAD_XREC_ROUNDTRIP
360
30B
  0
DICTIONARY
  5
308
330
30
100
AcDbDictionary
280
     1
281
     1
  3
ACAD_XREC_ROUNDTRIP
360
309
  0
DICTIONARY
  5
30C
330
32
100
AcDbDictionary
280
     1
281
     1
  3
ACAD_XREC_ROUNDTRIP
360
30D
  0
DICTIONARY
  5
314
330
36
100
AcDbDictionary
280
     1
281
     1
  3
ACAD_XREC_ROUNDTRIP
360
315
  0
DICTIONARY
  5
31C
330
3A
100
AcDbDictionary
280
     1
281
     1
  3
ACAD_XREC_ROUNDTRIP
360
31D
  0
DICTIONARY
  5
310
330
34
100
AcDbDictionary
280
     1
281
     1
  3
ACAD_XREC_ROUNDTRIP
360
311
  0
DICTIONARY
  5
312
330
35
100
AcDbDictionary
280
     1
281
     1
  3
ACAD_XREC_ROUNDTRIP
360
313
  0
DICTIONARY
  5
31A
330
39
100
AcDbDictionary
280
     1
281
     1
  3
ACAD_XREC_ROUNDTRIP
360
31B
  0
DICTIONARY
  5
2FE
330
2B
100
AcDbDictionary
280
     1
281
     1
  3
ACAD_XREC_ROUNDTRIP
360
2FF
  0
DICTIONARY
  5
300
330
2C
100
AcDbDictionary
280
     1
281
     1
  3
ACAD_XREC_ROUNDTRIP
360
301
  0
DICTIONARY
  5
302
330
2D
100
AcDbDictionary
280
     1
281
     1
  3
ACAD_XREC_ROUNDTRIP
360
303
  0
DICTIONARY
  5
304
330
2E
100
AcDbDictionary
280
     1
281
     1
  3
ACAD_XREC_ROUNDTRIP
360
305
  0
DICTIONARY
  5
318
330
38
100
AcDbDictionary
280
     1
281
     1
  3
ACAD_XREC_ROUNDTRIP
360
319
  0
DICTIONARY
  5
30E
330
33
100
AcDbDictionary
280
     1
281
     1
  3
ACAD_XREC_ROUNDTRIP
360
30F
  0
DICTIONARY
  5
316
330
37
100
AcDbDictionary
280
     1
281
     1
  3
ACAD_XREC_ROUNDTRIP
360
317
  0
XRECORD
  5
307
102
{ACAD_REACTORS
330
306
102
}
330
306
100
AcDbXrecord
280
     1
102
RTVSPropertyOp0
 70
     1
102
RTVSPropertyOp1
 70
     1
102
RTVSPropertyOp2
 70
     1
102
RTVSPropertyOp3
 70
     1
102
RTVSPropertyOp4
 70
     1
102
RTVSPropertyOp5
 70
     1
102
RTVSPropertyOp6
 70
     1
102
RTVSPropertyOp7
 70
     1
102
RTVSPropertyOp8
 70
     1
102
RTVSPropertyOp9
 70
     1
102
RTVSPropertyOp10
 70
     1
102
RTVSPropertyOp11
 70
     1
102
RTVSPropertyOp12
 70
     1
102
RTVSPropertyOp13
 70
     1
102
RTVSPropertyOp14
 70
     1
102
RTVSPropertyOp15
 70
     1
102
RTVSPropertyOp16
 70
     1
102
RTVSPropertyOp17
 70
     1
102
RTVSPropertyOp18
 70
     1
102
RTVSPropertyOp19
 70
     1
102
RTVSPropertyOp20
 70
     1
102
RTVSPropertyOp21
 70
     1
102
RTVSPropertyOp22
 70
     1
102
RTVSPropertyOp23
 70
     1
102
RTVSPropertyOp24
 70
     1
102
RTVSPropertyOp25
 70
     1
102
RTVSPropertyOp26
 70
     1
102
RTVSPropertyOp27
 70
     1
  0
XRECORD
  5
30B
102
{ACAD_REACTORS
330
30A
102
}
330
30A
100
AcDbXrecord
280
     1
102
RTVSPropertyOp0
 70
     1
102
RTVSPropertyOp1
 70
     1
102
RTVSPropertyOp2
 70
     1
102
RTVSPropertyOp3
 70
     1
102
RTVSPropertyOp4
 70
     1
102
RTVSPropertyOp5
 70
     1
102
RTVSPropertyOp6
 70
     1
102
RTVSPropertyOp7
 70
     1
102
RTVSPropertyOp8
 70
     1
102
RTVSPropertyOp9
 70
     1
102
RTVSPropertyOp10
 70
     1
102
RTVSPropertyOp11
 70
     1
102
RTVSPropertyOp12
 70
     1
102
RTVSPropertyOp13
 70
     1
102
RTVSPropertyOp14
 70
     1
102
RTVSPropertyOp15
 70
     1
102
RTVSPropertyOp16
 70
     1
102
RTVSPropertyOp17
 70
     1
102
RTVSPropertyOp18
 70
     1
102
RTVSPropertyOp19
 70
     1
102
RTVSPropertyOp20
 70
     1
102
RTVSPropertyOp21
 70
     1
102
RTVSPropertyOp22
 70
     1
102
RTVSPropertyOp23
 70
     1
102
RTVSPropertyOp24
 70
     1
102
RTVSPropertyOp25
 70
     1
102
RTVSPropertyOp26
 70
     1
102
RTVSPropertyOp27
 70
     1
  0
XRECORD
  5
309
102
{ACAD_REACTORS
330
308
102
}
330
308
100
AcDbXrecord
280
     1
102
RTVSPropertyOp0
 70
     1
102
RTVSPropertyOp1
 70
     1
102
RTVSPropertyOp2
 70
     1
102
RTVSPropertyOp3
 70
     1
102
RTVSPropertyOp4
 70
     1
102
RTVSPropertyOp5
 70
     1
102
RTVSPropertyOp6
 70
     1
102
RTVSPropertyOp7
 70
     1
102
RTVSPropertyOp8
 70
     1
102
RTVSPropertyOp9
 70
     1
102
RTVSPropertyOp10
 70
     1
102
RTVSPropertyOp11
 70
     1
102
RTVSPropertyOp12
 70
     1
102
RTVSPropertyOp13
 70
     1
102
RTVSPropertyOp14
 70
     1
102
RTVSPropertyOp15
 70
     1
102
RTVSPropertyOp16
 70
     1
102
RTVSPropertyOp17
 70
     1
102
RTVSPropertyOp18
 70
     1
102
RTVSPropertyOp19
 70
     1
102
RTVSPropertyOp20
 70
     1
102
RTVSPropertyOp21
 70
     1
102
RTVSPropertyOp22
 70
     1
102
RTVSPropertyOp23
 70
     1
102
RTVSPropertyOp24
 70
     1
102
RTVSPropertyOp25
 70
     1
102
RTVSPropertyOp26
 70
     1
102
RTVSPropertyOp27
 70
     1
  0
XRECORD
  5
30D
102
{ACAD_REACTORS
330
30C
102
}
330
30C
100
AcDbXrecord
280
     1
102
RTVSPropertyOp0
 70
     1
102
RTVSPropertyOp1
 70
     1
102
RTVSPropertyOp2
 70
     1
102
RTVSPropertyOp3
 70
     1
102
RTVSPropertyOp4
 70
     1
102
RTVSPropertyOp5
 70
     1
102
RTVSPropertyOp6
 70
     1
102
RTVSPropertyOp7
 70
     1
102
RTVSPropertyOp8
 70
     1
102
RTVSPropertyOp9
 70
     1
102
RTVSPropertyOp10
 70
     1
102
RTVSPropertyOp11
 70
     1
102
RTVSPropertyOp12
 70
     1
102
RTVSPropertyOp13
 70
     1
102
RTVSPropertyOp14
 70
     1
102
RTVSPropertyOp15
 70
     1
102
RTVSPropertyOp16
 70
     1
102
RTVSPropertyOp17
 70
     1
102
RTVSPropertyOp18
 70
     1
102
RTVSPropertyOp19
 70
     1
102
RTVSPropertyOp20
 70
     1
102
RTVSPropertyOp21
 70
     1
102
RTVSPropertyOp22
 70
     1
102
RTVSPropertyOp23
 70
     1
102
RTVSPropertyOp24
 70
     1
102
RTVSPropertyOp25
 70
     1
102
RTVSPropertyOp26
 70
     1
102
RTVSPropertyOp27
 70
     1
  0
XRECORD
  5
315
102
{ACAD_REACTORS
330
314
102
}
330
314
100
AcDbXrecord
280
     1
102
RTVSPropertyOp0
 70
     1
102
RTVSPropertyOp1
 70
     1
102
RTVSPropertyOp2
 70
     1
102
RTVSPropertyOp3
 70
     1
102
RTVSPropertyOp4
 70
     1
102
RTVSPropertyOp5
 70
     1
102
RTVSPropertyOp6
 70
     1
102
RTVSPropertyOp7
 70
     1
102
RTVSPropertyOp8
 70
     1
102
RTVSPropertyOp9
 70
     1
102
RTVSPropertyOp10
 70
     1
102
RTVSPropertyOp11
 70
     1
102
RTVSPropertyOp12
 70
     1
102
RTVSPropertyOp13
 70
     1
102
RTVSPropertyOp14
 70
     1
102
RTVSPropertyOp15
 70
     1
102
RTVSPropertyOp16
 70
     1
102
RTVSPropertyOp17
 70
     1
102
RTVSPropertyOp18
 70
     1
102
RTVSPropertyOp19
 70
     1
102
RTVSPropertyOp20
 70
     1
102
RTVSPropertyOp21
 70
     1
102
RTVSPropertyOp22
 70
     1
102
RTVSPropertyOp23
 70
     1
102
RTVSPropertyOp24
 70
     1
102
RTVSPropertyOp25
 70
     1
102
RTVSPropertyOp26
 70
     1
102
RTVSPropertyOp27
 70
     1
  0
XRECORD
  5
31D
102
{ACAD_REACTORS
330
31C
102
}
330
31C
100
AcDbXrecord
280
     1
102
RTVSPropertyOp0
 70
     1
102
RTVSPropertyOp1
 70
     1
102
RTVSPropertyOp2
 70
     1
102
RTVSPropertyOp3
 70
     1
102
RTVSPropertyOp4
 70
     1
102
RTVSPropertyOp5
 70
     1
102
RTVSPropertyOp6
 70
     1
102
RTVSPropertyOp7
 70
     1
102
RTVSPropertyOp8
 70
     1
102
RTVSPropertyOp9
 70
     1
102
RTVSPropertyOp10
 70
     1
102
RTVSPropertyOp11
 70
     1
102
RTVSPropertyOp12
 70
     1
102
RTVSPropertyOp13
 70
     1
102
RTVSPropertyOp14
 70
     1
102
RTVSPropertyOp15
 70
     1
102
RTVSPropertyOp16
 70
     1
102
RTVSPropertyOp17
 70
     1
102
RTVSPropertyOp18
 70
     1
102
RTVSPropertyOp19
 70
     1
102
RTVSPropertyOp20
 70
     1
102
RTVSPropertyOp21
 70
     1
102
RTVSPropertyOp22
 70
     1
102
RTVSPropertyOp23
 70
     1
102
RTVSPropertyOp24
 70
     1
102
RTVSPropertyOp25
 70
     1
102
RTVSPropertyOp26
 70
     1
102
RTVSPropertyOp27
 70
     1
  0
XRECORD
  5
311
102
{ACAD_REACTORS
330
310
102
}
330
310
100
AcDbXrecord
280
     1
102
RTVSPropertyOp0
 70
     1
102
RTVSPropertyOp1
 70
     1
102
RTVSPropertyOp2
 70
     1
102
RTVSPropertyOp3
 70
     1
102
RTVSPropertyOp4
 70
     1
102
RTVSPropertyOp5
 70
     1
102
RTVSPropertyOp6
 70
     1
102
RTVSPropertyOp7
 70
     1
102
RTVSPropertyOp8
 70
     1
102
RTVSPropertyOp9
 70
     1
102
RTVSPropertyOp10
 70
     1
102
RTVSPropertyOp11
 70
     1
102
RTVSPropertyOp12
 70
     1
102
RTVSPropertyOp13
 70
     1
102
RTVSPropertyOp14
 70
     1
102
RTVSPropertyOp15
 70
     1
102
RTVSPropertyOp16
 70
     1
102
RTVSPropertyOp17
 70
     1
102
RTVSPropertyOp18
 70
     1
102
RTVSPropertyOp19
 70
     1
102
RTVSPropertyOp20
 70
     1
102
RTVSPropertyOp21
 70
     1
102
RTVSPropertyOp22
 70
     1
102
RTVSPropertyOp23
 70
     1
102
RTVSPropertyOp24
 70
     1
102
RTVSPropertyOp25
 70
     1
102
RTVSPropertyOp26
 70
     1
102
RTVSPropertyOp27
 70
     1
  0
XRECORD
  5
313
102
{ACAD_REACTORS
330
312
102
}
330
312
100
AcDbXrecord
280
     1
102
RTVSPropertyOp0
 70
     1
102
RTVSPropertyOp1
 70
     1
102
RTVSPropertyOp2
 70
     1
102
RTVSPropertyOp3
 70
     1
102
RTVSPropertyOp4
 70
     1
102
RTVSPropertyOp5
 70
     1
102
RTVSPropertyOp6
 70
     1
102
RTVSPropertyOp7
 70
     1
102
RTVSPropertyOp8
 70
     1
102
RTVSPropertyOp9
 70
     1
102
RTVSPropertyOp10
 70
     1
102
RTVSPropertyOp11
 70
     1
102
RTVSPropertyOp12
 70
     1
102
RTVSPropertyOp13
 70
     1
102
RTVSPropertyOp14
 70
     1
102
RTVSPropertyOp15
 70
     1
102
RTVSPropertyOp16
 70
     1
102
RTVSPropertyOp17
 70
     1
102
RTVSPropertyOp18
 70
     1
102
RTVSPropertyOp19
 70
     1
102
RTVSPropertyOp20
 70
     1
102
RTVSPropertyOp21
 70
     1
102
RTVSPropertyOp22
 70
     1
102
RTVSPropertyOp23
 70
     1
102
RTVSPropertyOp24
 70
     1
102
RTVSPropertyOp25
 70
     1
102
RTVSPropertyOp26
 70
     1
102
RTVSPropertyOp27
 70
     1
  0
XRECORD
  5
31B
102
{ACAD_REACTORS
330
31A
102
}
330
31A
100
AcDbXrecord
280
     1
102
RTVSPropertyOp0
 70
     1
102
RTVSPropertyOp1
 70
     1
102
RTVSPropertyOp2
 70
     1
102
RTVSPropertyOp3
 70
     1
102
RTVSPropertyOp4
 70
     1
102
RTVSPropertyOp5
 70
     1
102
RTVSPropertyOp6
 70
     1
102
RTVSPropertyOp7
 70
     1
102
RTVSPropertyOp8
 70
     1
102
RTVSPropertyOp9
 70
     1
102
RTVSPropertyOp10
 70
     1
102
RTVSPropertyOp11
 70
     1
102
RTVSPropertyOp12
 70
     1
102
RTVSPropertyOp13
 70
     1
102
RTVSPropertyOp14
 70
     1
102
RTVSPropertyOp15
 70
     1
102
RTVSPropertyOp16
 70
     1
102
RTVSPropertyOp17
 70
     1
102
RTVSPropertyOp18
 70
     1
102
RTVSPropertyOp19
 70
     1
102
RTVSPropertyOp20
 70
     1
102
RTVSPropertyOp21
 70
     1
102
RTVSPropertyOp22
 70
     1
102
RTVSPropertyOp23
 70
     1
102
RTVSPropertyOp24
 70
     1
102
RTVSPropertyOp25
 70
     1
102
RTVSPropertyOp26
 70
     1
102
RTVSPropertyOp27
 70
     1
  0
XRECORD
  5
2FF
102
{ACAD_REACTORS
330
2FE
102
}
330
2FE
100
AcDbXrecord
280
     1
102
RTVSPropertyOp0
 70
     1
102
RTVSPropertyOp1
 70
     1
102
RTVSPropertyOp2
 70
     1
102
RTVSPropertyOp3
 70
     1
102
RTVSPropertyOp4
 70
     1
102
RTVSPropertyOp5
 70
     1
102
RTVSPropertyOp6
 70
     1
102
RTVSPropertyOp7
 70
     1
102
RTVSPropertyOp8
 70
     1
102
RTVSPropertyOp9
 70
     1
102
RTVSPropertyOp10
 70
     1
102
RTVSPropertyOp11
 70
     1
102
RTVSPropertyOp12
 70
     1
102
RTVSPropertyOp13
 70
     1
102
RTVSPropertyOp14
 70
     1
102
RTVSPropertyOp15
 70
     1
102
RTVSPropertyOp16
 70
     1
102
RTVSPropertyOp17
 70
     1
102
RTVSPropertyOp18
 70
     1
102
RTVSPropertyOp19
 70
     1
102
RTVSPropertyOp20
 70
     1
102
RTVSPropertyOp21
 70
     1
102
RTVSPropertyOp22
 70
     1
102
RTVSPropertyOp23
 70
     1
102
RTVSPropertyOp24
 70
     1
102
RTVSPropertyOp25
 70
     1
102
RTVSPropertyOp26
 70
     1
102
RTVSPropertyOp27
 70
     1
  0
XRECORD
  5
301
102
{ACAD_REACTORS
330
300
102
}
330
300
100
AcDbXrecord
280
     1
102
RTVSPropertyOp0
 70
     1
102
RTVSPropertyOp1
 70
     1
102
RTVSPropertyOp2
 70
     1
102
RTVSPropertyOp3
 70
     1
102
RTVSPropertyOp4
 70
     1
102
RTVSPropertyOp5
 70
     1
102
RTVSPropertyOp6
 70
     1
102
RTVSPropertyOp7
 70
     1
102
RTVSPropertyOp8
 70
     1
102
RTVSPropertyOp9
 70
     1
102
RTVSPropertyOp10
 70
     1
102
RTVSPropertyOp11
 70
     1
102
RTVSPropertyOp12
 70
     1
102
RTVSPropertyOp13
 70
     1
102
RTVSPropertyOp14
 70
     1
102
RTVSPropertyOp15
 70
     1
102
RTVSPropertyOp16
 70
     1
102
RTVSPropertyOp17
 70
     1
102
RTVSPropertyOp18
 70
     1
102
RTVSPropertyOp19
 70
     1
102
RTVSPropertyOp20
 70
     1
102
RTVSPropertyOp21
 70
     1
102
RTVSPropertyOp22
 70
     1
102
RTVSPropertyOp23
 70
     1
102
RTVSPropertyOp24
 70
     1
102
RTVSPropertyOp25
 70
     1
102
RTVSPropertyOp26
 70
     1
102
RTVSPropertyOp27
 70
     1
  0
XRECORD
  5
303
102
{ACAD_REACTORS
330
302
102
}
330
302
100
AcDbXrecord
280
     1
102
RTVSPropertyOp0
 70
     1
102
RTVSPropertyOp1
 70
     1
102
RTVSPropertyOp2
 70
     1
102
RTVSPropertyOp3
 70
     1
102
RTVSPropertyOp4
 70
     1
102
RTVSPropertyOp5
 70
     1
102
RTVSPropertyOp6
 70
     1
102
RTVSPropertyOp7
 70
     1
102
RTVSPropertyOp8
 70
     1
102
RTVSPropertyOp9
 70
     1
102
RTVSPropertyOp10
 70
     1
102
RTVSPropertyOp11
 70
     1
102
RTVSPropertyOp12
 70
     1
102
RTVSPropertyOp13
 70
     1
102
RTVSPropertyOp14
 70
     1
102
RTVSPropertyOp15
 70
     1
102
RTVSPropertyOp16
 70
     1
102
RTVSPropertyOp17
 70
     1
102
RTVSPropertyOp18
 70
     1
102
RTVSPropertyOp19
 70
     1
102
RTVSPropertyOp20
 70
     1
102
RTVSPropertyOp21
 70
     1
102
RTVSPropertyOp22
 70
     1
102
RTVSPropertyOp23
 70
     1
102
RTVSPropertyOp24
 70
     1
102
RTVSPropertyOp25
 70
     1
102
RTVSPropertyOp26
 70
     1
102
RTVSPropertyOp27
 70
     1
  0
XRECORD
  5
305
102
{ACAD_REACTORS
330
304
102
}
330
304
100
AcDbXrecord
280
     1
102
RTVSPropertyOp0
 70
     1
102
RTVSPropertyOp1
 70
     1
102
RTVSPropertyOp2
 70
     1
102
RTVSPropertyOp3
 70
     1
102
RTVSPropertyOp4
 70
     1
102
RTVSPropertyOp5
 70
     1
102
RTVSPropertyOp6
 70
     1
102
RTVSPropertyOp7
 70
     1
102
RTVSPropertyOp8
 70
     1
102
RTVSPropertyOp9
 70
     1
102
RTVSPropertyOp10
 70
     1
102
RTVSPropertyOp11
 70
     1
102
RTVSPropertyOp12
 70
     1
102
RTVSPropertyOp13
 70
     1
102
RTVSPropertyOp14
 70
     1
102
RTVSPropertyOp15
 70
     1
102
RTVSPropertyOp16
 70
     1
102
RTVSPropertyOp17
 70
     1
102
RTVSPropertyOp18
 70
     1
102
RTVSPropertyOp19
 70
     1
102
RTVSPropertyOp20
 70
     1
102
RTVSPropertyOp21
 70
     1
102
RTVSPropertyOp22
 70
     1
102
RTVSPropertyOp23
 70
     1
102
RTVSPropertyOp24
 70
     1
102
RTVSPropertyOp25
 70
     1
102
RTVSPropertyOp26
 70
     1
102
RTVSPropertyOp27
 70
     1
  0
XRECORD
  5
319
102
{ACAD_REACTORS
330
318
102
}
330
318
100
AcDbXrecord
280
     1
102
RTVSPropertyOp0
 70
     1
102
RTVSPropertyOp1
 70
     1
102
RTVSPropertyOp2
 70
     1
102
RTVSPropertyOp3
 70
     1
102
RTVSPropertyOp4
 70
     1
102
RTVSPropertyOp5
 70
     1
102
RTVSPropertyOp6
 70
     1
102
RTVSPropertyOp7
 70
     1
102
RTVSPropertyOp8
 70
     1
102
RTVSPropertyOp9
 70
     1
102
RTVSPropertyOp10
 70
     1
102
RTVSPropertyOp11
 70
     1
102
RTVSPropertyOp12
 70
     1
102
RTVSPropertyOp13
 70
     1
102
RTVSPropertyOp14
 70
     1
102
RTVSPropertyOp15
 70
     1
102
RTVSPropertyOp16
 70
     1
102
RTVSPropertyOp17
 70
     1
102
RTVSPropertyOp18
 70
     1
102
RTVSPropertyOp19
 70
     1
102
RTVSPropertyOp20
 70
     1
102
RTVSPropertyOp21
 70
     1
102
RTVSPropertyOp22
 70
     1
102
RTVSPropertyOp23
 70
     1
102
RTVSPropertyOp24
 70
     1
102
RTVSPropertyOp25
 70
     1
102
RTVSPropertyOp26
 70
     1
102
RTVSPropertyOp27
 70
     1
  0
XRECORD
  5
30F
102
{ACAD_REACTORS
330
30E
102
}
330
30E
100
AcDbXrecord
280
     1
102
RTVSPropertyOp0
 70
     1
102
RTVSPropertyOp1
 70
     1
102
RTVSPropertyOp2
 70
     1
102
RTVSPropertyOp3
 70
     1
102
RTVSPropertyOp4
 70
     1
102
RTVSPropertyOp5
 70
     1
102
RTVSPropertyOp6
 70
     1
102
RTVSPropertyOp7
 70
     1
102
RTVSPropertyOp8
 70
     1
102
RTVSPropertyOp9
 70
     1
102
RTVSPropertyOp10
 70
     1
102
RTVSPropertyOp11
 70
     1
102
RTVSPropertyOp12
 70
     1
102
RTVSPropertyOp13
 70
     1
102
RTVSPropertyOp14
 70
     1
102
RTVSPropertyOp15
 70
     1
102
RTVSPropertyOp16
 70
     1
102
RTVSPropertyOp17
 70
     1
102
RTVSPropertyOp18
 70
     1
102
RTVSPropertyOp19
 70
     1
102
RTVSPropertyOp20
 70
     1
102
RTVSPropertyOp21
 70
     1
102
RTVSPropertyOp22
 70
     1
102
RTVSPropertyOp23
 70
     1
102
RTVSPropertyOp24
 70
     1
102
RTVSPropertyOp25
 70
     1
102
RTVSPropertyOp26
 70
     1
102
RTVSPropertyOp27
 70
     1
  0
XRECORD
  5
317
102
{ACAD_REACTORS
330
316
102
}
330
316
100
AcDbXrecord
280
     1
102
RTVSPropertyOp0
 70
     1
102
RTVSPropertyOp1
 70
     1
102
RTVSPropertyOp2
 70
     1
102
RTVSPropertyOp3
 70
     1
102
RTVSPropertyOp4
 70
     1
102
RTVSPropertyOp5
 70
     1
102
RTVSPropertyOp6
 70
     1
102
RTVSPropertyOp7
 70
     1
102
RTVSPropertyOp8
 70
     1
102
RTVSPropertyOp9
 70
     1
102
RTVSPropertyOp10
 70
     1
102
RTVSPropertyOp11
 70
     1
102
RTVSPropertyOp12
 70
     1
102
RTVSPropertyOp13
 70
     1
102
RTVSPropertyOp14
 70
     1
102
RTVSPropertyOp15
 70
     1
102
RTVSPropertyOp16
 70
     1
102
RTVSPropertyOp17
 70
     1
102
RTVSPropertyOp18
 70
     1
102
RTVSPropertyOp19
 70
     1
102
RTVSPropertyOp20
 70
     1
102
RTVSPropertyOp21
 70
     1
102
RTVSPropertyOp22
 70
     1
102
RTVSPropertyOp23
 70
     1
102
RTVSPropertyOp24
 70
     1
102
RTVSPropertyOp25
 70
     1
102
RTVSPropertyOp26
 70
     1
102
RTVSPropertyOp27
 70
     1
  0
ENDSEC
  0
EOF
