  0
SECTION
  2
HEADER
  9
$ACADVER
  1
AC1021
  9
$ACADMAINTVER
 70
    25
  9
$DWGCODEPAGE
  3
ANSI_1252
  9
$INSBASE
 10
0.0
 20
0.0
 30
0.0
  9
$EXTMIN
 10
0.0
 20
0.0
 30
0.0
  9
$EXTMAX
 10
210.0
 20
297.0
 30
0.0
  9
$LIMMIN
 10
0.0
 20
0.0
  9
$LIMMAX
 10
210.0
 20
297.0
  9
$ORTHOMODE
 70
     0
  9
$REGENMODE
 70
     1
  9
$FILLMODE
 70
     1
  9
$QTEXTMODE
 70
     0
  9
$MIRRTEXT
 70
     1
  9
$LTSCALE
 40
10.0
  9
$ATTMODE
 70
     1
  9
$TEXTSIZE
 40
3.5
  9
$TRACEWID
 40
1.0
  9
$TEXTSTYLE
  7
Standard
  9
$CLAYER
  8
0
  9
$CELTYPE
  6
ByLayer
  9
$CECOLOR
 62
   256
  9
$CELTSCALE
 40
1.0
  9
$DISPSILH
 70
     0
  9
$DIMSCALE
 40
1.0
  9
$DIMASZ
 40
3.302
  9
$DIMEXO
 40
1.0
  9
$DIMDLI
 40
3.75
  9
$DIMRND
 40
0.0
  9
$DIMDLE
 40
0.0
  9
$DIMEXE
 40
1.0
  9
$DIMTP
 40
0.0
  9
$DIMTM
 40
0.0
  9
$DIMTXT
 40
3.5
  9
$DIMCEN
 40
2.5
  9
$DIMTSZ
 40
0.0
  9
$DIMTOL
 70
     0
  9
$DIMLIM
 70
     0
  9
$DIMTIH
 70
     1
  9
$DIMTOH
 70
     1
  9
$DIMSE1
 70
     0
  9
$DIMSE2
 70
     0
  9
$DIMTAD
 70
     1
  9
$DIMZIN
 70
     1
  9
$DIMBLK
  1

  9
$DIMASO
 70
     1
  9
$DIMSHO
 70
     1
  9
$DIMPOST
  1

  9
$DIMAPOST
  1

  9
$DIMALT
 70
     0
  9
$DIMALTD
 70
     3
  9
$DIMALTF
 40
0.0393700787
  9
$DIMLFAC
 40
1.0
  9
$DIMTOFL
 70
     1
  9
$DIMTVP
 40
0.0
  9
$DIMTIX
 70
     0
  9
$DIMSOXD
 70
     0
  9
$DIMSAH
 70
     0
  9
$DIMBLK1
  1

  9
$DIMBLK2
  1

  9
$DIMSTYLE
  2
ISO-25
  9
$DIMCLRD
 70
     0
  9
$DIMCLRE
 70
     0
  9
$DIMCLRT
 70
     0
  9
$DIMTFAC
 40
1.0
  9
$DIMGAP
 40
1.524
  9
$DIMJUST
 70
     0
  9
$DIMSD1
 70
     0
  9
$DIMSD2
 70
     0
  9
$DIMTOLJ
 70
     0
  9
$DIMTZIN
 70
     1
  9
$DIMALTZ
 70
     0
  9
$DIMALTTZ
 70
     0
  9
$DIMUPT
 70
     0
  9
$DIMDEC
 70
     2
  9
$DIMTDEC
 70
     2
  9
$DIMALTU
 70
     2
  9
$DIMALTTD
 70
     3
  9
$DIMTXSTY
  7
Standard
  9
$DIMAUNIT
 70
     0
  9
$DIMADEC
 70
     2
  9
$DIMALTRND
 40
0.0
  9
$DIMAZIN
 70
     0
  9
$DIMDSEP
 70
    44
  9
$DIMATFIT
 70
     3
  9
$DIMFRAC
 70
     0
  9
$DIMLDRBLK
  1

  9
$DIMLUNIT
 70
     2
  9
$DIMLWD
 70
    -2
  9
$DIMLWE
 70
    -2
  9
$DIMTMOVE
 70
     0
  9
$DIMFXL
 40
1.0
  9
$DIMFXLON
 70
     0
  9
$DIMJOGANG
 40
0.7853981634
  9
$DIMTFILL
 70
     0
  9
$DIMTFILLCLR
 70
     0
  9
$DIMARCSYM
 70
     0
  9
$DIMLTYPE
  6

  9
$DIMLTEX1
  6

  9
$DIMLTEX2
  6

  9
$LUNITS
 70
     2
  9
$LUPREC
 70
     2
  9
$SKETCHINC
 40
1.0
  9
$FILLETRAD
 40
10.0
  9
$AUNITS
 70
     0
  9
$AUPREC
 70
     2
  9
$MENU
  1
.
  9
$ELEVATION
 40
0.0
  9
$PELEVATION
 40
0.0
  9
$THICKNESS
 40
0.0
  9
$LIMCHECK
 70
     0
  9
$CHAMFERA
 40
10.0
  9
$CHAMFERB
 40
10.0
  9
$CHAMFERC
 40
20.0
  9
$CHAMFERD
 40
0.0
  9
$SKPOLY
 70
     0
  9
$TDCREATE
 40
2456142.647538877
  9
$TDUCREATE
 40
2456142.147538877
  9
$TDUPDATE
 40
2456142.647538889
  9
$TDUUPDATE
 40
2456142.147538889
  9
$TDINDWG
 40
0.0000000116
  9
$TDUSRTIMER
 40
0.0000000116
  9
$USRTIMER
 70
     1
  9
$ANGBASE
 50
0.0
  9
$ANGDIR
 70
     0
  9
$PDMODE
 70
     0
  9
$PDSIZE
 40
-1.0
  9
$PLINEWID
 40
0.0
  9
$SPLFRAME
 70
     0
  9
$SPLINETYPE
 70
     6
  9
$SPLINESEGS
 70
     8
  9
$HANDSEED
  5
239
  9
$SURFTAB1
 70
     6
  9
$SURFTAB2
 70
     6
  9
$SURFTYPE
 70
     6
  9
$SURFU
 70
     6
  9
$SURFV
 70
     6
  9
$UCSBASE
  2

  9
$UCSNAME
  2

  9
$UCSORG
 10
0.0
 20
0.0
 30
0.0
  9
$UCSXDIR
 10
1.0
 20
0.0
 30
0.0
  9
$UCSYDIR
 10
0.0
 20
1.0
 30
0.0
  9
$UCSORTHOREF
  2

  9
$UCSORTHOVIEW
 70
     0
  9
$UCSORGTOP
 10
0.0
 20
0.0
 30
0.0
  9
$UCSORGBOTTOM
 10
0.0
 20
0.0
 30
0.0
  9
$UCSORGLEFT
 10
0.0
 20
0.0
 30
0.0
  9
$UCSORGRIGHT
 10
0.0
 20
0.0
 30
0.0
  9
$UCSORGFRONT
 10
0.0
 20
0.0
 30
0.0
  9
$UCSORGBACK
 10
0.0
 20
0.0
 30
0.0
  9
$PUCSBASE
  2

  9
$PUCSNAME
  2

  9
$PUCSORG
 10
0.0
 20
0.0
 30
0.0
  9
$PUCSXDIR
 10
1.0
 20
0.0
 30
0.0
  9
$PUCSYDIR
 10
0.0
 20
1.0
 30
0.0
  9
$PUCSORTHOREF
  2

  9
$PUCSORTHOVIEW
 70
     0
  9
$PUCSORGTOP
 10
0.0
 20
0.0
 30
0.0
  9
$PUCSORGBOTTOM
 10
0.0
 20
0.0
 30
0.0
  9
$PUCSORGLEFT
 10
0.0
 20
0.0
 30
0.0
  9
$PUCSORGRIGHT
 10
0.0
 20
0.0
 30
0.0
  9
$PUCSORGFRONT
 10
0.0
 20
0.0
 30
0.0
  9
$PUCSORGBACK
 10
0.0
 20
0.0
 30
0.0
  9
$USERI1
 70
     0
  9
$USERI2
 70
     0
  9
$USERI3
 70
     0
  9
$USERI4
 70
     0
  9
$USERI5
 70
     0
  9
$USERR1
 40
0.0
  9
$USERR2
 40
0.0
  9
$USERR3
 40
0.0
  9
$USERR4
 40
0.0
  9
$USERR5
 40
0.0
  9
$WORLDVIEW
 70
     1
  9
$SHADEDGE
 70
     3
  9
$SHADEDIF
 70
    70
  9
$TILEMODE
 70
     1
  9
$MAXACTVP
 70
    64
  9
$PINSBASE
 10
0.0
 20
0.0
 30
0.0
  9
$PLIMCHECK
 70
     0
  9
$PEXTMIN
 10
1.0000000000E+20
 20
1.0000000000E+20
 30
1.0000000000E+20
  9
$PEXTMAX
 10
-1.0000000000E+20
 20
-1.0000000000E+20
 30
-1.0000000000E+20
  9
$PLIMMIN
 10
0.0
 20
0.0
  9
$PLIMMAX
 10
420.0
 20
297.0
  9
$UNITMODE
 70
     0
  9
$VISRETAIN
 70
     1
  9
$PLINEGEN
 70
     0
  9
$PSLTSCALE
 70
     1
  9
$TREEDEPTH
 70
  3020
  9
$CMLSTYLE
  2
Standard
  9
$CMLJUST
 70
     0
  9
$CMLSCALE
 40
20.0
  9
$PROXYGRAPHICS
 70
     1
  9
$MEASUREMENT
 70
     1
  9
$CELWEIGHT
370
    -1
  9
$ENDCAPS
280
     0
  9
$JOINSTYLE
280
     0
  9
$LWDISPLAY
290
     1
  9
$INSUNITS
 70
     4
  9
$HYPERLINKBASE
  1

  9
$STYLESHEET
  1

  9
$XEDIT
290
     1
  9
$CEPSNTYPE
380
     0
  9
$PSTYLEMODE
290
     1
  9
$FINGERPRINTGUID
  2
{373798A1-EB65-4C16-808C-DF4ECADC2D71}
  9
$VERSIONGUID
  2
{FAEB1C32-E019-11D5-929B-00C0DF256EC4}
  9
$EXTNAMES
290
     1
  9
$PSVPSCALE
 40
0.0
  9
$OLESTARTUP
290
     0
  9
$SORTENTS
280
   127
  9
$INDEXCTL
280
     0
  9
$HIDETEXT
280
     1
  9
$XCLIPFRAME
290
     0
  9
$HALOGAP
280
     0
  9
$OBSCOLOR
 70
   257
  9
$OBSLTYPE
280
     0
  9
$INTERSECTIONDISPLAY
280
     0
  9
$INTERSECTIONCOLOR
 70
   257
  9
$DIMASSOC
280
     2
  9
$PROJECTNAME
  1

  9
$CAMERADISPLAY
290
     0
  9
$LENSLENGTH
 40
50.0
  9
$CAMERAHEIGHT
 40
0.0
  9
$STEPSPERSEC
 40
2.0
  9
$STEPSIZE
 40
6.0
  9
$3DDWFPREC
 40
2.0
  9
$PSOLWIDTH
 40
5.0
  9
$PSOLHEIGHT
 40
80.0
  9
$LOFTANG1
 40
1.5707963268
  9
$LOFTANG2
 40
1.5707963268
  9
$LOFTMAG1
 40
0.0
  9
$LOFTMAG2
 40
0.0
  9
$LOFTPARAM
 70
     7
  9
$LOFTNORMALS
280
     1
  9
$LATITUDE
 40
37.795
  9
$LONGITUDE
 40
-122.394
  9
$NORTHDIRECTION
 40
0.0
  9
$TIMEZONE
 70
 -8000
  9
$LIGHTGLYPHDISPLAY
280
     1
  9
$TILEMODELIGHTSYNCH
280
     1
  9
$SOLIDHIST
280
     1
  9
$SHOWHIST
280
     1
  9
$DWFFRAME
280
     2
  9
$DGNFRAME
280
     2
  9
$REALWORLDSCALE
290
     1
  9
$INTERFERECOLOR
 62
   256
  9
$CSHADOW
280
     0
  9
$SHADOWPLANELOCATION
 40
0.0
  0
ENDSEC
  0
SECTION
  2
CLASSES
  0
CLASS
  1
ACDBDICTIONARYWDFLT
  2
AcDbDictionaryWithDefault
  3
ObjectDBX Classes
 90
        0
 91
        4
280
     0
281
     0
  0
CLASS
  1
VISUALSTYLE
  2
AcDbVisualStyle
  3
ObjectDBX Classes
 90
     4095
 91
        4
280
     0
281
     0
  0
CLASS
  1
MATERIAL
  2
AcDbMaterial
  3
ObjectDBX Classes
 90
     1153
 91
        4
280
     0
281
     0
  0
CLASS
  1
SCALE
  2
AcDbScale
  3
ObjectDBX Classes
 90
     1153
 91
        4
280
     0
281
     0
  0
CLASS
  1
IMAGEDEF
  2
AcDbRasterImageDef
  3
ISM
 90
        0
 91
        4
280
     0
281
     0
  0
CLASS
  1
IMAGE
  2
AcDbRasterImage
  3
ISM
 90
      127
 91
        5
280
     0
281
     1
  0
CLASS
  1
IMAGEDEF_REACTOR
  2
AcDbRasterImageDefReactor
  3
ISM
 90
        1
 91
        4
280
     0
281
     0
  0
CLASS
  1
DICTIONARYVAR
  2
AcDbDictionaryVar
  3
ObjectDBX Classes
 90
        0
 91
        4
280
     0
281
     0
  0
ENDSEC
  0
SECTION
  2
TABLES
  0
TABLE
  2
VPORT
  5
8
330
0
100
AcDbSymbolTable
 70
     1
  0
VPORT
  5
29
330
8
100
AcDbSymbolTableRecord
100
AcDbViewportTableRecord
  2
*Active
 70
     0
 10
0.0
 20
0.0
 11
1.0
 21
1.0
 12
105.0
 22
148.5
 13
0.0
 23
0.0
 14
10.0
 24
10.0
 15
10.0
 25
10.0
 16
0.0
 26
0.0
 36
1.0
 17
0.0
 27
0.0
 37
0.0
 40
297.0
 41
0.7070707071
 42
50.0
 43
0.0
 44
0.0
 50
0.0
 51
0.0
 71
     0
 72
  2000
 73
     1
 74
     3
 75
     0
 76
     0
 77
     0
 78
     0
281
     0
 65
     1
110
0.0
120
0.0
130
0.0
111
1.0
121
0.0
131
0.0
112
0.0
122
1.0
132
0.0
 79
     0
146
0.0
 60
     3
 61
     5
292
     1
282
     1
141
0.0
142
0.0
 63
   250
  0
ENDTAB
  0
TABLE
  2
LTYPE
  5
5
330
0
100
AcDbSymbolTable
 70
     6
  0
LTYPE
  5
14
330
5
100
AcDbSymbolTableRecord
100
AcDbLinetypeTableRecord
  2
ByBlock
 70
     0
  3

 72
    65
 73
     0
 40
0.0
  0
LTYPE
  5
15
330
5
100
AcDbSymbolTableRecord
100
AcDbLinetypeTableRecord
  2
ByLayer
 70
     0
  3

 72
    65
 73
     0
 40
0.0
  0
LTYPE
  5
16
330
5
100
AcDbSymbolTableRecord
100
AcDbLinetypeTableRecord
  2
Continuous
 70
     0
  3
Solid line
 72
    65
 73
     0
 40
0.0
  0
LTYPE
  5
3F
330
5
100
AcDbSymbolTableRecord
100
AcDbLinetypeTableRecord
  2
HIDDEN
 70
     0
  3
Hidden __ __ __ __ __ __ __ __ __ __ __ __ __ __
 72
    65
 73
     2
 40
1.905
 49
1.27
 74
     0
 49
-0.635
 74
     0
  0
LTYPE
  5
40
330
5
100
AcDbSymbolTableRecord
100
AcDbLinetypeTableRecord
  2
PHANTOM
 70
     0
  3
Phantom ______  __  __  ______  __  __  ______
 72
    65
 73
     6
 40
12.7
 49
6.35
 74
     0
 49
-1.27
 74
     0
 49
1.27
 74
     0
 49
-1.27
 74
     0
 49
1.27
 74
     0
 49
-1.27
 74
     0
  0
LTYPE
  5
41
330
5
100
AcDbSymbolTableRecord
100
AcDbLinetypeTableRecord
  2
CENTER
 70
     0
  3
Center ____ _ ____ _ ____ _ ____ _ ____ _ ____
 72
    65
 73
     4
 40
10.16
 49
6.35
 74
     0
 49
-1.27
 74
     0
 49
1.27
 74
     0
 49
-1.27
 74
     0
  0
LTYPE
  5
42
330
5
100
AcDbSymbolTableRecord
100
AcDbLinetypeTableRecord
  2
CENTERX2
 70
     0
  3
Center (2x) ________  __  ________  __  _____
 72
    65
 73
     4
 40
20.32
 49
12.7
 74
     0
 49
-2.54
 74
     0
 49
2.54
 74
     0
 49
-2.54
 74
     0
  0
LTYPE
  5
43
330
5
100
AcDbSymbolTableRecord
100
AcDbLinetypeTableRecord
  2
DOT2
 70
     0
  3
Dot (.5x) ........................................
 72
    65
 73
     2
 40
0.635
 49
0.0
 74
     0
 49
-0.635
 74
     0
  0
ENDTAB
  0
TABLE
  2
LAYER
  5
2
330
0
100
AcDbSymbolTable
 70
     3
  0
LAYER
  5
10
330
2
100
AcDbSymbolTableRecord
100
AcDbLayerTableRecord
  2
0
 70
     0
 62
     7
  6
Continuous
370
    -3
390
F
347
3E
  0
LAYER
  5
44
330
2
100
AcDbSymbolTableRecord
100
AcDbLayerTableRecord
  2
SLD-0
 70
     0
 62
   179
  6
Continuous
370
    -3
390
F
347
3E
  0
LAYER
  5
45
330
2
100
AcDbSymbolTableRecord
100
AcDbLayerTableRecord
  2
FORMAT
 70
     0
 62
   179
  6
Continuous
370
    -3
390
F
347
3E
  0
ENDTAB
  0
TABLE
  2
STYLE
  5
3
330
0
100
AcDbSymbolTable
 70
     5
  0
STYLE
  5
11
330
3
100
AcDbSymbolTableRecord
100
AcDbTextStyleTableRecord
  2
Standard
 70
     0
 40
0.0
 41
1.0
 50
0.0
 71
     0
 42
2.5
  3
txt
  4

  0
STYLE
  5
49
330
3
100
AcDbSymbolTableRecord
100
AcDbTextStyleTableRecord
  2
SLDTEXTSTYLE0
 70
     0
 40
0.0
 41
0.4457894737
 50
0.0
 71
     0
 42
0.2
  3
TXT
  4

  0
STYLE
  5
8E
330
3
100
AcDbSymbolTableRecord
100
AcDbTextStyleTableRecord
  2
SLDTEXTSTYLE1
 70
     0
 40
0.0
 41
0.5526315789
 50
0.0
 71
     0
 42
0.2
  3
TXT
  4

  0
STYLE
  5
90
330
3
100
AcDbSymbolTableRecord
100
AcDbTextStyleTableRecord
  2
SLDTEXTSTYLE2
 70
     0
 40
0.0
 41
0.5065789474
 50
0.0
 71
     0
 42
0.2
  3
TXT
  4

  0
STYLE
  5
9B
330
3
100
AcDbSymbolTableRecord
100
AcDbTextStyleTableRecord
  2
SLDTEXTSTYLE3
 70
     0
 40
0.0
 41
0.75
 50
0.0
 71
     0
 42
0.2
  3
TXT
  4

  0
ENDTAB
  0
TABLE
  2
VIEW
  5
6
330
0
100
AcDbSymbolTable
 70
     0
  0
ENDTAB
  0
TABLE
  2
UCS
  5
7
330
0
100
AcDbSymbolTable
 70
     0
  0
ENDTAB
  0
TABLE
  2
APPID
  5
9
330
0
100
AcDbSymbolTable
 70
     1
  0
APPID
  5
12
330
9
100
AcDbSymbolTableRecord
100
AcDbRegAppTableRecord
  2
ACAD
 70
     0
  0
ENDTAB
  0
TABLE
  2
DIMSTYLE
  5
A
330
0
100
AcDbSymbolTable
 70
     3
100
AcDbDimStyleTable
  0
DIMSTYLE
105
27
330
A
100
AcDbSymbolTableRecord
100
AcDbDimStyleTableRecord
  2
ISO-25
 70
     0
 41
2.5
 42
0.625
 43
3.75
 44
1.25
 73
     0
 74
     0
 77
     1
 78
     8
140
2.5
141
2.5
143
0.0393700787
147
0.625
171
     3
172
     1
271
     2
272
     2
274
     3
278
    44
283
     0
284
     8
340
11
  0
DIMSTYLE
105
1B5
102
{ACAD_REACTORS
330
1B4
330
1BF
330
201
102
}
330
A
100
AcDbSymbolTableRecord
100
AcDbDimStyleTableRecord
  2
SLDDIMSTYLE0
 70
     0
 41
3.302
 44
0.0
 45
0.000000001
 73
     0
 77
     1
 78
    12
140
3.5
147
0.875
173
     1
271
     0
272
     2
284
    12
340
9B
  0
DIMSTYLE
105
20C
102
{ACAD_REACTORS
330
20B
102
}
330
A
100
AcDbSymbolTableRecord
100
AcDbDimStyleTableRecord
  2
SLDDIMSTYLE1
 70
     0
 41
3.302
 44
0.0
 45
0.000000001
 73
     0
 77
     1
 78
    12
140
3.5
147
0.875
172
     1
173
     1
271
     0
272
     2
284
    12
340
9B
  0
ENDTAB
  0
TABLE
  2
BLOCK_RECORD
  5
1
330
0
100
AcDbSymbolTable
 70
     8
  0
BLOCK_RECORD
  5
1F
330
1
100
AcDbSymbolTableRecord
100
AcDbBlockTableRecord
  2
*Model_Space
340
22
 70
     0
280
     1
281
     0
  0
BLOCK_RECORD
  5
1B
330
1
100
AcDbSymbolTableRecord
100
AcDbBlockTableRecord
  2
*Paper_Space
340
1E
 70
     0
280
     1
281
     0
  0
BLOCK_RECORD
  5
23
330
1
100
AcDbSymbolTableRecord
100
AcDbBlockTableRecord
  2
*Paper_Space0
340
26
 70
     0
280
     1
281
     0
  0
BLOCK_RECORD
  5
46
330
1
100
AcDbSymbolTableRecord
100
AcDbBlockTableRecord
  2
SW_NOTE_0
340
0
102
{BLKREFS
331
8B
102
}
 70
     0
280
     1
281
     0
  0
BLOCK_RECORD
  5
6E
330
1
100
AcDbSymbolTableRecord
100
AcDbBlockTableRecord
  2
SW_NOTE_1
340
0
102
{BLKREFS
331
8C
102
}
 70
     0
280
     1
281
     0
  0
BLOCK_RECORD
  5
98
330
1
100
AcDbSymbolTableRecord
100
AcDbBlockTableRecord
  2
SW_NOTE_0_1
340
0
102
{BLKREFS
331
9F
102
}
 70
     0
280
     1
281
     0
  0
BLOCK_RECORD
  5
1B6
330
1
100
AcDbSymbolTableRecord
100
AcDbBlockTableRecord
  2
*D4
340
0
 70
     0
280
     1
281
     0
  0
BLOCK_RECORD
  5
1C0
330
1
100
AcDbSymbolTableRecord
100
AcDbBlockTableRecord
  2
*D5
340
0
 70
     0
280
     1
281
     0
  0
BLOCK_RECORD
  5
202
330
1
100
AcDbSymbolTableRecord
100
AcDbBlockTableRecord
  2
*D6
340
0
 70
     0
280
     1
281
     0
  0
BLOCK_RECORD
  5
20D
330
1
100
AcDbSymbolTableRecord
100
AcDbBlockTableRecord
  2
*D7
340
0
 70
     0
280
     1
281
     0
  0
ENDTAB
  0
ENDSEC
  0
SECTION
  2
BLOCKS
  0
BLOCK
  5
20
330
1F
100
AcDbEntity
  8
0
100
AcDbBlockBegin
  2
*Model_Space
 70
     0
 10
0.0
 20
0.0
 30
0.0
  3
*Model_Space
  1

  0
ENDBLK
  5
21
330
1F
100
AcDbEntity
  8
0
100
AcDbBlockEnd
  0
BLOCK
  5
1C
330
1B
100
AcDbEntity
 67
     1
  8
0
100
AcDbBlockBegin
  2
*Paper_Space
 70
     0
 10
0.0
 20
0.0
 30
0.0
  3
*Paper_Space
  1

  0
ENDBLK
  5
1D
330
1B
100
AcDbEntity
 67
     1
  8
0
100
AcDbBlockEnd
  0
BLOCK
  5
24
330
23
100
AcDbEntity
  8
0
100
AcDbBlockBegin
  2
*Paper_Space0
 70
     0
 10
0.0
 20
0.0
 30
0.0
  3
*Paper_Space0
  1

  0
ENDBLK
  5
25
330
23
100
AcDbEntity
  8
0
100
AcDbBlockEnd
  0
BLOCK
  5
47
330
46
100
AcDbEntity
  8
0
100
AcDbBlockBegin
  2
SW_NOTE_0
 70
     0
 10
0.0
 20
0.0
 30
0.0
  3
SW_NOTE_0
  1

  0
MTEXT
  5
6C
330
46
100
AcDbEntity
  8
SLD-0
 48
10.0
100
AcDbMText
 10
0.0
 20
16.0053660025
 30
0.0
 40
15.0
 41
0.0
 46
0.0
 71
     1
 72
     1
  1
Disclaimer: This information is intended solely as a guide for use fo Marley NZ products. Before using you should ensure that the product is suitable for use in the specific application. 
  7
SLDTEXTSTYLE0
 73
     1
 44
1.0
  0
MTEXT
  5
6D
330
46
100
AcDbEntity
  8
SLD-0
 48
10.0
100
AcDbMText
 10
0.0
 20
-8.9946334395
 30
0.0
 40
15.0
 41
0.0
 46
0.0
 71
     1
 72
     1
  1
Marley NZ makes no warranty regarding the use of this information with non-Marley NZ products. This drawing is the property of Marley NZ Ltd.
  7
SLDTEXTSTYLE0
 73
     1
 44
1.0
  0
ENDBLK
  5
48
330
46
100
AcDbEntity
  8
0
100
AcDbBlockEnd
  0
BLOCK
  5
6F
330
6E
100
AcDbEntity
  8
0
100
AcDbBlockBegin
  2
SW_NOTE_1
 70
     0
 10
0.0
 20
0.0
 30
0.0
  3
SW_NOTE_1
  1

  0
MTEXT
  5
71
330
6E
100
AcDbEntity
  8
SLD-0
 48
10.0
100
AcDbMText
 10
0.0
 20
25.4085168109
 30
0.0
 40
23.8125
 41
0.0
 46
0.0
 71
     1
 72
     1
  1
0800 MARLEY
  7
SLDTEXTSTYLE0
 73
     1
 44
1.0
  0
MTEXT
  5
72
330
6E
100
AcDbEntity
  8
SLD-0
 48
10.0
100
AcDbMText
 10
-20.973738283
 20
-6.3414828051
 30
0.0
 40
23.8125
 41
0.0
 46
0.0
 71
     1
 72
     1
  1
www.marley.co.nz
  7
SLDTEXTSTYLE0
 73
     1
 44
1.0
  0
ENDBLK
  5
70
330
6E
100
AcDbEntity
  8
0
100
AcDbBlockEnd
  0
BLOCK
  5
99
330
98
100
AcDbEntity
  8
0
100
AcDbBlockBegin
  2
SW_NOTE_0_1
 70
     0
 10
0.0
 20
0.0
 30
0.0
  3
SW_NOTE_0_1
  1

  0
MTEXT
  5
9C
330
98
100
AcDbEntity
  8
SLD-0
 62
     0
 48
10.0
100
AcDbMText
 10
0.0
 20
4.0927900738
 30
0.0
 40
3.175
 41
0.0
 46
0.0
 71
     1
 72
     1
  1
NOTE: Fixing recommendations
  7
SLDTEXTSTYLE3
 73
     1
 44
1.0
  0
MTEXT
  5
9D
330
98
100
AcDbEntity
  8
SLD-0
 62
     0
 48
10.0
100
AcDbMText
 10
0.0
 20
-0.1171193985
 30
0.0
 40
2.6458333333
 41
0.0
 46
0.0
 71
     1
 72
     1
  1
Stainless Steel, grade 304 8g screw with neutral coloured 
  7
SLDTEXTSTYLE3
 73
     1
 44
1.0
  0
MTEXT
  5
9E
330
98
100
AcDbEntity
  8
SLD-0
 62
     0
 48
10.0
100
AcDbMText
 10
0.0
 20
-3.6448971337
 30
0.0
 40
2.6458333333
 41
0.0
 46
0.0
 71
     1
 72
     1
  1
washer to go between clip and wall. 
  7
SLDTEXTSTYLE3
 73
     1
 44
1.0
  0
ENDBLK
  5
9A
330
98
100
AcDbEntity
  8
0
100
AcDbBlockEnd
  0
BLOCK
  5
1B7
330
1B6
100
AcDbEntity
  8
0
100
AcDbBlockBegin
  2
*D4
 70
     1
 10
0.0
 20
0.0
 30
0.0
  3
*D4
  1

  0
SOLID
  5
1B9
330
1B6
100
AcDbEntity
  8
SLD-0
 48
10.0
100
AcDbTrace
 10
17.4308642
 20
117.7270109439
 30
0.0
 11
17.9388642
 21
121.0290109439
 31
0.0
 12
16.9228642
 22
121.0290109439
 32
0.0
 13
16.9228642
 23
121.0290109439
 33
0.0
  0
SOLID
  5
1BA
330
1B6
100
AcDbEntity
  8
SLD-0
 48
10.0
100
AcDbTrace
 10
17.4308642
 20
262.1981541142
 30
0.0
 11
16.9228642
 21
258.8961541142
 31
0.0
 12
17.9388642
 22
258.8961541142
 32
0.0
 13
17.9388642
 23
258.8961541142
 33
0.0
  0
LINE
  5
1BB
330
1B6
100
AcDbEntity
  8
SLD-0
 48
10.0
100
AcDbLine
 10
26.2143447367
 20
117.7270109439
 30
0.0
 11
16.4308642
 21
117.7270109439
 31
0.0
  0
LINE
  5
1BC
330
1B6
100
AcDbEntity
  8
SLD-0
 48
10.0
100
AcDbLine
 10
108.2785379735
 20
262.1981541142
 30
0.0
 11
16.4308642
 21
262.1981541142
 31
0.0
  0
LINE
  5
1BD
330
1B6
100
AcDbEntity
  8
SLD-0
 48
10.0
100
AcDbLine
 10
17.4308642
 20
117.7270109439
 30
0.0
 11
17.4308642
 21
262.1981541142
 31
0.0
  0
MTEXT
  5
1BE
330
1B6
100
AcDbEntity
  8
SLD-0
 48
10.0
100
AcDbMText
 10
12.9191272854
 20
182.0507534069
 30
0.0
 40
3.5
 41
0.0
 46
0.0
 71
     1
 72
     1
  1
144
  7
SLDTEXTSTYLE3
 11
6.123233995736766E-17
 21
1.0
 31
0.0
 73
     1
 44
1.0
  0
ENDBLK
  5
1B8
330
1B6
100
AcDbEntity
  8
0
100
AcDbBlockEnd
  0
BLOCK
  5
1C1
330
1C0
100
AcDbEntity
  8
0
100
AcDbBlockBegin
  2
*D5
 70
     1
 10
0.0
 20
0.0
 30
0.0
  3
*D5
  1

  0
SOLID
  5
1C3
330
1C0
100
AcDbEntity
  8
SLD-0
 48
10.0
100
AcDbTrace
 10
21.7785379735
 20
112.3914735195
 30
0.0
 11
25.0805379735
 21
111.8834735195
 31
0.0
 12
25.0805379735
 22
112.8994735195
 32
0.0
 13
25.0805379735
 23
112.8994735195
 33
0.0
  0
SOLID
  5
1C4
330
1C0
100
AcDbEntity
  8
SLD-0
 48
10.0
100
AcDbTrace
 10
196.7785379735
 20
112.3914735195
 30
0.0
 11
193.4765379735
 21
112.8994735195
 31
0.0
 12
193.4765379735
 22
111.8834735195
 32
0.0
 13
193.4765379735
 23
111.8834735195
 33
0.0
  0
LINE
  5
1C5
330
1C0
100
AcDbEntity
  8
SLD-0
 48
10.0
100
AcDbLine
 10
21.7785379735
 20
117.7270109439
 30
0.0
 11
21.7785379735
 21
111.3914735195
 31
0.0
  0
LINE
  5
1C6
330
1C0
100
AcDbEntity
  8
SLD-0
 48
10.0
100
AcDbLine
 10
196.7785379735
 20
117.7270109439
 30
0.0
 11
196.7785379735
 21
111.3914735195
 31
0.0
  0
LINE
  5
1C7
330
1C0
100
AcDbEntity
  8
SLD-0
 48
10.0
100
AcDbLine
 10
21.7785379735
 20
112.3914735195
 30
0.0
 11
196.7785379735
 21
112.3914735195
 31
0.0
  0
MTEXT
  5
1C8
330
1C0
100
AcDbEntity
  8
SLD-0
 48
10.0
100
AcDbMText
 10
104.2439097423
 20
116.9032104341
 30
0.0
 40
3.5
 41
0.0
 46
0.0
 71
     1
 72
     1
  1
175
  7
SLDTEXTSTYLE3
 73
     1
 44
1.0
  0
ENDBLK
  5
1C2
330
1C0
100
AcDbEntity
  8
0
100
AcDbBlockEnd
  0
BLOCK
  5
203
330
202
100
AcDbEntity
  8
0
100
AcDbBlockBegin
  2
*D6
 70
     1
 10
0.0
 20
0.0
 30
0.0
  3
*D6
  1

  0
SOLID
  5
205
330
202
100
AcDbEntity
  8
SLD-0
 48
10.0
100
AcDbTrace
 10
187.7785379735
 20
96.4984664772
 30
0.0
 11
184.4765379735
 21
97.0064664772
 31
0.0
 12
184.4765379735
 22
95.9904664772
 32
0.0
 13
184.4765379735
 23
95.9904664772
 33
0.0
  0
SOLID
  5
206
330
202
100
AcDbEntity
  8
SLD-0
 48
10.0
100
AcDbTrace
 10
30.7785379735
 20
96.4984664772
 30
0.0
 11
34.0805379735
 21
95.9904664772
 31
0.0
 12
34.0805379735
 22
97.0064664772
 32
0.0
 13
34.0805379735
 23
97.0064664772
 33
0.0
  0
LINE
  5
207
330
202
100
AcDbEntity
  8
SLD-0
 48
10.0
100
AcDbLine
 10
187.7785379735
 20
81.5722096865
 30
0.0
 11
187.7785379735
 21
97.4984664772
 31
0.0
  0
LINE
  5
208
330
202
100
AcDbEntity
  8
SLD-0
 48
10.0
100
AcDbLine
 10
30.7785379735
 20
81.5722096865
 30
0.0
 11
30.7785379735
 21
97.4984664772
 31
0.0
  0
LINE
  5
209
330
202
100
AcDbEntity
  8
SLD-0
 48
10.0
100
AcDbLine
 10
187.7785379735
 20
96.4984664772
 30
0.0
 11
30.7785379735
 21
96.4984664772
 31
0.0
  0
MTEXT
  5
20A
330
202
100
AcDbEntity
  8
SLD-0
 48
10.0
100
AcDbMText
 10
106.1891210037
 20
101.0102033918
 30
0.0
 40
3.5
 41
0.0
 46
0.0
 71
     1
 72
     1
  1
157
  7
SLDTEXTSTYLE3
 73
     1
 44
1.0
  0
ENDBLK
  5
204
330
202
100
AcDbEntity
  8
0
100
AcDbBlockEnd
  0
BLOCK
  5
20E
330
20D
100
AcDbEntity
  8
0
100
AcDbBlockBegin
  2
*D7
 70
     1
 10
0.0
 20
0.0
 30
0.0
  3
*D7
  1

  0
SOLID
  5
210
330
20D
100
AcDbEntity
  8
SLD-0
 48
10.0
100
AcDbTrace
 10
185.6572176299
 20
78.4508893429
 30
0.0
 11
182.9631407936
 21
76.4752329963
 31
0.0
 12
183.6815612833
 22
75.7568125066
 32
0.0
 13
183.6815612833
 23
75.7568125066
 33
0.0
  0
LINE
  5
211
330
20D
100
AcDbEntity
  8
SLD-0
 48
10.0
100
AcDbLine
 10
185.6572176299
 20
78.4508893429
 30
0.0
 11
162.6789383025
 21
55.4726100155
 31
0.0
  0
LINE
  5
212
330
20D
100
AcDbEntity
  8
SLD-0
 48
10.0
100
AcDbLine
 10
185.6572176299
 20
78.4508893429
 30
0.0
 11
189.8998583171
 21
82.6935300301
 31
0.0
  0
MTEXT
  5
213
330
20D
100
AcDbEntity
  8
SLD-0
 48
10.0
100
AcDbMText
 10
160.6194986878
 20
59.7771136606
 30
0.0
 40
3.5
 41
0.0
 46
0.0
 71
     1
 72
     1
  1
%%c
  7
SLDTEXTSTYLE3
 11
0.7071067811865454
 21
0.7071067811865497
 31
0.0
 73
     1
 44
1.0
  0
MTEXT
  5
214
330
20D
100
AcDbEntity
  8
SLD-0
 48
10.0
100
AcDbMText
 10
164.3515934441
 20
63.5092081699
 30
0.0
 40
3.5
 41
0.0
 46
0.0
 71
     1
 72
     1
  1
6
  7
SLDTEXTSTYLE3
 11
0.7071067811865454
 21
0.7071067811865497
 31
0.0
 73
     1
 44
1.0
  0
ENDBLK
  5
20F
330
20D
100
AcDbEntity
  8
0
100
AcDbBlockEnd
  0
ENDSEC
  0
SECTION
  2
ENTITIES
  0
IMAGE
  5
75
330
1F
100
AcDbEntity
  8
0
 92
      140
310
8C000000010000008400000006000000050000007B2AF04D7B252440CA7ECED2C0853A400000000000000000D287FE2793E75340CA7ECED2C0853A400000000000000000D287FE2793E75340FC7BB1D4D9E8424000000000000000007B2AF04D7B252440FC7BB1D4D9E8424000000000000000007B2AF04D7B252440CA7ECE
310
D2C0853A400000000000000000
100
AcDbRasterImage
 90
        0
 10
10.0732063633
 20
26.5224735026
 30
0.0
 11
0.1765105338580665
 21
0.0
 31
0.0
 12
0.0
 22
0.1765105338580665
 32
0.0
 13
394.0
 23
64.0
340
74
 70
     7
280
     0
281
    50
282
    50
283
     0
360
76
 71
     1
 91
        2
 14
-0.5
 24
-0.5
 14
393.5
 24
63.5
  0
LINE
  5
77
330
1F
100
AcDbEntity
  8
SLD-0
  6
Continuous
 62
   250
420
  1644836
 48
10.0
370
    40
100
AcDbLine
 10
10.0788435654
 20
5.2147801566
 30
0.0
 11
205.0788435654
 21
5.2147801566
 31
0.0
  0
LINE
  5
78
330
1F
100
AcDbEntity
  8
SLD-0
  6
Continuous
 62
   250
420
  1644836
 48
10.0
370
    40
100
AcDbLine
 10
0.0788435654
 20
0.2147801566
 30
0.0
 11
210.0788435654
 21
0.2147801566
 31
0.0
  0
LINE
  5
79
330
1F
100
AcDbEntity
  8
SLD-0
  6
Continuous
 62
   250
420
  1644836
 48
10.0
370
    40
100
AcDbLine
 10
0.0788435654
 20
0.2147801566
 30
0.0
 11
0.0788435654
 21
297.2147801566
 31
0.0
  0
LINE
  5
7A
330
1F
100
AcDbEntity
  8
SLD-0
  6
Continuous
 62
   250
420
  1644836
 48
10.0
370
    40
100
AcDbLine
 10
0.0788435654
 20
297.2147801566
 30
0.0
 11
210.0788435654
 21
297.2147801566
 31
0.0
  0
LINE
  5
7B
330
1F
100
AcDbEntity
  8
SLD-0
  6
Continuous
 62
   250
420
  1644836
 48
10.0
370
    40
100
AcDbLine
 10
210.0788435654
 20
0.2147801566
 30
0.0
 11
210.0788435654
 21
297.2147801566
 31
0.0
  0
LINE
  5
7C
330
1F
100
AcDbEntity
  8
SLD-0
  6
Continuous
 62
   250
420
  1644836
 48
10.0
370
    40
100
AcDbLine
 10
205.0788435654
 20
35.066192565
 30
0.0
 11
116.9116953245
 21
35.066192565
 31
0.0
  0
LINE
  5
7D
330
1F
100
AcDbEntity
  8
SLD-0
  6
Continuous
 62
   250
420
  1644836
 48
10.0
370
    40
100
AcDbLine
 10
10.0788435654
 20
292.2147801566
 30
0.0
 11
205.0788435654
 21
292.2147801566
 31
0.0
  0
LINE
  5
7E
330
1F
100
AcDbEntity
  8
SLD-0
  6
Continuous
 62
   250
420
  1644836
 48
10.0
370
    40
100
AcDbLine
 10
205.0788435654
 20
5.2147801566
 30
0.0
 11
180.9883118484
 21
5.2147801566
 31
0.0
  0
LINE
  5
7F
330
1F
100
AcDbEntity
  8
SLD-0
  6
Continuous
 62
   250
420
  1644836
 48
10.0
370
    40
100
AcDbLine
 10
10.0788435654
 20
5.2147801566
 30
0.0
 11
10.0788435654
 21
292.2147801566
 31
0.0
  0
LINE
  5
80
330
1F
100
AcDbEntity
  8
SLD-0
  6
Continuous
 62
   250
420
  1644836
 48
10.0
370
    40
100
AcDbLine
 10
10.0788435654
 20
11.2357498601
 30
0.0
 11
205.0788435654
 21
11.2357498601
 31
0.0
  0
LINE
  5
81
330
1F
100
AcDbEntity
  8
SLD-0
  6
Continuous
 62
   250
420
  1644836
 48
10.0
370
    40
100
AcDbLine
 10
205.0788435654
 20
43.3709272577
 30
0.0
 11
10.1108209117
 21
43.3709272577
 31
0.0
  0
LINE
  5
82
330
1F
100
AcDbEntity
  8
SLD-0
  6
Continuous
 62
   250
420
  1644836
 48
10.0
370
    40
100
AcDbLine
 10
210.0788435654
 20
292.2147801566
 30
0.0
 11
210.0788435654
 21
297.2147801566
 31
0.0
  0
LINE
  5
83
330
1F
100
AcDbEntity
  8
SLD-0
  6
Continuous
 62
   250
420
  1644836
 48
10.0
370
    40
100
AcDbLine
 10
79.7554204619
 20
22.1812450349
 30
0.0
 11
79.7554204619
 21
43.3709272577
 31
0.0
  0
LINE
  5
84
330
1F
100
AcDbEntity
  8
SLD-0
  6
Continuous
 62
   250
420
  1644836
 48
10.0
370
    40
100
AcDbLine
 10
10.1108209117
 20
60.3709272577
 30
0.0
 11
10.1108209117
 21
5.1209272577
 31
0.0
  0
LINE
  5
85
330
1F
100
AcDbEntity
  8
SLD-0
  6
Continuous
 62
   250
420
  1644836
 48
10.0
370
    40
100
AcDbLine
 10
10.0788435654
 20
22.2147801566
 30
0.0
 11
205.0788435654
 21
22.1209272577
 31
0.0
  0
LINE
  5
86
330
1F
100
AcDbEntity
  8
SLD-0
  6
Continuous
 62
   250
420
  1644836
 48
10.0
370
    40
100
AcDbLine
 10
116.9080516189
 20
43.3709272577
 30
0.0
 11
116.9173564476
 21
22.1633591097
 31
0.0
  0
LINE
  5
87
330
1F
100
AcDbEntity
  8
SLD-0
  6
Continuous
 62
   250
420
  1644836
 48
10.0
370
    40
100
AcDbLine
 10
160.8788435654
 20
5.2147801566
 30
0.0
 11
160.8788435654
 21
11.2357498601
 31
0.0
  0
LINE
  5
88
330
1F
100
AcDbEntity
  8
SLD-0
  6
Continuous
 62
   250
420
  1644836
 48
10.0
370
    40
100
AcDbLine
 10
192.0788435654
 20
11.2357498601
 30
0.0
 11
192.0788435654
 21
22.2147801566
 31
0.0
  0
LINE
  5
89
330
1F
100
AcDbEntity
  8
SLD-0
  6
Continuous
 62
   250
420
  1644836
 48
10.0
370
    40
100
AcDbLine
 10
205.0788435654
 20
13.7147801566
 30
0.0
 11
192.0788435654
 21
13.7147801566
 31
0.0
  0
LINE
  5
8A
330
1F
100
AcDbEntity
  8
SLD-0
  6
Continuous
 62
   250
420
  1644836
 48
10.0
370
    40
100
AcDbLine
 10
205.0788435654
 20
5.2147801566
 30
0.0
 11
205.0788435654
 21
292.2147801566
 31
0.0
  0
INSERT
  5
8B
330
1F
100
AcDbEntity
  8
0
  6
Continuous
 62
     7
 48
10.0
100
AcDbBlockReference
  2
SW_NOTE_0
 10
12.3050601837
 20
16.8389604502
 30
0.0
 41
0.1
 42
0.1
 43
0.1
  0
INSERT
  5
8C
330
1F
100
AcDbEntity
  8
0
  6
Continuous
 62
     7
 48
10.0
100
AcDbBlockReference
  2
SW_NOTE_1
 10
87.196611182
 20
32.8969357155
 30
0.0
 41
0.1
 42
0.1
 43
0.1
  0
MTEXT
  5
8D
330
1F
100
AcDbEntity
  8
SLD-0
 62
   250
420
  1644836
 48
10.0
100
AcDbMText
 10
131.9867841055
 20
40.6659704515
 30
0.0
 40
3.175
 41
0.0
 46
0.0
 71
     1
 72
     1
  1
Magnum Downpipe Clip
  7
SLDTEXTSTYLE0
 73
     1
 44
1.0
  0
MTEXT
  5
8F
330
1F
100
AcDbEntity
  8
SLD-0
 62
   250
420
  1644836
 48
10.0
100
AcDbMText
 10
195.9998284117
 20
18.8689860195
 30
0.0
 40
2.9104166667
 41
0.0
 46
0.0
 71
     1
 72
     1
  1
A4
  7
SLDTEXTSTYLE1
 73
     1
 44
1.0
  0
MTEXT
  5
91
330
1F
100
AcDbEntity
  8
SLD-0
 62
   250
420
  1644836
 48
10.0
100
AcDbMText
 10
164.0281072696
 20
8.5413340856
 30
0.0
 40
1.5
 41
0.0
 46
0.0
 71
     1
 72
     1
  1
SHEET 1 OF 1
  7
SLDTEXTSTYLE2
 73
     1
 44
1.0
  0
MTEXT
  5
92
330
1F
100
AcDbEntity
  8
SLD-0
 62
   250
420
  1644836
 48
10.0
100
AcDbMText
 10
14.3797311356
 20
8.5413340856
 30
0.0
 40
1.5
 41
0.0
 46
0.0
 71
     1
 72
     1
  1
SCALE:
  7
SLDTEXTSTYLE1
 73
     1
 44
1.0
  0
MTEXT
  5
93
330
1F
100
AcDbEntity
  8
SLD-0
 62
   250
420
  1644836
 48
10.0
100
AcDbMText
 10
92.7036146979
 20
40.1514661596
 30
0.0
 40
1.5
 41
0.0
 46
0.0
 71
     1
 72
     1
  1
CONTACT:
  7
SLDTEXTSTYLE1
 73
     1
 44
1.0
  0
MTEXT
  5
94
330
1F
100
AcDbEntity
  8
SLD-0
 62
   250
420
  1644836
 48
10.0
100
AcDbMText
 10
23.5366971372
 20
9.0162768564
 30
0.0
 40
2.1166666667
 41
0.0
 46
0.0
 71
     1
 72
     1
  1
1:2
  7
SLDTEXTSTYLE0
 73
     1
 44
1.0
  0
MTEXT
  5
95
330
1F
100
AcDbEntity
  8
SLD-0
 62
   250
420
  1644836
 48
10.0
100
AcDbMText
 10
122.1441575388
 20
38.7971767854
 30
0.0
 40
1.5
 41
0.0
 46
0.0
 71
     1
 72
     1
  1
DWG NO.
  7
SLDTEXTSTYLE1
 73
     1
 44
1.0
  0
MTEXT
  5
96
330
1F
100
AcDbEntity
  8
SLD-0
 62
   250
420
  1644836
 48
10.0
100
AcDbMText
 10
126.3785870833
 20
30.5042885129
 30
0.0
 40
3.175
 41
0.0
 46
0.0
 71
     1
 72
     1
  1
Magnum Downpipe - Aluminium Saddle Clip
  7
SLDTEXTSTYLE0
 73
     1
 44
1.0
  0
MTEXT
  5
97
330
1F
100
AcDbEntity
  8
SLD-0
 62
   250
420
  1644836
 48
10.0
100
AcDbMText
 10
128.9875122993
 20
8.4914975992
 30
0.0
 40
1.5
 41
0.0
 46
0.0
 71
     1
 72
     1
  1
DATE: 30/04/12
  7
SLDTEXTSTYLE1
 73
     1
 44
1.0
  0
INSERT
  5
9F
330
1F
100
AcDbEntity
  8
SLD-0
 48
10.0
100
AcDbBlockReference
  2
SW_NOTE_0_1
 10
11.5388503175
 20
53.0353735053
 30
0.0
  0
LINE
  5
A0
330
1F
100
AcDbEntity
  8
0
  6
Continuous
 62
     7
 48
10.0
370
    15
100
AcDbLine
 10
195.2579707366
 20
277.8805234889
 30
0.0
 11
194.9220248465
 21
278.0069402938
 31
0.0
  0
LINE
  5
A1
330
1F
100
AcDbEntity
  8
0
  6
Continuous
 62
     7
 48
10.0
370
    15
100
AcDbLine
 10
194.0767669021
 20
275.7607125655
 30
0.0
 11
194.4127127922
 21
275.6342957605
 31
0.0
  0
SPLINE
  5
A2
330
1F
100
AcDbEntity
  8
0
  6
Continuous
 62
     7
 48
10.0
370
    15
100
AcDbSpline
210
0.0
220
0.0
230
1.0
 70
     8
 71
     3
 72
    11
 73
     7
 74
     0
 42
0.00000001
 43
0.00000001
 40
0.0
 40
0.0
 40
0.0
 40
0.0
 40
0.1531390848990608
 40
0.4872241685828276
 40
0.8205888109551958
 40
1.0
 40
1.0
 40
1.0
 40
1.0
 10
165.8755364350504
 20
278.9486408626092
 30
0.0
 10
165.8206355085829
 20
278.8807300275477
 30
0.0
 10
165.6459638480452
 20
278.6646663089193
 30
0.0
 10
165.4084071061147
 20
278.2848388373972
 30
0.0
 10
165.1901604644524
 20
277.8866976309047
 30
0.0
 10
165.0956077442425
 20
277.6389207275931
 30
0.0
 10
165.062525420699
 20
277.5522279739231
 30
0.0
  0
LINE
  5
A3
330
1F
100
AcDbEntity
  8
0
  6
Continuous
 62
     7
 48
10.0
370
    15
100
AcDbLine
 10
164.7309685991
 20
275.8642095042
 30
0.0
 11
164.7526266839
 21
272.1440121027
 31
0.0
  0
SPLINE
  5
A4
330
1F
100
AcDbEntity
  8
0
  6
Continuous
 62
     7
 48
10.0
370
    15
100
AcDbSpline
210
0.0
220
0.0
230
1.0
 70
     8
 71
     3
 72
    42
 73
    38
 74
     0
 42
0.00000001
 43
0.00000001
 40
0.0
 40
0.0
 40
0.0
 40
0.0
 40
0.015405635097684
 40
0.0448033626016593
 40
0.0741981217066991
 40
0.1035879506141858
 40
0.1329775887716728
 40
0.1623709850464211
 40
0.1917706446421176
 40
0.2211777266947504
 40
0.2505924688071015
 40
0.2800144963778234
 40
0.3094430394063053
 40
0.3388770796497891
 40
0.3683154474703279
 40
0.3977568834735685
 40
0.4272000762668305
 40
0.4566436847197762
 40
0.48608604606338
 40
0.5155256492629758
 40
0.5449611356405074
 40
0.5743911679611171
 40
0.6038144584778021
 40
0.6332298160337286
 40
0.6626362218876398
 40
0.6920329474001242
 40
0.7214197308954745
 40
0.7507970353275893
 40
0.780166411112774
 40
0.8095309858023418
 40
0.8388948241631451
 40
0.8682643861942689
 40
0.8976502952934428
 40
0.9270671027496238
 40
0.9565331869612369
 40
0.9860693519257463
 40
1.0
 40
1.0
 40
1.0
 40
1.0
 10
186.5222578219684
 20
272.3845939603652
 30
0.0
 10
186.4459543753681
 20
272.316503099738
 30
0.0
 10
186.2240452515887
 20
272.1184781887754
 30
0.0
 10
185.8212142894771
 20
271.8036347737115
 30
0.0
 10
185.3010947450141
 20
271.4481386707248
 30
0.0
 10
184.7391383758998
 20
271.1142453635847
 30
0.0
 10
184.1388828679036
 20
270.8034063138897
 30
0.0
 10
183.5029707931006
 20
270.5172701567539
 30
0.0
 10
182.8345078484819
 20
270.2572747026546
 30
0.0
 10
182.136701327697
 20
270.0247556807901
 30
0.0
 10
181.41293821179
 20
269.8209056603949
 30
0.0
 10
180.6667393209387
 20
269.6467734437464
 30
0.0
 10
179.9017455543303
 20
269.5032550080575
 30
0.0
 10
179.1216956152132
 20
269.3910889405132
 30
0.0
 10
178.3304062463764
 20
269.3108524199328
 30
0.0
 10
177.5317520430156
 20
269.2629584538665
 30
0.0
 10
176.7296456040273
 20
269.2476539388771
 30
0.0
 10
175.9280205434519
 20
269.2650184383066
 30
0.0
 10
175.1308103449012
 20
269.314963175605
 30
0.0
 10
174.3419272001897
 20
269.3972310622068
 30
0.0
 10
173.5652396360585
 20
269.5113981011625
 30
0.0
 10
172.8045544854773
 20
269.6568751268754
 30
0.0
 10
172.063598688143
 20
269.8329098673921
 30
0.0
 10
171.3459996657488
 20
270.0385898417658
 30
0.0
 10
170.6552655461634
 20
270.2728461519032
 30
0.0
 10
169.9947650914372
 20
270.5344583946846
 30
0.0
 10
169.3677075358532
 20
270.8220610870345
 30
0.0
 10
168.7771214021982
 20
271.1341520496555
 30
0.0
 10
168.2258361232309
 20
271.4691038828626
 30
0.0
 10
167.7164609555209
 20
271.8251730214629
 30
0.0
 10
167.2513972011209
 20
272.2005190570018
 30
0.0
 10
166.8326996226046
 20
272.5932191322267
 30
0.0
 10
166.4624952180705
 20
273.0013494470299
 30
0.0
 10
166.1413643005874
 20
273.4228559995382
 30
0.0
 10
165.8744237156435
 20
273.856215623894
 30
0.0
 10
165.6886562886828
 20
274.2198539339912
 30
0.0
 10
165.6123556810705
 20
274.4404976858186
 30
0.0
 10
165.5879021534665
 20
274.5112116453111
 30
0.0
  0
SPLINE
  5
A5
330
1F
100
AcDbEntity
  8
0
  6
Continuous
 62
     7
 48
10.0
370
    15
100
AcDbSpline
210
0.0
220
0.0
230
1.0
 70
     8
 71
     3
 72
    42
 73
    38
 74
     0
 42
0.00000001
 43
0.00000001
 40
0.0
 40
0.0
 40
0.0
 40
0.0
 40
0.013884982162299
 40
0.0429400967398873
 40
0.0720755312310631
 40
0.1012858457371125
 40
0.130558562045501
 40
0.1598783570104158
 40
0.1892302681920862
 40
0.2186015363044003
 40
0.2479822856275087
 40
0.2773647191250835
 40
0.3067438021791108
 40
0.3361172432102152
 40
0.3654839670167327
 40
0.394843741816384
 40
0.4241969015791354
 40
0.4535441486258875
 40
0.482886418382608
 40
0.5122247897577598
 40
0.5415604277357511
 40
0.5708945479202381
 40
0.6002283953334457
 40
0.629563058319364
 40
0.6588995596254412
 40
0.6882391710419159
 40
0.717583153865892
 40
0.7469327388705651
 40
0.7762890927316148
 40
0.8056532631625348
 40
0.8350260924679825
 40
0.8644080858865897
 40
0.8937992174984022
 40
0.9231986538919272
 40
0.9526043771437133
 40
0.9820120125167523
 40
1.0
 40
1.0
 40
1.0
 40
1.0
 10
165.1142640402076
 20
270.4344973447132
 30
0.0
 10
165.144430119356
 20
270.3583814913916
 30
0.0
 10
165.2377204341548
 20
270.1229888875793
 30
0.0
 10
165.4520282522709
 20
269.7385717460939
 30
0.0
 10
165.7531423993524
 20
269.2831134258395
 30
0.0
 10
166.1088421620979
 20
268.8416632319311
 30
0.0
 10
166.513781804313
 20
268.4157043361506
 30
0.0
 10
166.9670674047333
 20
268.0074811372031
 30
0.0
 10
167.4662495330248
 20
267.6189159492778
 30
0.0
 10
168.0089856291414
 20
267.2518631719737
 30
0.0
 10
168.5926344533607
 20
266.908026443729
 30
0.0
 10
169.2144016391342
 20
266.5889750781243
 30
0.0
 10
169.8713344302788
 20
266.2961376169926
 30
0.0
 10
170.5603514077348
 20
266.0308056244106
 30
0.0
 10
171.2782501831785
 20
265.7941382428243
 30
0.0
 10
172.0217113500173
 20
265.5871655929876
 30
0.0
 10
172.7873097543392
 20
265.4107869428054
 30
0.0
 10
173.5715269993315
 20
265.2657681655058
 30
0.0
 10
174.3707650049692
 20
265.1527389211992
 30
0.0
 10
175.1813606081593
 20
265.072189950407
 30
0.0
 10
175.9996010194684
 20
265.0244707511007
 30
0.0
 10
176.8217399460893
 20
265.009787829636
 30
0.0
 10
177.6440125606911
 20
265.0282036140619
 30
0.0
 10
178.4626517130642
 20
265.0796357783449
 30
0.0
 10
179.2739073869435
 20
265.1638575263662
 30
0.0
 10
180.0740653391596
 20
265.2804993293039
 30
0.0
 10
180.8594642517016
 20
265.4290517037115
 30
0.0
 10
181.6265096320661
 20
265.6088680360143
 30
0.0
 10
182.3716886436712
 20
265.8191685232019
 30
0.0
 10
183.0915865144671
 20
266.0590437142615
 30
0.0
 10
183.7828924219777
 20
266.3274620503111
 30
0.0
 10
184.4424389068675
 20
266.6232638274531
 30
0.0
 10
185.0671093012305
 20
266.9452054364286
 30
0.0
 10
185.6542304627371
 20
267.291812874411
 30
0.0
 10
186.2001420277835
 20
267.6619378641901
 30
0.0
 10
186.6401580168949
 20
268.0021114006386
 30
0.0
 10
186.8877620955253
 20
268.2223380168931
 30
0.0
 10
186.9817348887663
 20
268.3059202841559
 30
0.0
  0
LINE
  5
A6
330
1F
100
AcDbEntity
  8
0
  6
Continuous
 62
     7
 48
10.0
370
    15
100
AcDbLine
 10
165.8068915657
 20
274.0095239296
 30
0.0
 11
165.8413796612
 21
274.0791089916
 31
0.0
  0
LINE
  5
A7
330
1F
100
AcDbEntity
  8
0
  6
Continuous
 62
     7
 48
10.0
370
    15
100
AcDbLine
 10
194.3737112418
 20
279.5600566131
 30
0.0
 11
186.522257822
 21
272.3845939604
 31
0.0
  0
LINE
  5
A8
330
1F
100
AcDbEntity
  8
0
  6
Continuous
 62
     7
 48
10.0
370
    15
100
AcDbLine
 10
186.9817348888
 20
268.3059202842
 30
0.0
 11
194.8331883086
 21
275.4813829369
 31
0.0
  0
SPLINE
  5
A9
330
1F
100
AcDbEntity
  8
0
  6
Continuous
 62
     7
 48
10.0
370
    15
100
AcDbSpline
210
0.0
220
0.0
230
1.0
 70
     8
 71
     3
 72
     9
 73
     5
 74
     0
 42
0.00000001
 43
0.00000001
 40
0.0
 40
0.0
 40
0.0
 40
0.0
 40
0.29221383733851
 40
0.9999999999999999
 40
0.9999999999999999
 40
0.9999999999999999
 40
0.9999999999999999
 10
194.8416530980543
 20
275.4954610599171
 30
0.0
 10
194.8606008317664
 20
275.543481224919
 30
0.0
 10
194.9254428456993
 20
275.7078135010331
 30
0.0
 10
194.9794176649685
 20
275.8755285765226
 30
0.0
 10
195.0176202951793
 20
275.9942349862238
 30
0.0
  0
SPLINE
  5
AA
330
1F
100
AcDbEntity
  8
0
  6
Continuous
 62
     7
 48
10.0
370
    15
100
AcDbSpline
210
0.0
220
0.0
230
1.0
 70
     8
 71
     3
 72
    14
 73
    10
 74
     0
 42
0.00000001
 43
0.00000001
 40
0.0
 40
0.0
 40
0.0
 40
0.0
 40
0.1189941721633874
 40
0.2768172275953895
 40
0.4355556915536365
 40
0.5950924719339157
 40
0.7540375563923807
 40
0.9095044161730308
 40
1.0
 40
1.0
 40
1.0
 40
1.0
 10
195.3369509397243
 20
277.8014905967479
 30
0.0
 10
195.3379687297069
 20
277.8966540996964
 30
0.0
 10
195.3403364238229
 20
278.1180338242287
 30
0.0
 10
195.3060607391603
 20
278.4337894559456
 30
0.0
 10
195.2394239937445
 20
278.7485060183092
 30
0.0
 10
195.1376468796851
 20
279.0258655185378
 30
0.0
 10
195.0011815082287
 20
279.2597583996863
 30
0.0
 10
194.8546244368736
 20
279.423306502486
 30
0.0
 10
194.7486161060995
 20
279.4957885594222
 30
0.0
 10
194.7096130548887
 20
279.5224564765368
 30
0.0
  0
LINE
  5
AB
330
1F
100
AcDbEntity
  8
0
  6
Continuous
 62
     7
 48
10.0
370
    15
100
AcDbLine
 10
174.5529037209
 20
287.0186481042
 30
0.0
 11
171.3931472648
 21
284.1309388828
 31
0.0
  0
SPLINE
  5
AC
330
1F
100
AcDbEntity
  8
0
  6
Continuous
 62
     7
 48
10.0
370
    15
100
AcDbSpline
210
0.0
220
0.0
230
1.0
 70
     8
 71
     3
 72
     9
 73
     5
 74
     0
 42
0.00000001
 43
0.00000001
 40
0.0
 40
0.0
 40
0.0
 40
0.0
 40
0.371861094700857
 40
1.0
 40
1.0
 40
1.0
 40
1.0
 10
175.0620664582413
 20
286.833815311869
 30
0.0
 10
175.0431296145459
 20
286.8558851076957
 30
0.0
 10
174.992205105461
 20
286.915234677041
 30
0.0
 10
174.9286972738377
 20
286.95565708227
 30
0.0
 10
174.8888055340039
 20
286.98104796764
 30
0.0
  0
SPLINE
  5
AD
330
1F
100
AcDbEntity
  8
0
  6
Continuous
 62
     7
 48
10.0
370
    15
100
AcDbSpline
210
0.0
220
0.0
230
1.0
 70
     8
 71
     3
 72
    19
 73
    15
 74
     0
 42
0.00000001
 43
0.00000001
 40
0.0
 40
0.0
 40
0.0
 40
0.0
 40
0.045148879468367
 40
0.1333391540593172
 40
0.2219492820064216
 40
0.3112149757443755
 40
0.4011089576336742
 40
0.4912606249194741
 40
0.5811501456999937
 40
0.6702469999100398
 40
0.7582002474310383
 40
0.8451035512133176
 40
0.9321043007727862
 40
1.0
 40
1.0
 40
1.0
 40
1.0
 10
190.2488541217779
 20
276.4404973879434
 30
0.0
 10
190.2290594176081
 20
276.4236695672852
 30
0.0
 10
190.1705992932386
 20
276.3739716036226
 30
0.0
 10
190.037721261853
 20
276.2975919919542
 30
0.0
 10
189.8437589004142
 20
276.2255723683821
 30
0.0
 10
189.6220103350072
 20
276.1788526918147
 30
0.0
 10
189.3856335542221
 20
276.1612630574306
 30
0.0
 10
189.1480993943031
 20
276.1744020348185
 30
0.0
 10
188.9237982256569
 20
276.2172996412315
 30
0.0
 10
188.7264048238055
 20
276.2861897482188
 30
0.0
 10
188.5673369163279
 20
276.374511211228
 30
0.0
 10
188.4553719364093
 20
276.4728236410501
 30
0.0
 10
188.395942518019
 20
276.5618822008001
 30
0.0
 10
188.3839401110042
 20
276.6115274002561
 30
0.0
 10
188.3786791006773
 20
276.6332883609285
 30
0.0
  0
LINE
  5
AE
330
1F
100
AcDbEntity
  8
0
  6
Continuous
 62
     7
 48
10.0
370
    15
100
AcDbLine
 10
193.9397264671
 20
279.8135947311
 30
0.0
 11
190.2488541218
 21
276.4404973879
 31
0.0
  0
SPLINE
  5
AF
330
1F
100
AcDbEntity
  8
0
  6
Continuous
 62
     7
 48
10.0
370
    15
100
AcDbSpline
210
0.0
220
0.0
230
1.0
 70
     8
 71
     3
 72
    11
 73
     7
 74
     0
 42
0.00000001
 43
0.00000001
 40
0.0
 40
0.0
 40
0.0
 40
0.0
 40
0.1617228696289698
 40
0.4621067412750868
 40
0.7629514095894072
 40
1.0
 40
1.0
 40
1.0
 40
1.0
 10
188.3786791006773
 20
276.6332883609285
 30
0.0
 10
188.3634263170076
 20
276.7191201539895
 30
0.0
 10
188.3198430305302
 20
276.9643758205517
 30
0.0
 10
188.2036239689331
 20
277.3650998653296
 30
0.0
 10
188.0337419953467
 20
277.7994544412875
 30
0.0
 10
187.883872213482
 20
278.0699391745009
 30
0.0
 10
187.8178248705196
 20
278.1891413093032
 30
0.0
  0
SPLINE
  5
B0
330
1F
100
AcDbEntity
  8
0
  6
Continuous
 62
     7
 48
10.0
370
    15
100
AcDbSpline
210
0.0
220
0.0
230
1.0
 70
     8
 71
     3
 72
    10
 73
     6
 74
     0
 42
0.00000001
 43
0.00000001
 40
0.0
 40
0.0
 40
0.0
 40
0.0
 40
0.3403114826034599
 40
0.9517063870709773
 40
1.0
 40
1.0
 40
1.0
 40
1.0
 10
199.5745270866079
 20
274.9462253155173
 30
0.0
 10
199.6231983586565
 20
274.978949563977
 30
0.0
 10
199.7593111930549
 20
275.0704653601325
 30
0.0
 10
199.8931268953215
 20
275.1812021362762
 30
0.0
 10
199.9618731297198
 20
275.2722476623416
 30
0.0
 10
199.9669058140045
 20
275.2789128039634
 30
0.0
  0
LINE
  5
B1
330
1F
100
AcDbEntity
  8
0
  6
Continuous
 62
     7
 48
10.0
370
    15
100
AcDbLine
 10
199.8385784716
 20
275.1458591267
 30
0.0
 11
199.9471335406
 21
275.245067872
 31
0.0
  0
SPLINE
  5
B2
330
1F
100
AcDbEntity
  8
0
  6
Continuous
 62
     7
 48
10.0
370
    15
100
AcDbSpline
210
0.0
220
0.0
230
1.0
 70
     8
 71
     3
 72
    18
 73
    14
 74
     0
 42
0.00000001
 43
0.00000001
 40
0.0
 40
0.0
 40
0.0
 40
0.0
 40
0.0643144803798294
 40
0.1581535004876144
 40
0.2524869021003792
 40
0.3475343599493184
 40
0.44328404667158
 40
0.5395714633402565
 40
0.6361897713117529
 40
0.7329662248046062
 40
0.8297769765491756
 40
0.926567438194958
 40
0.9999999999999999
 40
0.9999999999999999
 40
0.9999999999999999
 40
0.9999999999999999
 10
200.1206313656594
 20
275.4372456432484
 30
0.0
 10
200.1662671017796
 20
275.493359954934
 30
0.0
 10
200.2784883522993
 20
275.6313487059605
 30
0.0
 10
200.4086219311744
 20
275.8922799759694
 30
0.0
 10
200.5148646310035
 20
276.2088860321796
 30
0.0
 10
200.5732056715873
 20
276.5532384644869
 30
0.0
 10
200.5845512505429
 20
276.9187373246733
 30
0.0
 10
200.5479734109764
 20
277.3003491606883
 30
0.0
 10
200.4640063049649
 20
277.6918335797019
 30
0.0
 10
200.3342892482672
 20
278.0870854768244
 30
0.0
 10
200.1598873490782
 20
278.4792133737207
 30
0.0
 10
199.9649174853193
 20
278.8334387533528
 30
0.0
 10
199.8148552912777
 20
279.0483317979252
 30
0.0
 10
199.7501199157969
 20
279.1410345737139
 30
0.0
  0
LINE
  5
B3
330
1F
100
AcDbEntity
  8
0
  6
Continuous
 62
     7
 48
10.0
370
    15
100
AcDbLine
 10
199.747700073
 20
279.1454586344
 30
0.0
 11
196.9103677883
 21
280.2131498682
 31
0.0
  0
SPLINE
  5
B4
330
1F
100
AcDbEntity
  8
0
  6
Continuous
 62
     7
 48
10.0
370
    15
100
AcDbSpline
210
0.0
220
0.0
230
1.0
 70
     8
 71
     3
 72
    17
 73
    13
 74
     0
 42
0.00000001
 43
0.00000001
 40
0.0
 40
0.0
 40
0.0
 40
0.0
 40
0.0558534722865922
 40
0.1610515643609851
 40
0.2660724575880864
 40
0.3709621161306398
 40
0.4758490996489587
 40
0.5808530241497861
 40
0.6861046996394489
 40
0.7917524984889327
 40
0.8979036843124247
 40
1.0
 40
1.0
 40
1.0
 40
1.0
 10
196.910367788326
 20
280.2131498681781
 30
0.0
 10
196.8565518789258
 20
280.2322350445422
 30
0.0
 10
196.7013755569965
 20
280.2872664935049
 30
0.0
 10
196.4249136795392
 20
280.3543223141825
 30
0.0
 10
196.0820790302419
 20
280.4022255732102
 30
0.0
 10
195.7308186882329
 20
280.4157153213912
 30
0.0
 10
195.3802697527633
 20
280.3950763301602
 30
0.0
 10
195.0388692106721
 20
280.340524864657
 30
0.0
 10
194.7146080104476
 20
280.2532148733961
 30
0.0
 10
194.4164100540211
 20
280.1339803521574
 30
0.0
 10
194.1513824951332
 20
279.9888840035675
 30
0.0
 10
194.009356662574
 20
279.8712610608245
 30
0.0
 10
193.9397264671022
 20
279.8135947310618
 30
0.0
  0
LINE
  5
B5
330
1F
100
AcDbEntity
  8
0
  6
Continuous
 62
     7
 48
10.0
370
    15
100
AcDbLine
 10
196.6825944801
 20
276.0193724332
 30
0.0
 11
199.5199267648
 21
274.9516811994
 31
0.0
  0
SPLINE
  5
B6
330
1F
100
AcDbEntity
  8
0
  6
Continuous
 62
     7
 48
10.0
370
    15
100
AcDbSpline
210
0.0
220
0.0
230
1.0
 70
     8
 71
     3
 72
    14
 73
    10
 74
     0
 42
0.00000001
 43
0.00000001
 40
0.0
 40
0.0
 40
0.0
 40
0.0
 40
0.0593133829793517
 40
0.2365052843834692
 40
0.4142482644886351
 40
0.5922094698142237
 40
0.769958419918838
 40
0.9470408287456221
 40
1.0
 40
1.0
 40
1.0
 40
1.0
 10
195.0810297734469
 20
276.0771563379239
 30
0.0
 10
195.1102391245745
 20
276.0861846002306
 30
0.0
 10
195.226708048586
 20
276.1221837565267
 30
0.0
 10
195.4544692456887
 20
276.1568232329979
 30
0.0
 10
195.7520527305777
 20
276.1777250060172
 30
0.0
 10
196.0526433508375
 20
276.1653014383851
 30
0.0
 10
196.3424560560121
 20
276.1222010202388
 30
0.0
 10
196.5502757884134
 20
276.0673524650901
 30
0.0
 10
196.6578331032086
 20
276.0283511469045
 30
0.0
 10
196.6825944800513
 20
276.0193724331946
 30
0.0
  0
LINE
  5
B7
330
1F
100
AcDbEntity
  8
0
  6
Continuous
 62
     7
 48
10.0
370
    15
100
AcDbLine
 10
175.1267566168
 20
286.8929358074
 30
0.0
 11
172.4464831479
 21
284.443427271
 31
0.0
  0
SPLINE
  5
B8
330
1F
100
AcDbEntity
  8
0
  6
Continuous
 62
     7
 48
10.0
370
    15
100
AcDbSpline
210
0.0
220
0.0
230
1.0
 70
     8
 71
     3
 72
    14
 73
    10
 74
     0
 42
0.00000001
 43
0.00000001
 40
0.0
 40
0.0
 40
0.0
 40
0.0
 40
0.1355535614330881
 40
0.2858030145444547
 40
0.4378519590776123
 40
0.593828919636908
 40
0.7535744177045853
 40
0.9155077917525171
 40
1.0
 40
1.0
 40
1.0
 40
1.0
 10
175.9472840682703
 20
287.3221088649632
 30
0.0
 10
175.9439254886849
 20
287.3891735625125
 30
0.0
 10
175.9368442127675
 20
287.5305737037294
 30
0.0
 10
175.8582113002965
 20
287.7388752551085
 30
0.0
 10
175.7308171114595
 20
287.9410987672622
 30
0.0
 10
175.5530330726034
 20
288.1272897957882
 30
0.0
 10
175.3286184822638
 20
288.2933655398746
 30
0.0
 10
175.1064121214334
 20
288.4136023537366
 30
0.0
 10
174.9571050572349
 20
288.4730631896662
 30
0.0
 10
174.9059119812419
 20
288.4934505913521
 30
0.0
  0
LINE
  5
B9
330
1F
100
AcDbEntity
  8
0
  6
Continuous
 62
     7
 48
10.0
370
    15
100
AcDbLine
 10
175.9636097052
 20
284.9696457182
 30
0.0
 11
175.9498858482
 21
287.3269851415
 31
0.0
  0
SPLINE
  5
BA
330
1F
100
AcDbEntity
  8
0
  6
Continuous
 62
     7
 48
10.0
370
    15
100
AcDbSpline
210
0.0
220
0.0
230
1.0
 70
     8
 71
     3
 72
    11
 73
     7
 74
     0
 42
0.00000001
 43
0.00000001
 40
0.0
 40
0.0
 40
0.0
 40
0.0
 40
0.0655538357891093
 40
0.4029516165763861
 40
0.6943390120621478
 40
1.0
 40
1.0
 40
1.0
 40
1.0
 10
175.3452272282983
 20
287.3485980446816
 30
0.0
 10
175.3470239630619
 20
287.338876362114
 30
0.0
 10
175.358068277538
 20
287.2791183378987
 30
0.0
 10
175.3304023116746
 20
287.1769553142233
 30
0.0
 10
175.2615573196291
 20
287.0315872503584
 30
0.0
 10
175.1724006715658
 20
286.9398837381031
 30
0.0
 10
175.1267566167707
 20
286.8929358073632
 30
0.0
  0
LINE
  5
BB
330
1F
100
AcDbEntity
  8
0
  6
Continuous
 62
     7
 48
10.0
370
    15
100
AcDbLine
 10
174.9059119812
 20
288.4934505914
 30
0.0
 11
172.0685796965
 21
289.5611418251
 31
0.0
  0
SPLINE
  5
BC
330
1F
100
AcDbEntity
  8
0
  6
Continuous
 62
     7
 48
10.0
370
    15
100
AcDbSpline
210
0.0
220
0.0
230
1.0
 70
     8
 71
     3
 72
    18
 73
    14
 74
     0
 42
0.00000001
 43
0.00000001
 40
0.0
 40
0.0
 40
0.0
 40
0.0
 40
0.0844904622982502
 40
0.1763070959973592
 40
0.2686074564606455
 40
0.3616064840647618
 40
0.4552926063461362
 40
0.5495048696023711
 40
0.6440408929054388
 40
0.7387316534317729
 40
0.8334559730256547
 40
0.9281604398060104
 40
0.9999999999999999
 40
0.9999999999999999
 40
0.9999999999999999
 40
0.9999999999999999
 10
171.5130455783085
 20
289.1347014751974
 30
0.0
 10
171.4513953707649
 20
289.0596729378838
 30
0.0
 10
171.3227492636898
 20
288.9031101357536
 30
0.0
 10
171.1795016380391
 20
288.62086043367
 30
0.0
 10
171.0737454936152
 20
288.303851064316
 30
0.0
 10
171.0152727007775
 20
287.9596078431477
 30
0.0
 10
171.0039628075795
 20
287.5940794037073
 30
0.0
 10
171.0405309995593
 20
287.2124755601458
 30
0.0
 10
171.1245007176824
 20
286.8209889930864
 30
0.0
 10
171.2542170248259
 20
286.4257376530367
 30
0.0
 10
171.4286193030731
 20
286.0336096818348
 30
0.0
 10
171.623580695775
 20
285.6793981736483
 30
0.0
 10
171.7736332310491
 20
285.4645184327007
 30
0.0
 10
171.8383591076592
 20
285.3718290317975
 30
0.0
  0
LINE
  5
BD
330
1F
100
AcDbEntity
  8
0
  6
Continuous
 62
     7
 48
10.0
370
    15
100
AcDbLine
 10
171.7499279897
 20
289.3669638979
 30
0.0
 11
171.6413729207
 21
289.2677551525
 31
0.0
  0
SPLINE
  5
BE
330
1F
100
AcDbEntity
  8
0
  6
Continuous
 62
     7
 48
10.0
370
    15
100
AcDbSpline
210
0.0
220
0.0
230
1.0
 70
     8
 71
     3
 72
     9
 73
     5
 74
     0
 42
0.00000001
 43
0.00000001
 40
0.0
 40
0.0
 40
0.0
 40
0.0
 40
0.4272146875367741
 40
1.0
 40
1.0
 40
1.0
 40
1.0
 10
172.0139793746853
 20
289.5665977090294
 30
0.0
 10
171.9645705423592
 20
289.534601150454
 30
0.0
 10
171.8489171395914
 20
289.4597054141677
 30
0.0
 10
171.7515239357655
 20
289.3631293110175
 30
0.0
 10
171.6957385390803
 20
289.3078119375982
 30
0.0
  0
LINE
  5
BF
330
1F
100
AcDbEntity
  8
0
  6
Continuous
 62
     7
 48
10.0
370
    15
100
AcDbLine
 10
171.8408063883
 20
285.3673643901
 30
0.0
 11
172.4820298019
 21
285.1260713201
 31
0.0
  0
LINE
  5
C0
330
1F
100
AcDbEntity
  8
0
  6
Continuous
 62
     7
 48
10.0
370
    15
100
AcDbLine
 10
165.8158834647
 20
278.458576738
 30
0.0
 11
165.8422042666
 21
273.9374669623
 31
0.0
  0
LINE
  5
C1
330
1F
100
AcDbEntity
  8
0
  6
Continuous
 62
     7
 48
10.0
370
    15
100
AcDbLine
 10
165.8700676471
 20
269.1513893113
 30
0.0
 11
165.9891481429
 21
248.6969975257
 31
0.0
  0
LINE
  5
C2
330
1F
100
AcDbEntity
  8
0
  6
Continuous
 62
     7
 48
10.0
370
    15
100
AcDbLine
 10
187.988775331
 20
248.8250740063
 30
0.0
 11
187.8706331811
 21
269.1182866267
 31
0.0
  0
LINE
  5
C3
330
1F
100
AcDbEntity
  8
0
  6
Continuous
 62
     7
 48
10.0
370
    15
100
AcDbLine
 10
187.8445820839
 20
273.593069366
 30
0.0
 11
187.8155106528
 21
278.5866532187
 31
0.0
  0
LINE
  5
C4
330
1F
100
AcDbEntity
  8
0
  6
Continuous
 62
     7
 48
10.0
370
    15
100
AcDbLine
 10
166.4357091665
 20
246.8960127957
 30
0.0
 11
166.8826769365
 21
246.0035183867
 31
0.0
  0
LINE
  5
C5
330
1F
100
AcDbEntity
  8
0
  6
Continuous
 62
     7
 48
10.0
370
    15
100
AcDbLine
 10
187.1266676023
 20
246.1213739784
 30
0.0
 11
187.5632136566
 21
247.01901199
 31
0.0
  0
LWPOLYLINE
  5
C6
330
1F
100
AcDbEntity
  8
0
  6
Continuous
 62
     7
 48
10.0
370
    15
100
AcDbPolyline
 90
       28
 70
   128
 43
0.0
 10
195.0900522368
 20
276.0889551238
 10
195.2214379192
 20
276.3195078797
 10
195.332009058
 20
276.5736680321
 10
195.4158047344
 20
276.8377337412
 10
195.4683075018
 20
277.0974691565
 10
195.4866869225
 20
277.3388718743
 10
195.4699521572
 20
277.5489278118
 10
195.4190053813
 20
277.7163127989
 10
195.3365931487
 20
277.8320030677
 10
195.2271583243
 20
277.8897617259
 10
195.0966005677
 20
277.8864749891
 10
194.9519582814
 20
277.8223200464
 10
194.8010291685
 20
277.7007555071
 10
194.6519498565
 20
277.5283349472
 10
194.5127572498
 20
277.3143536036
 10
194.3909552577
 20
277.0703472659
 10
194.2931102572
 20
276.809470379
 10
194.2244970977
 20
276.5457868833
 10
194.1888147322
 20
276.2935120244
 10
194.1879868064
 20
276.0662460052
 10
194.2220579539
 20
275.8762407957
 10
194.2891913904
 20
275.7337396258
 10
194.385767935
 20
275.6464247705
 10
194.506581121
 20
275.6190033962
 10
194.6451178785
 20
275.6529537964
 10
194.7939096548
 20
275.7464456962
 10
194.9449350469
 20
275.8944389231
 10
195.0900522368
 20
276.0889551238
  0
LWPOLYLINE
  5
C7
330
1F
100
AcDbEntity
  8
0
  6
Continuous
 62
     7
 48
10.0
370
    15
100
AcDbPolyline
 90
       16
 70
   128
 43
0.0
 10
194.9220248465
 20
278.0069402938
 10
194.8912124341
 20
278.0161785308
 10
194.7606546775
 20
278.0128917941
 10
194.6160123912
 20
277.9487368513
 10
194.4650832783
 20
277.8271723121
 10
194.3160039663
 20
277.6547517521
 10
194.1768113596
 20
277.4407704085
 10
194.0550093675
 20
277.1967640708
 10
193.9571643671
 20
276.9358871839
 10
193.8885512075
 20
276.6722036882
 10
193.852868842
 20
276.4199288293
 10
193.8520409162
 20
276.1926628102
 10
193.8861120638
 20
276.0026576006
 10
193.9532455003
 20
275.8601564307
 10
194.0498220448
 20
275.7728415754
 10
194.0767669021
 20
275.7607125655
  0
ARC
  5
C8
330
1F
100
AcDbEntity
  8
0
  6
Continuous
 62
     7
 48
100.0
370
    15
100
AcDbCircle
 10
169.0538325515
 20
275.8889998498
 30
0.0
 40
4.320753810509747
100
AcDbArc
 50
158.0280495238
 51
203.1737324792
  0
ARC
  5
C9
330
1F
100
AcDbEntity
  8
0
  6
Continuous
 62
     7
 48
100.0
370
    15
100
AcDbCircle
 10
186.7297483305
 20
272.0886733574
 30
0.0
 40
0.2642848322044822
100
AcDbArc
 50
4.7467170056
 51
69.0574433543
  0
LINE
  5
CA
330
1F
100
AcDbEntity
  8
0
  6
Continuous
 62
     7
 48
10.0
370
    15
100
AcDbLine
 10
186.9931267306
 20
272.1105432193
 30
0.0
 11
187.0147848154
 21
268.3903458178
 31
0.0
  0
ARC
  5
CB
330
1F
100
AcDbEntity
  8
0
  6
Continuous
 62
     7
 48
100.0
370
    15
100
AcDbCircle
 10
169.1556750868
 20
272.1913957756
 30
0.0
 40
4.403303356671561
100
AcDbArc
 50
180.6165682111
 51
202.8483785878
  0
LINE
  5
CC
330
1F
100
AcDbEntity
  8
0
  6
Continuous
 62
     7
 48
10.0
370
    15
100
AcDbLine
 10
194.5264816856
 20
279.5913417779
 30
0.0
 11
186.6562391846
 21
272.3987077374
 31
0.0
  0
LINE
  5
CD
330
1F
100
AcDbEntity
  8
0
  6
Continuous
 62
     7
 48
10.0
370
    15
100
AcDbLine
 10
194.6944546307
 20
279.5281333754
 30
0.0
 11
194.5264816856
 21
279.5913417779
 31
0.0
  0
LINE
  5
CE
330
1F
100
AcDbEntity
  8
0
  6
Continuous
 62
     7
 48
10.0
370
    15
100
AcDbLine
 10
186.8242121297
 20
272.3354993349
 30
0.0
 11
194.6944546307
 21
279.5281333754
 31
0.0
  0
LINE
  5
CF
330
1F
100
AcDbEntity
  8
0
  6
Continuous
 62
     7
 48
10.0
370
    15
100
AcDbLine
 10
174.8736471098
 20
286.9867248665
 30
0.0
 11
174.7056741647
 21
287.049933269
 31
0.0
  0
ARC
  5
D0
330
1F
100
AcDbEntity
  8
0
  6
Continuous
 62
     7
 48
100.0
370
    15
100
AcDbCircle
 10
169.4171221191
 20
275.8911937291
 30
0.0
 40
4.084510525653879
100
AcDbArc
 50
160.9482784338
 51
200.403004819
  0
LINE
  5
D1
330
1F
100
AcDbEntity
  8
0
  6
Continuous
 62
     7
 48
10.0
370
    15
100
AcDbLine
 10
194.8160601984
 20
279.2599414176
 30
0.0
 11
186.9931267306
 21
272.1105432193
 31
0.0
  0
SPLINE
  5
D2
330
1F
100
AcDbEntity
  8
0
  6
Continuous
 62
     7
 48
10.0
370
    15
100
AcDbSpline
210
0.0
220
0.0
230
1.0
 70
     8
 71
     3
 72
    13
 73
     9
 74
     0
 42
0.00000001
 43
0.00000001
 40
0.0
 40
0.0
 40
0.0
 40
0.0
 40
0.1928700884369859
 40
0.3855075237867854
 40
0.5845107108083865
 40
0.7988566864648666
 40
0.9955104793729236
 40
1.0
 40
1.0
 40
1.0
 40
1.0
 10
194.6944546307268
 20
279.528133375384
 30
0.0
 10
194.7117637268126
 20
279.5194439282806
 30
0.0
 10
194.7463610395692
 20
279.5020755158788
 30
0.0
 10
194.7870022311728
 20
279.4532058592656
 30
0.0
 10
194.8146740611831
 20
279.3926233633953
 30
0.0
 10
194.8252072108577
 20
279.3258642522547
 30
0.0
 10
194.8208599170324
 20
279.2810526384547
 30
0.0
 10
194.8161649892653
 20
279.2604023326135
 30
0.0
 10
194.8160601984339
 20
279.2599414175953
 30
0.0
  0
LINE
  5
D3
330
1F
100
AcDbEntity
  8
0
  6
Continuous
 62
     7
 48
10.0
370
    15
100
AcDbLine
 10
187.0147848154
 20
268.3903458178
 30
0.0
 11
194.8377182832
 21
275.539744016
 31
0.0
  0
SPLINE
  5
D4
330
1F
100
AcDbEntity
  8
0
  6
Continuous
 62
     7
 48
10.0
370
    15
100
AcDbSpline
210
0.0
220
0.0
230
1.0
 70
     8
 71
     3
 72
    10
 73
     6
 74
     0
 42
0.00000001
 43
0.00000001
 40
0.0
 40
0.0
 40
0.0
 40
0.0
 40
0.3313901767936897
 40
0.6654933359926852
 40
1.0
 40
1.0
 40
1.0
 40
1.0
 10
194.3739349748859
 20
279.5597577445211
 30
0.0
 10
194.3884577656803
 20
279.5708785245892
 30
0.0
 10
194.4176222405819
 20
279.5932111268951
 30
0.0
 10
194.4720200581587
 20
279.6051717515239
 30
0.0
 10
194.508320507391
 20
279.5959536234498
 30
0.0
 10
194.5264816856346
 20
279.591341777851
 30
0.0
  0
SPLINE
  5
D5
330
1F
100
AcDbEntity
  8
0
  6
Continuous
 62
     7
 48
10.0
370
    15
100
AcDbSpline
210
0.0
220
0.0
230
1.0
 70
     8
 71
     3
 72
    11
 73
     7
 74
     0
 42
0.00000001
 43
0.00000001
 40
0.0
 40
0.0
 40
0.0
 40
0.0
 40
0.0187284922795403
 40
0.5249547757909049
 40
0.9893969861816498
 40
1.0
 40
1.0
 40
1.0
 40
1.0
 10
194.8329645754816
 20
275.4816818055319
 30
0.0
 10
194.833320685325
 20
275.4818407705062
 30
0.0
 10
194.8433023517717
 20
275.4862965174571
 30
0.0
 10
194.8462412155726
 20
275.5060452090815
 30
0.0
 10
194.8427156380754
 20
275.5276774758769
 30
0.0
 10
194.8378273889715
 20
275.5394805708595
 30
0.0
 10
194.8377182832061
 20
275.5397440160492
 30
0.0
  0
SPLINE
  5
D6
330
1F
100
AcDbEntity
  8
0
  6
Continuous
 62
     7
 48
10.0
370
    15
100
AcDbSpline
210
0.0
220
0.0
230
1.0
 70
     8
 71
     3
 72
    12
 73
     8
 74
     0
 42
0.00000001
 43
0.00000001
 40
0.0
 40
0.0
 40
0.0
 40
0.0
 40
0.2372134595459482
 40
0.4741407759987253
 40
0.7188974141929699
 40
0.9825243500090826
 40
1.0
 40
1.0
 40
1.0
 40
1.0
 10
174.873647109842
 20
286.9867248664872
 30
0.0
 10
174.8909344413487
 20
286.978039210801
 30
0.0
 10
174.9254882512011
 20
286.9606783766603
 30
0.0
 10
174.966459001998
 20
286.9117513104179
 30
0.0
 10
174.9928051961601
 20
286.8513997419925
 30
0.0
 10
175.0038393067349
 20
286.8039714593392
 30
0.0
 10
175.0013252206673
 20
286.7796715855483
 30
0.0
 10
175.0011689243884
 20
286.7781609054243
 30
0.0
  0
SPLINE
  5
D7
330
1F
100
AcDbEntity
  8
0
  6
Continuous
 62
     7
 48
10.0
370
    15
100
AcDbSpline
210
0.0
220
0.0
230
1.0
 70
     8
 71
     3
 72
    10
 73
     6
 74
     0
 42
0.00000001
 43
0.00000001
 40
0.0
 40
0.0
 40
0.0
 40
0.0
 40
0.3313901767936986
 40
0.6654933359926885
 40
1.0
 40
1.0
 40
1.0
 40
1.0
 10
174.553127454001
 20
287.0183492356243
 30
0.0
 10
174.5676502447955
 20
287.0294700156925
 30
0.0
 10
174.5968147196971
 20
287.0518026179984
 30
0.0
 10
174.6512125372738
 20
287.0637632426271
 30
0.0
 10
174.6875129865061
 20
287.054545114553
 30
0.0
 10
174.7056741647497
 20
287.0499332689542
 30
0.0
  0
LINE
  5
D8
330
1F
100
AcDbEntity
  8
0
  6
Continuous
 62
     7
 48
10.0
370
    15
100
AcDbLine
 10
196.7304329015
 20
280.0885031919
 30
0.0
 11
199.585972968
 21
279.0139603499
 31
0.0
  0
ARC
  5
D9
330
1F
100
AcDbEntity
  8
0
  6
Continuous
 62
     7
 48
100.0
370
    15
100
AcDbCircle
 10
195.7820114648
 20
277.6531970483
 30
0.0
 40
2.613468812586169
100
AcDbArc
 50
68.7217483363
 51
126.1131439812
  0
LINE
  5
DA
330
1F
100
AcDbEntity
  8
0
  6
Continuous
 62
     7
 48
10.0
370
    15
100
AcDbLine
 10
190.5508084295
 20
276.3914027625
 30
0.0
 11
194.2416807748
 21
279.7645001056
 31
0.0
  0
LWPOLYLINE
  5
DB
330
1F
100
AcDbEntity
  8
0
  6
Continuous
 62
     7
 48
10.0
370
    15
100
AcDbPolyline
 90
       12
 70
   128
 43
0.0
 10
187.9810893786
 20
276.7519213244
 10
188.0452788227
 20
276.5712099295
 10
188.1764826992
 20
276.4037355052
 10
188.3680886686
 20
276.2579383337
 10
188.6104402807
 20
276.1411662192
 10
188.8913236348
 20
276.0593041772
 10
189.1965829291
 20
276.0164778449
 10
189.5108338768
 20
276.01484556
 10
189.8182390346
 20
276.0544895854
 10
190.1033059699
 20
276.1334119637
 10
190.351668039
 20
276.2476352091
 10
190.5508084295
 20
276.3914027625
  0
LWPOLYLINE
  5
DC
330
1F
100
AcDbEntity
  8
0
  6
Continuous
 62
     7
 48
10.0
370
    15
100
AcDbPolyline
 90
        9
 70
   128
 43
0.0
 10
174.7259770944
 20
288.3688039151
 10
175.002133461
 20
288.2406653727
 10
175.2301318995
 20
288.0831382947
 10
175.4012105578
 20
287.9022763582
 10
175.508794979
 20
287.705029986
 10
175.5487507541
 20
287.4989792457
 10
175.519542405
 20
287.2920425515
 10
175.4222923923
 20
287.0921723647
 10
175.2607379794
 20
286.9070495844
  0
LINE
  5
DD
330
1F
100
AcDbEntity
  8
0
  6
Continuous
 62
     7
 48
10.0
370
    15
100
AcDbLine
 10
171.8704370278
 20
289.443346757
 30
0.0
 11
174.7259770944
 21
288.3688039151
 31
0.0
  0
LINE
  5
DE
330
1F
100
AcDbEntity
  8
0
  6
Continuous
 62
     7
 48
10.0
370
    15
100
AcDbLine
 10
171.9789920968
 20
289.5425555024
 30
0.0
 11
171.8704370278
 21
289.443346757
 31
0.0
  0
LINE
  5
DF
330
1F
100
AcDbEntity
  8
0
  6
Continuous
 62
     7
 48
10.0
370
    15
100
AcDbLine
 10
174.8345321633
 20
288.4680126604
 30
0.0
 11
171.9789920968
 21
289.5425555024
 31
0.0
  0
LWPOLYLINE
  5
E0
330
1F
100
AcDbEntity
  8
0
  6
Continuous
 62
     7
 48
10.0
370
    15
100
AcDbPolyline
 90
        9
 70
   128
 43
0.0
 10
175.4287109245
 20
286.8438411819
 10
175.6082158277
 20
287.04953316
 10
175.7162713974
 20
287.2716111454
 10
175.7487251186
 20
287.5015408056
 10
175.7043298129
 20
287.7304860726
 10
175.5847915672
 20
287.9496487083
 10
175.3947041691
 20
288.1506064156
 10
175.1413725707
 20
288.3256365023
 10
174.8345321633
 20
288.4680126604
  0
LWPOLYLINE
  5
E1
330
1F
100
AcDbEntity
  8
0
  6
Continuous
 62
     7
 48
10.0
370
    15
100
AcDbPolyline
 90
       11
 70
   128
 43
0.0
 10
190.3828354844
 20
276.454611165
 10
190.1925921084
 20
276.3203593556
 10
189.9525352749
 20
276.2173936272
 10
189.6772908942
 20
276.1519873589
 10
189.3836287436
 20
276.1281255494
 10
189.0894407375
 20
276.1472620242
 10
188.812650829
 20
276.2082308577
 10
188.5701229596
 20
276.30731741
 10
188.3766335922
 20
276.4384846481
 10
188.2439714274
 20
276.5937409634
 10
188.1802191551
 20
276.7636270752
  0
LINE
  5
E2
330
1F
100
AcDbEntity
  8
0
  6
Continuous
 62
     7
 48
10.0
370
    15
100
AcDbLine
 10
194.0737078297
 20
279.8277085081
 30
0.0
 11
190.3828354844
 21
276.454611165
 31
0.0
  0
ARC
  5
E3
330
1F
100
AcDbEntity
  8
0
  6
Continuous
 62
     7
 48
100.0
370
    15
100
AcDbCircle
 10
195.7851863742
 20
277.4818162222
 30
0.0
 40
2.903854236206243
100
AcDbArc
 50
68.7217483363
 51
126.1131439812
  0
LINE
  5
E4
330
1F
100
AcDbEntity
  8
0
  6
Continuous
 62
     7
 48
10.0
370
    15
100
AcDbLine
 10
199.694528037
 20
279.1131690953
 30
0.0
 11
196.8389879704
 21
280.1877119373
 31
0.0
  0
LINE
  5
E5
330
1F
100
AcDbEntity
  8
0
  6
Continuous
 62
     7
 48
10.0
370
    15
100
AcDbLine
 10
199.694528037
 20
279.1131690953
 30
0.0
 11
199.585972968
 21
279.0139603499
 31
0.0
  0
ARC
  5
E6
330
1F
100
AcDbEntity
  8
0
  6
Continuous
 62
     7
 48
100.0
370
    15
100
AcDbCircle
 10
188.2088042593
 20
276.5933312386
 30
0.0
 40
0.1726782561069669
100
AcDbArc
 50
6.7358739664
 51
99.5285873404
  0
LWPOLYLINE
  5
E7
330
1F
100
AcDbEntity
  8
0
  6
Continuous
 62
     7
 48
10.0
370
    15
100
AcDbPolyline
 90
        3
 70
   128
 43
0.0
 10
199.96050386
 20
275.2695390139
 10
199.8762223429
 20
275.1813506847
 10
199.8385784716
 20
275.1458591267
  0
SPLINE
  5
E8
330
1F
100
AcDbEntity
  8
0
  6
Continuous
 62
     7
 48
10.0
370
    15
100
AcDbSpline
210
0.0
220
0.0
230
1.0
 70
     8
 71
     3
 72
    13
 73
     9
 74
     0
 42
0.00000001
 43
0.00000001
 40
0.0
 40
0.0
 40
0.0
 40
0.0
 40
0.1254608901266983
 40
0.3341868570690537
 40
0.5498102251868355
 40
0.7820577680793264
 40
0.9951355273584711
 40
1.0
 40
1.0
 40
1.0
 40
1.0
 10
199.5945757615501
 20
274.9616798402195
 30
0.0
 10
199.5872183092439
 20
274.9567060985557
 30
0.0
 10
199.5676204579949
 20
274.9434576743428
 30
0.0
 10
199.5310742652788
 20
274.9452485005213
 30
0.0
 10
199.4899203119026
 20
274.9650722605298
 30
0.0
 10
199.453677614028
 20
275.0046728381693
 30
0.0
 10
199.4345705277653
 20
275.0409151745904
 30
0.0
 10
199.4269832424402
 20
275.0599287558734
 30
0.0
 10
199.4268138941613
 20
275.0603531391843
 30
0.0
  0
LWPOLYLINE
  5
E9
330
1F
100
AcDbEntity
  8
0
  6
Continuous
 62
     7
 48
10.0
370
    15
100
AcDbPolyline
 90
       11
 70
   128
 43
0.0
 10
199.4268138942
 20
275.0603531392
 10
199.6853002502
 20
275.2836538136
 10
199.8918224417
 20
275.5597434343
 10
200.0419103139
 20
275.8826460656
 10
200.132315228
 20
276.2453725084
 10
200.1610803777
 20
276.6400715808
 10
200.1275831437
 20
277.0582000561
 10
200.0325485707
 20
277.4907075802
 10
199.8780336738
 20
277.9282325657
 10
199.6673829143
 20
278.3613048229
 10
199.4051558094
 20
278.7805505407
  0
SPLINE
  5
EA
330
1F
100
AcDbEntity
  8
0
  6
Continuous
 62
     7
 48
10.0
370
    15
100
AcDbSpline
210
0.0
220
0.0
230
1.0
 70
     8
 71
     3
 72
    13
 73
     9
 74
     0
 42
0.00000001
 43
0.00000001
 40
0.0
 40
0.0
 40
0.0
 40
0.0
 40
0.1928700884369866
 40
0.3855075237867793
 40
0.584510710808384
 40
0.7988566864648631
 40
0.995510479372925
 40
1.0
 40
1.0
 40
1.0
 40
1.0
 10
199.585972968021
 20
279.0139603499386
 30
0.0
 10
199.5737995858071
 20
279.0021488921636
 30
0.0
 10
199.5494675057452
 20
278.9785402244017
 30
0.0
 10
199.5079343459297
 20
278.9300501451723
 30
0.0
 10
199.4671275392748
 20
278.8771827720011
 30
0.0
 10
199.431439194269
 20
278.8253556314255
 30
0.0
 10
199.4127192914827
 20
278.7942871209079
 30
0.0
 10
199.4053209406484
 20
278.7808504474078
 30
0.0
 10
199.4051558093891
 20
278.7805505407304
 30
0.0
  0
LWPOLYLINE
  5
EB
330
1F
100
AcDbEntity
  8
0
  6
Continuous
 62
     7
 48
10.0
370
    15
100
AcDbPolyline
 90
        3
 70
   128
 43
0.0
 10
199.9471335406
 20
275.245067872
 10
199.9847774119
 20
275.2805594301
 10
200.1142433206
 20
275.4217846775
  0
LWPOLYLINE
  5
EC
330
1F
100
AcDbEntity
  8
0
  6
Continuous
 62
     7
 48
10.0
370
    15
100
AcDbPolyline
 90
       20
 70
   128
 43
0.0
 10
199.3212156522
 20
276.9561135931
 10
199.2929946743
 20
277.1239461997
 10
199.2132244523
 20
277.2941403727
 10
199.0905493276
 20
277.4482529327
 10
198.9382630534
 20
277.5695833924
 10
198.7728682104
 20
277.644983714
 10
198.6122878964
 20
277.6662831027
 10
198.47392348
 20
277.6311734391
 10
198.3727688926
 20
277.5434594002
 10
198.3197858034
 20
277.412646163
 10
198.3207157521
 20
277.2529093716
 10
198.3754579645
 20
277.0815589859
 10
198.4780802724
 20
276.9171634789
 10
198.6174619563
 20
276.7775376548
 10
198.7784988482
 20
276.6778121381
 10
198.943740102
 20
276.6287937358
 10
199.0952792639
 20
276.6357943526
 10
199.2166947143
 20
276.6980553629
 10
199.2948292052
 20
276.8088298201
 10
199.3212156522
 20
276.9561135931
  0
LINE
  5
ED
330
1F
100
AcDbEntity
  8
0
  6
Continuous
 62
     7
 48
10.0
370
    15
100
AcDbLine
 10
199.4051558094
 20
278.7805505407
 30
0.0
 11
196.6228194883
 21
279.8275467334
 31
0.0
  0
LINE
  5
EE
330
1F
100
AcDbEntity
  8
0
  6
Continuous
 62
     7
 48
10.0
370
    15
100
AcDbLine
 10
196.6444775731
 20
276.1073493318
 30
0.0
 11
199.4268138942
 21
275.0603531392
 31
0.0
  0
LINE
  5
EF
330
1F
100
AcDbEntity
  8
0
  6
Continuous
 62
     7
 48
10.0
370
    15
100
AcDbLine
 10
196.6228194883
 20
279.8275467334
 30
0.0
 11
196.6444775731
 21
276.1073493318
 31
0.0
  0
SPLINE
  5
F0
330
1F
100
AcDbEntity
  8
0
  6
Continuous
 62
     7
 48
10.0
370
    15
100
AcDbSpline
210
0.0
220
0.0
230
1.0
 70
     8
 71
     3
 72
    10
 73
     6
 74
     0
 42
0.00000001
 43
0.00000001
 40
0.0
 40
0.0
 40
0.0
 40
0.0
 40
0.2497288246258246
 40
0.6246380186702368
 40
1.0
 40
1.0
 40
1.0
 40
1.0
 10
199.7499374370367
 20
279.1408539117639
 30
0.0
 10
199.7486284384704
 20
279.1430667997931
 30
0.0
 10
199.7453542859086
 20
279.1486018196138
 30
0.0
 10
199.7265660644072
 20
279.1403040127934
 30
0.0
 10
199.7052116752481
 20
279.1222177061651
 30
0.0
 10
199.6945280370011
 20
279.1131690953244
 30
0.0
  0
ARC
  5
F1
330
1F
100
AcDbEntity
  8
0
  6
Continuous
 62
     7
 48
100.0
370
    15
100
AcDbCircle
 10
197.0114681104
 20
279.8199426113
 30
0.0
 40
0.3887230043015006
100
AcDbArc
 50
136.3002662385
 51
178.8791198674
  0
ARC
  5
F2
330
1F
100
AcDbEntity
  8
0
  6
Continuous
 62
     7
 48
100.0
370
    15
100
AcDbCircle
 10
199.3866109697
 20
277.6660364095
 30
0.0
 40
0.7465204494051346
100
AcDbArc
 50
179.9548119054
 51
264.8937221825
  0
ARC
  5
F3
330
1F
100
AcDbEntity
  8
0
  6
Continuous
 62
     7
 48
100.0
370
    15
100
AcDbCircle
 10
175.3342471253
 20
286.5970152044
 30
0.0
 40
0.2642848322043642
100
AcDbArc
 50
4.7467170056
 51
69.0574433543
  0
LWPOLYLINE
  5
F4
330
1F
100
AcDbEntity
  8
0
  6
Continuous
 62
     7
 48
10.0
370
    15
100
AcDbPolyline
 90
        3
 70
   128
 43
0.0
 10
175.3498960158
 20
287.3234921466
 10
175.3497180454
 20
287.3346699727
 10
175.3487409598
 20
287.3561617589
  0
ARC
  5
F5
330
1F
100
AcDbEntity
  8
0
  6
Continuous
 62
     7
 48
100.0
370
    15
100
AcDbCircle
 10
175.0070123033
 20
288.1002433345
 30
0.0
 40
0.3887230043017734
100
AcDbArc
 50
136.3002662385
 51
178.8791198674
  0
LINE
  5
F6
330
1F
100
AcDbEntity
  8
0
  6
Continuous
 62
     7
 48
10.0
370
    15
100
AcDbLine
 10
174.6183636812
 20
288.1078474566
 30
0.0
 11
171.8360273602
 21
289.1548436492
 31
0.0
  0
SPLINE
  5
F7
330
1F
100
AcDbEntity
  8
0
  6
Continuous
 62
     7
 48
10.0
370
    15
100
AcDbSpline
210
0.0
220
0.0
230
1.0
 70
     8
 71
     3
 72
    13
 73
     9
 74
     0
 42
0.00000001
 43
0.00000001
 40
0.0
 40
0.0
 40
0.0
 40
0.0
 40
0.0044895206270765
 40
0.2011433135351372
 40
0.4154892891916143
 40
0.6144924762132171
 40
0.8071299115630172
 40
1.0
 40
1.0
 40
1.0
 40
1.0
 10
171.8360273601916
 20
289.1548436492048
 30
0.0
 10
171.83585908995
 20
289.1552690152308
 30
0.0
 10
171.8283201037691
 20
289.1743266249437
 30
0.0
 10
171.8162115804142
 20
289.2169959058467
 30
0.0
 10
171.8105378312208
 20
289.2843876475881
 30
0.0
 10
171.8185104014383
 20
289.349610579747
 30
0.0
 10
171.838172153478
 20
289.4063308935802
 30
0.0
 10
171.8596777434983
 20
289.4310031726281
 30
0.0
 10
171.8704370278006
 20
289.4433467569897
 30
0.0
  0
LWPOLYLINE
  5
F8
330
1F
100
AcDbEntity
  8
0
  6
Continuous
 62
     7
 48
10.0
370
    15
100
AcDbPolyline
 90
       20
 70
   128
 43
0.0
 10
171.9416256022
 20
287.2590831953
 10
171.9698465801
 20
287.0912505887
 10
172.0496168021
 20
286.9210564157
 10
172.1722919268
 20
286.7669438557
 10
172.324578201
 20
286.645613396
 10
172.4899730439
 20
286.5702130743
 10
172.6505533579
 20
286.5489136857
 10
172.7889177744
 20
286.5840233493
 10
172.8900723618
 20
286.6717373882
 10
172.943055451
 20
286.8025506254
 10
172.9421255022
 20
286.9622874168
 10
172.8873832898
 20
287.1336378025
 10
172.784760982
 20
287.2980333095
 10
172.645379298
 20
287.4376591336
 10
172.4843424061
 20
287.5373846503
 10
172.3191011524
 20
287.5864030526
 10
172.1675619905
 20
287.5794024358
 10
172.0461465401
 20
287.5171414255
 10
171.9680120491
 20
287.4063669682
 10
171.9416256022
 20
287.2590831953
  0
LWPOLYLINE
  5
F9
330
1F
100
AcDbEntity
  8
0
  6
Continuous
 62
     7
 48
10.0
370
    15
100
AcDbPolyline
 90
       11
 70
   128
 43
0.0
 10
171.8360273602
 20
289.1548436492
 10
171.5775410041
 20
288.9315429747
 10
171.3710188126
 20
288.6554533541
 10
171.2209309405
 20
288.3325507228
 10
171.1305260263
 20
287.96982428
 10
171.1017608767
 20
287.5751252076
 10
171.1352581107
 20
287.1569967323
 10
171.2302926836
 20
286.7244892082
 10
171.3848075805
 20
286.2869642227
 10
171.59545834
 20
285.8538919655
 10
171.857685445
 20
285.4346462477
  0
LINE
  5
FA
330
1F
100
AcDbEntity
  8
0
  6
Continuous
 62
     7
 48
10.0
370
    15
100
AcDbLine
 10
171.9789920968
 20
289.5425555024
 30
0.0
 11
171.9939306997
 21
289.5511431843
 31
0.0
  0
SPLINE
  5
FB
330
1F
100
AcDbEntity
  8
0
  6
Continuous
 62
     7
 48
10.0
370
    15
100
AcDbSpline
210
0.0
220
0.0
230
1.0
 70
     8
 71
     3
 72
    10
 73
     6
 74
     0
 42
0.00000001
 43
0.00000001
 40
0.0
 40
0.0
 40
0.0
 40
0.0
 40
0.0648058368572087
 40
0.790090800750625
 40
1.0
 40
1.0
 40
1.0
 40
1.0
 10
172.0130357972614
 20
289.5621260387182
 30
0.0
 10
172.0141427167891
 20
289.5627845730674
 30
0.0
 10
172.027637904544
 20
289.57081320068
 30
0.0
 10
172.0475715352149
 20
289.5700830266853
 30
0.0
 10
172.0641176037777
 20
289.5612950290092
 30
0.0
 10
172.0678314550181
 20
289.5593225171738
 30
0.0
  0
SPLINE
  5
FC
330
1F
100
AcDbEntity
  8
0
  6
Continuous
 62
     7
 48
10.0
370
    15
100
AcDbSpline
210
0.0
220
0.0
230
1.0
 70
     8
 71
     3
 72
    11
 73
     7
 74
     0
 42
0.00000001
 43
0.00000001
 40
0.0
 40
0.0
 40
0.0
 40
0.0
 40
0.0080350788027713
 40
0.3599944201524939
 40
0.743618185030928
 40
1.0
 40
1.0
 40
1.0
 40
1.0
 10
171.8576854449638
 20
285.4346462476588
 30
0.0
 10
171.8575213670835
 20
285.434347295536
 30
0.0
 10
171.8501702106349
 20
285.4209533888017
 30
0.0
 10
171.8387533130772
 20
285.3966595044049
 30
0.0
 10
171.8327976643533
 20
285.3733309669614
 30
0.0
 10
171.8390499909201
 20
285.3703698864717
 30
0.0
 10
171.8415546297599
 20
285.3691836980789
 30
0.0
  0
LWPOLYLINE
  5
FD
330
1F
100
AcDbEntity
  8
0
  6
Continuous
 62
     7
 48
10.0
370
    15
100
AcDbPolyline
 90
        3
 70
   128
 43
0.0
 10
171.5194475323
 20
289.1440752652
 10
171.6037290494
 20
289.2322635944
 10
171.6413729207
 20
289.2677551525
  0
ARC
  5
FE
330
1F
100
AcDbEntity
  8
0
  6
Continuous
 62
     7
 48
100.0
370
    15
100
AcDbCircle
 10
173.0185478912
 20
287.5931272581
 30
0.0
 40
0.7502146797546191
100
AcDbArc
 50
180.2125371543
 51
264.6359969336
  0
LWPOLYLINE
  5
FF
330
1F
100
AcDbEntity
  8
0
  6
Continuous
 62
     7
 48
10.0
370
    15
100
AcDbPolyline
 90
       84
 70
   128
 43
0.0
 10
167.5771850787
 20
281.999077114
 10
168.0551873637
 20
282.4017874986
 10
168.5833690548
 20
282.7822783342
 10
169.1587047752
 20
283.1383702039
 10
169.777899054
 20
283.4680234457
 10
170.4374052025
 20
283.7693498356
 10
171.1334456291
 20
284.0406234034
 10
171.8620334773
 20
284.2802903186
 10
172.6189954618
 20
284.4869777909
 10
173.3999957731
 20
284.6595019332
 10
174.2005609121
 20
284.7968745427
 10
175.016105314
 20
284.8983087616
 10
175.8419576145
 20
284.9632235839
 10
176.6733874064
 20
284.9912471834
 10
177.505632335
 20
284.9822190434
 10
178.3339253769
 20
284.9361908763
 10
179.1535221444
 20
284.8534263272
 10
179.9597280616
 20
284.7343994641
 10
180.7479252539
 20
284.579792062
 10
181.5135989992
 20
284.390489698
 10
182.2523635877
 20
284.1675766791
 10
182.9599874426
 20
283.9123298307
 10
183.6324173586
 20
283.6262111838
 10
184.265801718
 20
283.3108596
 10
184.8565125526
 20
282.9680813846
 10
185.4011663243
 20
282.5998399402
 10
185.8966433055
 20
282.2082445204
 10
186.3401054489
 20
281.7955381484
 10
186.7290126437
 20
281.3640847689
 10
187.0611372645
 20
280.9163557077
 10
187.3345769316
 20
280.4549155164
 10
187.5477654074
 20
279.9824072827
 10
187.6994815675
 20
279.5015374908
 10
187.7888563957
 20
279.0150605194
 10
187.8153779609
 20
278.5257628645
 10
187.7788943499
 20
278.0364471788
 10
187.6796145378
 20
277.5499162183
 10
187.5181071901
 20
277.0689567882
 10
187.2952974064
 20
276.5963237805
 10
187.012461421
 20
276.1347243944
 10
186.6712192927
 20
275.6868026293
 10
186.2735256255
 20
275.2551241405
 10
185.8216583728
 20
274.8421615434
 10
185.3182057893
 20
274.4502802502
 10
184.7660516057
 20
274.0817249215
 10
184.1683585113
 20
273.738606609
 10
183.5285500379
 20
273.4228906631
 10
182.8502909506
 20
273.1363854763
 10
182.137466256
 20
272.8807321243
 10
181.3941589493
 20
272.6573949664
 10
180.6246266275
 20
272.4676532575
 10
179.8332771021
 20
272.3125938211
 10
179.0246431515
 20
272.1931048234
 10
178.2033565577
 20
272.1098706868
 10
177.374121576
 20
272.0633681687
 10
176.5416879892
 20
272.0538636313
 10
175.7108239015
 20
272.0814115159
 10
174.8862884273
 20
272.1458540307
 10
174.0728044309
 20
272.2468220546
 10
173.2750314751
 20
272.3837372521
 10
172.4975391312
 20
272.5558153853
 10
171.7447808048
 20
272.7620708061
 10
171.0210682275
 20
273.0013221024
 10
170.3305467593
 20
273.2721988642
 10
169.6771716448
 20
273.5731495341
 10
169.0646853574
 20
273.9024502938
 10
168.4965961632
 20
274.2582149384
 10
167.9761580254
 20
274.6384056802
 10
167.5063519668
 20
275.0408448212
 10
167.0898689938
 20
275.4632272263
 10
166.7290946831
 20
275.9031335274
 10
166.4260955175
 20
276.3580439811
 10
166.1826070486
 20
276.8253529014
 10
166.0000239564
 20
277.3023835851
 10
165.8793920602
 20
277.7864036438
 10
165.8214023287
 20
278.2746406544
 10
165.8263869217
 20
278.7642980394
 10
165.8943172881
 20
279.2525710857
 10
166.0248043287
 20
279.7366630095
 10
166.2171006257
 20
280.2138009762
 10
166.4701047232
 20
280.6812519826
 10
166.7823674367
 20
281.1363385118
 10
167.1521001538
 20
281.5764538692
 10
167.5771850787
 20
281.999077114
  0
LWPOLYLINE
  5
100
330
1F
100
AcDbEntity
  8
0
  6
Continuous
 62
     7
 48
10.0
370
    15
100
AcDbPolyline
 90
       81
 70
   128
 43
0.0
 10
168.2490768591
 20
281.7462435042
 10
167.8411111302
 20
281.3393308822
 10
167.4884767079
 20
280.9150522701
 10
167.1933477007
 20
280.4760234865
 10
166.9575436771
 20
280.0249512899
 10
166.7825184472
 20
279.5646166903
 10
166.6693510998
 20
279.0978578037
 10
166.6187393493
 20
278.6275523538
 10
166.6309952339
 20
278.15659993
 10
166.7060431919
 20
277.6879041108
 10
166.8434205279
 20
277.2243545616
 10
167.0422802648
 20
276.7688092196
 10
167.3013963663
 20
276.3240766733
 10
167.6191712953
 20
275.8928988467
 10
167.9936458638
 20
275.4779340946
 10
168.4225113116
 20
275.0817408126
 10
168.9031235405
 20
274.706761664
 10
169.4325194163
 20
274.35530852
 10
170.0074350375
 20
274.029548206
 10
170.624325858
 20
273.7314891429
 10
171.2793885408
 20
273.4629689637
 10
171.9685844066
 20
273.2256431847
 10
172.6876643338
 20
273.0209749982
 10
173.4321949554
 20
272.8502262517
 10
174.1975859926
 20
272.7144496679
 10
174.9791185551
 20
272.6144823547
 10
175.7719742349
 20
272.5509406438
 10
176.5712648129
 20
272.5242162909
 10
177.372062397
 20
272.5344740606
 10
178.1694298038
 20
272.5816507103
 10
178.958450998
 20
272.6654553803
 10
179.7342614017
 20
272.785371387
 10
180.4920778857
 20
272.9406594082
 10
181.2272282593
 20
273.1303620416
 10
181.9351800762
 20
273.3533097076
 10
182.6115685778
 20
273.6081278595
 10
183.2522236042
 20
273.8932454587
 10
183.853195304
 20
274.2069046604
 10
184.410778487
 20
274.5471716514
 10
184.9215354674
 20
274.9119485724
 10
185.3823172585
 20
275.2989864525
 10
185.7902829874
 20
275.7058990745
 10
186.1429174096
 20
276.1301776866
 10
186.4380464168
 20
276.5692064702
 10
186.6738504405
 20
277.0202786668
 10
186.8488756704
 20
277.4806132664
 10
186.9620430178
 20
277.947372153
 10
187.0126547683
 20
278.4176776029
 10
187.0003988837
 20
278.8886300267
 10
186.9253509256
 20
279.3573258459
 10
186.7879735897
 20
279.8208753951
 10
186.5891138527
 20
280.2764207371
 10
186.3299977513
 20
280.7211532834
 10
186.0122228223
 20
281.15233111
 10
185.6377482538
 20
281.5672958621
 10
185.208882806
 20
281.9634891441
 10
184.7282705771
 20
282.3384682927
 10
184.1988747013
 20
282.6899214367
 10
183.6239590801
 20
283.0156817507
 10
183.0070682596
 20
283.3137408138
 10
182.3520055768
 20
283.582260993
 10
181.6628097109
 20
283.819586772
 10
180.9437297838
 20
284.0242549585
 10
180.1991991622
 20
284.195003705
 10
179.433808125
 20
284.3307802888
 10
178.6522755624
 20
284.430747602
 10
177.8594198827
 20
284.4942893129
 10
177.0601293047
 20
284.5210136658
 10
176.2593317206
 20
284.5107558961
 10
175.4619643138
 20
284.4635792464
 10
174.6729431195
 20
284.3797745764
 10
173.8971327159
 20
284.2598585697
 10
173.1393162319
 20
284.1045705485
 10
172.4041658582
 20
283.9148679151
 10
171.6962140414
 20
283.6919202491
 10
171.0198255398
 20
283.4371020972
 10
170.3791705134
 20
283.151984498
 10
169.7781988135
 20
282.8383252963
 10
169.2206156305
 20
282.4980583053
 10
168.7098586502
 20
282.1332813843
 10
168.2490768591
 20
281.7462435042
  0
LWPOLYLINE
  5
101
330
1F
100
AcDbEntity
  8
0
  6
Continuous
 62
     7
 48
10.0
370
    15
100
AcDbPolyline
 90
       30
 70
   128
 43
0.0
 10
171.0184329431
 20
243.3045547698
 10
171.7342293421
 20
243.0572614128
 10
172.4801243724
 20
242.8426387589
 10
173.2518456148
 20
242.661916147
 10
174.0449727199
 20
242.51612874
 10
174.8549627275
 20
242.4061115948
 10
175.6771760882
 20
242.3324948799
 10
176.5069032383
 20
242.2957002649
 10
177.3393915758
 20
242.2959385063
 10
178.169872683
 20
242.3332082392
 10
178.9935896391
 20
242.4072959861
 10
179.8058242682
 20
242.5177773791
 10
180.6019241638
 20
242.6640195908
 10
181.3773293378
 20
242.8451849589
 10
182.1275983396
 20
243.0602357848
 10
182.8484336963
 20
243.3079402767
 10
183.5357065283
 20
243.5868796057
 10
184.1854801989
 20
243.8954560326
 10
184.7940328635
 20
244.2319020596
 10
185.3578787875
 20
244.5942905544
 10
185.8737883126
 20
244.9805457883
 10
186.3388063556
 20
245.3884553265
 10
186.7502693353
 20
245.8156827001
 10
187.1058204291
 20
246.2597807892
 10
187.4034230725
 20
246.7182058404
 10
187.6413726245
 20
247.1883320364
 10
187.8183061316
 20
247.6674665369
 10
187.9332101347
 20
248.1528649029
 10
187.9854264741
 20
248.6417468166
 10
187.988775331
 20
248.8250740063
  0
LWPOLYLINE
  5
102
330
1F
100
AcDbEntity
  8
0
  6
Continuous
 62
     7
 48
10.0
370
    15
100
AcDbPolyline
 90
       15
 70
   128
 43
0.0
 10
165.9891481429
 20
248.6969975257
 10
165.9900042569
 20
248.6354521717
 10
166.0322674737
 20
248.1465972962
 10
166.1372896429
 20
247.6612618686
 10
166.3044692072
 20
247.1822258463
 10
166.5328485771
 20
246.7122331042
 10
166.8211196163
 20
246.2539757182
 10
167.1676311343
 20
245.8100785452
 10
167.5703983447
 20
245.3830841878
 10
168.0271142332
 20
244.9754384312
 10
168.5351627726
 20
244.5894762334
 10
169.091633907
 20
244.2274083507
 10
169.69334022
 20
243.8913086753
 10
170.3368351923
 20
243.5831023557
 10
171.0184329431
 20
243.3045547698
  0
LWPOLYLINE
  5
103
330
1F
100
AcDbEntity
  8
0
  6
Continuous
 62
     7
 48
10.0
370
    15
100
AcDbPolyline
 90
       26
 70
   128
 43
0.0
 10
171.2737595369
 20
242.5622486055
 10
171.9769388833
 20
242.3198367434
 10
172.7102951042
 20
242.1103263915
 10
173.4694177091
 20
241.9349775697
 10
174.2497412453
 20
241.7948448463
 10
175.0465727552
 20
241.6907709962
 10
175.8551200004
 20
241.6233819316
 10
176.6705202826
 20
241.5930829383
 10
177.4878696885
 20
241.6000562381
 10
178.3022525826
 20
241.6442598927
 10
179.1087711705
 20
241.7254280561
 10
179.9025749544
 20
241.8430725735
 10
180.6788899049
 20
241.9964859168
 10
181.4330471727
 20
242.1847454402
 10
182.160511167
 20
242.4067189288
 10
182.856906834
 20
242.6610714078
 10
183.5180459681
 20
242.9462731715
 10
184.1399524008
 20
243.260608983
 10
184.7188859136
 20
243.6021883897
 10
185.2513647322
 20
243.9689570928
 10
185.7341864664
 20
244.3587093023
 10
186.1644473694
 20
244.7691010025
 10
186.5395598016
 20
245.1976640493
 10
186.8572677926
 20
245.6418210143
 10
187.1156606093
 20
246.0989006852
 10
187.1266676023
 20
246.1213739784
  0
LWPOLYLINE
  5
104
330
1F
100
AcDbEntity
  8
0
  6
Continuous
 62
     7
 48
10.0
370
    15
100
AcDbPolyline
 90
       11
 70
   128
 43
0.0
 10
166.8826769365
 20
246.0035183867
 10
166.9221167854
 20
245.926617407
 10
167.1929314592
 20
245.4740527238
 10
167.5226945911
 20
245.0354197247
 10
167.9094229468
 20
244.6133564002
 10
168.3507906965
 20
244.2104010888
 10
168.8441434027
 20
243.8289772111
 10
169.386513984
 20
243.4713786952
 10
169.97464056
 20
243.1397561806
 10
170.6049860683
 20
242.8361040842
 10
171.2737595369
 20
242.5622486055
  0
LINE
  5
105
330
1F
100
AcDbEntity
  8
0
  6
Continuous
 62
     7
 48
10.0
370
    15
100
AcDbLine
 10
175.8345403184
 20
284.9628061423
 30
0.0
 11
175.831934908
 21
285.4103360627
 31
0.0
  0
LINE
  5
106
330
1F
100
AcDbEntity
  8
0
  6
Continuous
 62
     7
 48
10.0
370
    15
100
AcDbLine
 10
175.831934908
 20
285.4103360627
 30
0.0
 11
175.3007799154
 21
284.9249122043
 31
0.0
  0
LINE
  5
107
330
1F
100
AcDbEntity
  8
0
  6
Continuous
 62
     7
 48
10.0
370
    15
100
AcDbLine
 10
175.831934908
 20
285.4103360627
 30
0.0
 11
175.5799754904
 21
285.5051486664
 31
0.0
  0
LINE
  5
108
330
1F
100
AcDbEntity
  8
0
  6
Continuous
 62
     7
 48
10.0
370
    15
100
AcDbLine
 10
175.5799754904
 20
285.5051486664
 30
0.0
 11
174.9030372644
 21
284.8864931514
 31
0.0
  0
LWPOLYLINE
  5
109
330
1F
100
AcDbEntity
  8
0
  6
Continuous
 62
     8
 48
10.0
370
    15
100
AcDbPolyline
 90
       33
 70
   128
 43
0.0
 10
186.9931267306
 20
272.1105432193
 10
186.4866137375
 20
271.6826175537
 10
185.9285826059
 20
271.2773783292
 10
185.3220106733
 20
270.8969876725
 10
184.6701342633
 20
270.5434751324
 10
183.9764314187
 20
270.2187268512
 10
183.2446033443
 20
269.9244755015
 10
182.4785546595
 20
269.6622910416
 10
181.6823725655
 20
269.4335723389
 10
180.8603050382
 20
269.2395397068
 10
180.0167381637
 20
269.0812283932
 10
179.1561727361
 20
268.9594830576
 10
178.2832002444
 20
268.8749532639
 10
177.4024783745
 20
268.8280900153
 10
176.5187061587
 20
268.8191433473
 10
175.6365989041
 20
268.8481609944
 10
174.7608630345
 20
268.9149881349
 10
173.8961709798
 20
269.019268217
 10
173.0471362463
 20
269.1604448613
 10
172.2182888014
 20
269.3377648295
 10
171.4140509051
 20
269.5502820427
 10
170.6387135144
 20
269.7968626296
 10
169.8964133897
 20
270.0761909763
 10
169.1911110236
 20
270.3867767449
 10
168.5265695091
 20
270.7269628262
 10
167.9063344628
 20
271.0949341801
 10
167.3337151071
 20
271.4887275203
 10
166.811766614
 20
271.906241789
 10
166.3432738044
 20
272.3452493668
 10
165.9307362904
 20
272.8034079584
 10
165.5763551379
 20
273.2782730894
 10
165.2820211238
 20
273.767311149
 10
165.0816951017
 20
274.1886947093
  0
LWPOLYLINE
  5
10A
330
1F
100
AcDbEntity
  8
0
  6
Continuous
 62
     8
 48
10.0
370
    15
100
AcDbPolyline
 90
       42
 70
   128
 43
0.0
 10
165.8230134963
 20
278.7147134153
 10
165.6701513907
 20
278.4838499894
 10
165.3983480664
 20
277.9972132903
 10
165.187536601
 20
277.5004349261
 10
165.038841765
 20
276.9961654242
 10
164.9530569096
 20
276.4870952807
 10
164.9306397342
 20
275.9759406049
 10
164.9717098441
 20
275.4654286283
 10
165.0760481124
 20
274.9582831531
 10
165.2430978495
 20
274.45721002
 10
165.4719677725
 20
273.9648826707
 10
165.7614367616
 20
273.4839278848
 10
166.1099603744
 20
273.0169117642
 10
166.5156790866
 20
272.5663260419
 10
166.9764282133
 20
272.1345747877
 10
167.4897494586
 20
271.7239615814
 10
168.0529040316
 20
271.336677222
 10
168.6628872589
 20
270.9747880392
 10
169.3164446161
 20
270.6402248683
 10
170.010089092
 20
270.3347727487
 10
170.740119793
 20
270.0600613996
 10
171.5026416897
 20
269.8175565248
 10
172.2935863976
 20
269.6085519928
 10
173.1087338847
 20
269.4341629332
 10
173.9437349863
 20
269.2953197871
 10
174.7941346104
 20
269.1927633428
 10
175.6553955069
 20
269.1270407832
 10
176.5229224763
 20
269.0985027666
 10
177.3920868869
 20
269.1073015557
 10
178.2582513705
 20
269.1533902052
 10
179.1167945648
 20
269.2365228122
 10
179.9631357704
 20
269.3562558282
 10
180.7927593909
 20
269.5119504259
 10
181.6012390251
 20
269.7027759071
 10
182.3842610845
 20
269.9277141353
 10
183.1376478075
 20
270.1855649678
 10
183.8573795501
 20
270.4749526588
 10
184.539616232
 20
270.7943331999
 10
185.1807178253
 20
271.1420025575
 10
185.7772637756
 20
271.5161057653
 10
186.3260712522
 20
271.9146468207
 10
186.8242121297
 20
272.3354993349
  0
LWPOLYLINE
  5
10B
330
1F
100
AcDbEntity
  8
0
  6
Continuous
 62
     8
 48
10.0
370
    15
100
AcDbPolyline
 90
       33
 70
   128
 43
0.0
 10
165.0978742061
 20
270.4816202162
 10
165.3036792086
 20
270.0471137475
 10
165.5980132227
 20
269.5580756879
 10
165.9523943751
 20
269.0832105568
 10
166.3649318892
 20
268.6250519653
 10
166.8334246987
 20
268.1860443874
 10
167.3553731919
 20
267.7685301188
 10
167.9279925476
 20
267.3747367786
 10
168.5482275938
 20
267.0067654246
 10
169.2127691083
 20
266.6665793434
 10
169.9180714745
 20
266.3559935747
 10
170.6603715991
 20
266.0766652281
 10
171.4357089898
 20
265.8300846411
 10
172.2399468862
 20
265.6175674279
 10
173.068794331
 20
265.4402474598
 10
173.9178290646
 20
265.2990708154
 10
174.7825211193
 20
265.1947907333
 10
175.6582569888
 20
265.1279635929
 10
176.5403642434
 20
265.0989459458
 10
177.4241364593
 20
265.1078926137
 10
178.3048583292
 20
265.1547558624
 10
179.1778308209
 20
265.2392856561
 10
180.0383962485
 20
265.3610309917
 10
180.881963123
 20
265.5193423052
 10
181.7040306502
 20
265.7133749374
 10
182.5002127442
 20
265.94209364
 10
183.266261429
 20
266.2042781
 10
183.9980895034
 20
266.4985294497
 10
184.691792348
 20
266.8232777309
 10
185.343668758
 20
267.176790271
 10
185.9502406907
 20
267.5571809277
 10
186.5082718223
 20
267.9624201521
 10
187.0147848154
 20
268.3903458178
  0
LINE
  5
10C
330
1F
100
AcDbEntity
  8
0
  6
Continuous
 62
     8
 48
10.0
370
    15
100
AcDbLine
 10
171.9364975216
 20
284.3024566108
 30
0.0
 11
174.8736471098
 21
286.9867248665
 31
0.0
  0
LWPOLYLINE
  5
10D
330
1F
100
AcDbEntity
  8
0
  6
Continuous
 62
     8
 48
10.0
370
    15
100
AcDbPolyline
 90
       41
 70
   128
 43
0.0
 10
186.6562391846
 20
272.3987077374
 10
186.1664704227
 20
271.9849283747
 10
185.6268866012
 20
271.5930854882
 10
185.0403666332
 20
271.2252697293
 10
184.4100398566
 20
270.8834435542
 10
183.7392693375
 20
270.5694307533
 10
183.0316339267
 20
270.284906721
 10
182.2909091654
 20
270.0313895159
 10
181.5210471406
 20
269.8102317621
 10
180.7261553994
 20
269.6226134318
 10
179.9104750331
 20
269.4695355501
 10
179.0783580494
 20
269.3518148537
 10
178.2342441524
 20
269.2700794334
 10
177.3826370551
 20
269.2247653831
 10
176.5280804497
 20
269.2161144727
 10
175.6751337655
 20
269.2441728588
 10
174.8283478421
 20
269.3087908375
 10
173.9922406487
 20
269.4096236442
 10
173.171273179
 20
269.546133292
 10
172.3698256497
 20
269.717591443
 10
171.5921741301
 20
269.9230832938
 10
170.8424677275
 20
270.1615124564
 10
170.12470645
 20
270.4316068081
 10
169.4427198645
 20
270.7319252787
 10
168.8001466646
 20
271.0608655391
 10
168.2004152562
 20
271.4166725507
 10
167.646725466
 20
271.7974479293
 10
167.1420314685
 20
272.2011600733
 10
166.6890260245
 20
272.6256550039
 10
166.2901261143
 20
273.068667857
 10
165.9474600412
 20
273.5278349671
 10
165.6628560771
 20
274.0007064793
 10
165.4378327074
 20
274.4847594193
 10
165.273590529
 20
274.9774111553
 10
165.1710058449
 20
275.4760331771
 10
165.130625989
 20
275.9779651205
 10
165.1526664052
 20
276.4805289613
 10
165.2370094983
 20
276.9810433042
 10
165.3832052614
 20
277.4768376884
 10
165.590473677
 20
277.9652668364
 10
165.8163594438
 20
278.3768180722
  0
LINE
  5
10E
330
1F
100
AcDbEntity
  8
0
  6
Continuous
 62
     8
 48
10.0
370
    15
100
AcDbLine
 10
174.7056741647
 20
287.049933269
 30
0.0
 11
171.5785551381
 21
284.1920514748
 31
0.0
  0
ARC
  5
10F
330
1F
100
AcDbEntity
  8
0
  6
Continuous
 62
     8
 48
100.0
370
    15
100
AcDbCircle
 10
169.9759844059
 20
275.7106109668
 30
0.0
 40
4.671721577928088
100
AcDbArc
 50
152.8379432283
 51
161.0921824784
  0
ARC
  5
110
330
1F
100
AcDbEntity
  8
0
  6
Continuous
 62
     8
 48
100.0
370
    15
100
AcDbCircle
 10
186.6004870598
 20
272.2849043006
 30
0.0
 40
0.126726167996605
100
AcDbArc
 50
63.8998390578
 51
128.0823537861
  0
LINE
  5
111
330
1F
100
AcDbEntity
  8
0
  6
Continuous
 62
     8
 48
10.0
370
    15
100
AcDbLine
 10
165.7833246573
 20
274.0062175909
 30
0.0
 11
165.8411235813
 21
274.1230956929
 31
0.0
  0
ARC
  5
112
330
1F
100
AcDbEntity
  8
0
  6
Continuous
 62
     8
 48
100.0
370
    15
100
AcDbCircle
 10
186.9061343922
 20
268.3841993724
 30
0.0
 40
0.1088241391015665
100
AcDbArc
 50
313.9714261962
 51
3.2378192069
  0
LINE
  5
113
330
1F
100
AcDbEntity
  8
0
  6
Continuous
 62
     8
 48
10.0
370
    15
100
AcDbLine
 10
194.8377182832
 20
275.539744016
 30
0.0
 11
194.9784229085
 21
275.9345291727
 31
0.0
  0
LWPOLYLINE
  5
114
330
1F
100
AcDbEntity
  8
0
  6
Continuous
 62
     8
 48
10.0
370
    15
100
AcDbPolyline
 90
        6
 70
   128
 43
0.0
 10
195.3083094904
 20
277.8543018272
 10
195.2859335019
 20
278.2279405053
 10
195.2236971289
 20
278.5707950422
 10
195.1230565318
 20
278.861056095
 10
194.9861900674
 20
279.0924409887
 10
194.8160601984
 20
279.2599414176
  0
LWPOLYLINE
  5
115
330
1F
100
AcDbEntity
  8
0
  6
Continuous
 62
     8
 48
10.0
370
    15
100
AcDbPolyline
 90
        3
 70
   128
 43
0.0
 10
187.8224206645
 20
277.3997242933
 10
187.8710375049
 20
277.2433081407
 10
187.9810893786
 20
276.7519213244
  0
LINE
  5
116
330
1F
100
AcDbEntity
  8
0
  6
Continuous
 62
     8
 48
10.0
370
    15
100
AcDbLine
 10
175.2607379794
 20
286.9070495844
 30
0.0
 11
172.6103351503
 21
284.4848398993
 31
0.0
  0
LINE
  5
117
330
1F
100
AcDbEntity
  8
0
  6
Continuous
 62
     8
 48
10.0
370
    15
100
AcDbLine
 10
172.9302386392
 20
284.5604811958
 30
0.0
 11
175.4287109245
 21
286.8438411819
 31
0.0
  0
ARC
  5
118
330
1F
100
AcDbEntity
  8
0
  6
Continuous
 62
     8
 48
100.0
370
    15
100
AcDbCircle
 10
183.8901657985
 20
276.0609452926
 30
0.0
 40
4.347219742483709
100
AcDbArc
 50
9.3020628966
 51
25.3315923041
  0
ARC
  5
119
330
1F
100
AcDbEntity
  8
0
  6
Continuous
 62
     8
 48
100.0
370
    15
100
AcDbCircle
 10
190.4492996295
 20
276.1360227249
 30
0.0
 40
0.2748144829986297
100
AcDbArc
 50
16.5451606594
 51
68.3231023271
  0
LWPOLYLINE
  5
11A
330
1F
100
AcDbEntity
  8
0
  6
Continuous
 62
     8
 48
10.0
370
    15
100
AcDbPolyline
 90
       12
 70
   128
 43
0.0
 10
190.4622097125
 20
275.9853257144
 10
190.2589284645
 20
275.8907092122
 10
189.9670119615
 20
275.7998841502
 10
189.6500479299
 20
275.7460210498
 10
189.3214681665
 20
275.7314024358
 10
188.9951967012
 20
275.7566477925
 10
188.6850597466
 20
275.8206873124
 10
188.4041997925
 20
275.9208072307
 10
188.1645186746
 20
276.052764825
 10
187.9761732178
 20
276.2109682065
 10
187.8471448257
 20
276.3887132843
 10
187.8280779064
 20
276.427982937
  0
ARC
  5
11B
330
1F
100
AcDbEntity
  8
0
  6
Continuous
 62
     8
 48
100.0
370
    15
100
AcDbCircle
 10
187.9906719119
 20
276.5233530534
 30
0.0
 40
0.2287690527130922
100
AcDbArc
 50
92.4006717087
 51
135.8252807116
  0
ARC
  5
11C
330
1F
100
AcDbEntity
  8
0
  6
Continuous
 62
     8
 48
100.0
370
    15
100
AcDbCircle
 10
190.3273483604
 20
276.3374189402
 30
0.0
 40
0.129664329961694
100
AcDbArc
 50
64.6638005951
 51
126.7790908908
  0
ARC
  5
11D
330
1F
100
AcDbEntity
  8
0
  6
Continuous
 62
     8
 48
100.0
370
    15
100
AcDbCircle
 10
194.1412001343
 20
279.5103430505
 30
0.0
 40
0.2732986786564276
100
AcDbArc
 50
14.4557933518
 51
68.4287036715
  0
ARC
  5
11E
330
1F
100
AcDbEntity
  8
0
  6
Continuous
 62
     8
 48
100.0
370
    15
100
AcDbCircle
 10
194.0182814321
 20
279.7108724664
 30
0.0
 40
0.129316457556172
100
AcDbArc
 50
64.6205857696
 51
127.4062875281
  0
LWPOLYLINE
  5
11F
330
1F
100
AcDbEntity
  8
0
  6
Continuous
 62
     8
 48
10.0
370
    15
100
AcDbPolyline
 90
       11
 70
   128
 43
0.0
 10
199.585972968
 20
279.0139603499
 10
199.8563152301
 20
278.6007845961
 10
200.0795740641
 20
278.172717405
 10
200.2514819641
 20
277.7379411153
 10
200.3687529771
 20
277.3047663071
 10
200.4291455132
 20
276.881472949
 10
200.4315051925
 20
276.4761521294
 10
200.3757869106
 20
276.0965513988
 10
200.2630557008
 20
275.7499266779
 10
200.0954663766
 20
275.442903564
 10
199.96050386
 20
275.2695390139
  0
LWPOLYLINE
  5
120
330
1F
100
AcDbEntity
  8
0
  6
Continuous
 62
     8
 48
10.0
370
    15
100
AcDbPolyline
 90
       11
 70
   128
 43
0.0
 10
200.1142433206
 20
275.4217846775
 10
200.2040214456
 20
275.5421123093
 10
200.3716107698
 20
275.8491354233
 10
200.4843419795
 20
276.1957601442
 10
200.5400602615
 20
276.5753608748
 10
200.5377005822
 20
276.9806816944
 10
200.4773080461
 20
277.4039750525
 10
200.3600370331
 20
277.8371498607
 10
200.1881291331
 20
278.2719261504
 10
199.9648702991
 20
278.6999933414
 10
199.694528037
 20
279.1131690953
  0
ARC
  5
121
330
1F
100
AcDbEntity
  8
0
  6
Continuous
 62
     8
 48
100.0
370
    15
100
AcDbCircle
 10
196.8953105758
 20
280.1425347587
 30
0.0
 40
0.0722025854065897
100
AcDbArc
 50
77.9631244994
 51
141.2663946859
  0
ARC
  5
122
330
1F
100
AcDbEntity
  8
0
  6
Continuous
 62
     8
 48
100.0
370
    15
100
AcDbCircle
 10
195.77546283
 20
277.6135350785
 30
0.0
 40
2.370624583200661
100
AcDbArc
 50
69.0569236326
 51
122.9214402317
  0
ARC
  5
123
330
1F
100
AcDbEntity
  8
0
  6
Continuous
 62
     8
 48
100.0
370
    15
100
AcDbCircle
 10
195.7824294189
 20
273.6901421137
 30
0.0
 40
2.566323782315863
100
AcDbArc
 50
70.3722502696
 51
104.4140412241
  0
LWPOLYLINE
  5
124
330
1F
100
AcDbEntity
  8
0
  6
Continuous
 62
     8
 48
10.0
370
    15
100
AcDbPolyline
 90
        6
 70
   128
 43
0.0
 10
196.6444775731
 20
276.1073493318
 10
196.6467471363
 20
276.0777001866
 10
196.6531011918
 20
276.0530029779
 10
196.6632955569
 20
276.0342068055
 10
196.6769384679
 20
276.0220339958
 10
196.6825944801
 20
276.0193724332
  0
LINE
  5
125
330
1F
100
AcDbEntity
  8
0
  6
Continuous
 62
     8
 48
10.0
370
    15
100
AcDbLine
 10
175.5976255254
 20
286.6188850663
 30
0.0
 11
173.4680944366
 21
284.6727013499
 31
0.0
  0
LINE
  5
126
330
1F
100
AcDbEntity
  8
0
  6
Continuous
 62
     8
 48
10.0
370
    15
100
AcDbLine
 10
175.5976255254
 20
286.6188850663
 30
0.0
 11
175.6041624151
 21
285.4960471002
 31
0.0
  0
ARC
  5
127
330
1F
100
AcDbEntity
  8
0
  6
Continuous
 62
     8
 48
100.0
370
    15
100
AcDbCircle
 10
175.2049894068
 20
286.7932719334
 30
0.0
 40
0.1267014491098108
100
AcDbArc
 50
63.8961516045
 51
128.1307216932
  0
ARC
  5
128
330
1F
100
AcDbEntity
  8
0
  6
Continuous
 62
     8
 48
100.0
370
    15
100
AcDbCircle
 10
175.0037413497
 20
287.356189212
 30
0.0
 40
0.9467395720724543
100
AcDbArc
 50
308.8507692603
 51
357.990358856
  0
ARC
  5
129
330
1F
100
AcDbEntity
  8
0
  6
Continuous
 62
     8
 48
100.0
370
    15
100
AcDbCircle
 10
174.8908407682
 20
288.4228575659
 30
0.0
 40
0.0721778465943725
100
AcDbArc
 50
77.9167209161
 51
141.2731157572
  0
ARC
  5
12A
330
1F
100
AcDbEntity
  8
0
  6
Continuous
 62
     8
 48
100.0
370
    15
100
AcDbCircle
 10
174.3748930522
 20
287.1405993152
 30
0.0
 40
0.9974201292425389
100
AcDbArc
 50
12.481243849
 51
75.8713249829
  0
LINE
  5
12B
330
1F
100
AcDbEntity
  8
0
  6
Continuous
 62
     8
 48
10.0
370
    15
100
AcDbLine
 10
174.6183636812
 20
288.1078474566
 30
0.0
 11
174.6245004503
 21
287.0537379775
 31
0.0
  0
LINE
  5
12C
330
1F
100
AcDbEntity
  8
0
  6
Continuous
 62
     8
 48
10.0
370
    15
100
AcDbLine
 10
171.857685445
 20
285.4346462477
 30
0.0
 11
172.5391010017
 21
285.1782288304
 31
0.0
  0
LINE
  5
12D
330
1F
100
AcDbEntity
  8
0
  6
Continuous
 62
     8
 48
10.0
370
    15
100
AcDbLine
 10
171.6413729207
 20
289.2677551525
 30
0.0
 11
171.8704370278
 21
289.443346757
 31
0.0
  0
LINE
  5
12E
330
1F
100
AcDbEntity
  8
0
  6
Continuous
 62
     8
 48
10.0
370
    15
100
AcDbLine
 10
171.9789920968
 20
289.5425555024
 30
0.0
 11
171.7499279897
 21
289.3669638979
 31
0.0
  0
LINE
  5
12F
330
1F
100
AcDbEntity
  8
0
  6
Continuous
 62
     7
 48
10.0
370
    15
100
AcDbLine
 10
45.7785379735
 20
128.1981541142
 30
0.0
 11
47.7785379735
 21
128.1981541142
 31
0.0
  0
LINE
  5
130
330
1F
100
AcDbEntity
  8
0
  6
Continuous
 62
     7
 48
10.0
370
    15
100
AcDbLine
 10
47.7785379735
 20
140.1981541142
 30
0.0
 11
45.7785379735
 21
140.1981541142
 31
0.0
  0
ARC
  5
131
330
1F
100
AcDbEntity
  8
0
  6
Continuous
 62
     7
 48
100.0
370
    15
100
AcDbCircle
 10
63.2785379735
 20
134.1981541142
 30
0.0
 40
18.5
100
AcDbArc
 50
161.0753555839
 51
198.9246444161
  0
LINE
  5
132
330
1F
100
AcDbEntity
  8
0
  6
Continuous
 62
     7
 48
10.0
370
    15
100
AcDbLine
 10
47.7785379735
 20
130.9981541142
 30
0.0
 11
48.7785379735
 21
130.9981541142
 31
0.0
  0
LINE
  5
133
330
1F
100
AcDbEntity
  8
0
  6
Continuous
 62
     7
 48
10.0
370
    15
100
AcDbLine
 10
56.2785379735
 20
130.9981541142
 30
0.0
 11
59.7785379735
 21
130.9981541142
 31
0.0
  0
LINE
  5
134
330
1F
100
AcDbEntity
  8
0
  6
Continuous
 62
     7
 48
10.0
370
    15
100
AcDbLine
 10
59.7785379735
 20
137.3981541142
 30
0.0
 11
56.2785379735
 21
137.3981541142
 31
0.0
  0
LINE
  5
135
330
1F
100
AcDbEntity
  8
0
  6
Continuous
 62
     7
 48
10.0
370
    15
100
AcDbLine
 10
48.7785379735
 20
137.3981541142
 30
0.0
 11
47.7785379735
 21
137.3981541142
 31
0.0
  0
LINE
  5
136
330
1F
100
AcDbEntity
  8
0
  6
Continuous
 62
     7
 48
10.0
370
    15
100
AcDbLine
 10
172.7785379735
 20
140.1981541142
 30
0.0
 11
170.7785379735
 21
140.1981541142
 31
0.0
  0
LINE
  5
137
330
1F
100
AcDbEntity
  8
0
  6
Continuous
 62
     7
 48
10.0
370
    15
100
AcDbLine
 10
170.7785379735
 20
128.1981541142
 30
0.0
 11
172.7785379735
 21
128.1981541142
 31
0.0
  0
ARC
  5
138
330
1F
100
AcDbEntity
  8
0
  6
Continuous
 62
     7
 48
100.0
370
    15
100
AcDbCircle
 10
155.2785379735
 20
134.1981541142
 30
0.0
 40
18.49999999999998
100
AcDbArc
 50
341.0753555839
 51
18.9246444161
  0
LINE
  5
139
330
1F
100
AcDbEntity
  8
0
  6
Continuous
 62
     7
 48
10.0
370
    15
100
AcDbLine
 10
170.7785379735
 20
137.3981541142
 30
0.0
 11
169.7785379735
 21
137.3981541142
 31
0.0
  0
LINE
  5
13A
330
1F
100
AcDbEntity
  8
0
  6
Continuous
 62
     7
 48
10.0
370
    15
100
AcDbLine
 10
162.2785379735
 20
137.3981541142
 30
0.0
 11
158.7785379735
 21
137.3981541142
 31
0.0
  0
LINE
  5
13B
330
1F
100
AcDbEntity
  8
0
  6
Continuous
 62
     7
 48
10.0
370
    15
100
AcDbLine
 10
158.7785379735
 20
130.9981541142
 30
0.0
 11
162.2785379735
 21
130.9981541142
 31
0.0
  0
LINE
  5
13C
330
1F
100
AcDbEntity
  8
0
  6
Continuous
 62
     7
 48
10.0
370
    15
100
AcDbLine
 10
169.7785379735
 20
130.9981541142
 30
0.0
 11
170.7785379735
 21
130.9981541142
 31
0.0
  0
LINE
  5
13D
330
1F
100
AcDbEntity
  8
0
  6
Continuous
 62
     7
 48
10.0
370
    15
100
AcDbLine
 10
49.7785379735
 20
124.1981541142
 30
0.0
 11
50.3731915517
 21
124.1981541142
 31
0.0
  0
ARC
  5
13E
330
1F
100
AcDbEntity
  8
0
  6
Continuous
 62
     7
 48
100.0
370
    15
100
AcDbCircle
 10
49.7785379735
 20
125.1981541142
 30
0.0
 40
1.000000000000014
100
AcDbArc
 50
180.0
 51
270.0
  0
ARC
  5
13F
330
1F
100
AcDbEntity
  8
0
  6
Continuous
 62
     7
 48
100.0
370
    15
100
AcDbCircle
 10
168.7785379735
 20
125.1981541142
 30
0.0
 40
1.0
100
AcDbArc
 50
270.0
 51
0.0
  0
LINE
  5
140
330
1F
100
AcDbEntity
  8
0
  6
Continuous
 62
     7
 48
10.0
370
    15
100
AcDbLine
 10
168.1838843953
 20
124.1981541142
 30
0.0
 11
168.7785379735
 21
124.1981541142
 31
0.0
  0
ARC
  5
141
330
1F
100
AcDbEntity
  8
0
  6
Continuous
 62
     7
 48
100.0
370
    15
100
AcDbCircle
 10
22.7785379735
 20
118.7270109439
 30
0.0
 40
1.0
100
AcDbArc
 50
180.0
 51
270.0
  0
ARC
  5
142
330
1F
100
AcDbEntity
  8
0
  6
Continuous
 62
     7
 48
100.0
370
    15
100
AcDbCircle
 10
195.7785379735
 20
119.7270109439
 30
0.0
 40
1.0
100
AcDbArc
 50
0.0
 51
90.0
  0
LINE
  5
143
330
1F
100
AcDbEntity
  8
0
  6
Continuous
 62
     7
 48
10.0
370
    15
100
AcDbLine
 10
21.7785379735
 20
119.7270109439
 30
0.0
 11
21.7785379735
 21
118.7270109439
 31
0.0
  0
ARC
  5
144
330
1F
100
AcDbEntity
  8
0
  6
Continuous
 62
     7
 48
100.0
370
    15
100
AcDbCircle
 10
195.7785379735
 20
118.7270109439
 30
0.0
 40
1.000000000000014
100
AcDbArc
 50
270.0
 51
0.0
  0
ARC
  5
145
330
1F
100
AcDbEntity
  8
0
  6
Continuous
 62
     7
 48
100.0
370
    15
100
AcDbCircle
 10
22.7785379735
 20
119.7270109439
 30
0.0
 40
1.0
100
AcDbArc
 50
90.0
 51
180.0
  0
LINE
  5
146
330
1F
100
AcDbEntity
  8
0
  6
Continuous
 62
     7
 48
10.0
370
    15
100
AcDbLine
 10
196.7785379735
 20
118.7270109439
 30
0.0
 11
196.7785379735
 21
119.7270109439
 31
0.0
  0
LINE
  5
147
330
1F
100
AcDbEntity
  8
0
  6
Continuous
 62
     7
 48
10.0
370
    15
100
AcDbLine
 10
45.7785379735
 20
128.1981541142
 30
0.0
 11
45.7785379735
 21
140.1981541142
 31
0.0
  0
LINE
  5
148
330
1F
100
AcDbEntity
  8
0
  6
Continuous
 62
     7
 48
10.0
370
    15
100
AcDbLine
 10
47.7785379735
 20
128.1981541142
 30
0.0
 11
47.7785379735
 21
140.1981541142
 31
0.0
  0
LINE
  5
149
330
1F
100
AcDbEntity
  8
0
  6
Continuous
 62
     7
 48
10.0
370
    15
100
AcDbLine
 10
59.7785379735
 20
130.9981541142
 30
0.0
 11
59.7785379735
 21
137.3981541142
 31
0.0
  0
LINE
  5
14A
330
1F
100
AcDbEntity
  8
0
  6
Continuous
 62
     7
 48
10.0
370
    15
100
AcDbLine
 10
172.7785379735
 20
134.1981541142
 30
0.0
 11
172.7785379735
 21
128.1981541142
 31
0.0
  0
LINE
  5
14B
330
1F
100
AcDbEntity
  8
0
  6
Continuous
 62
     7
 48
10.0
370
    15
100
AcDbLine
 10
172.7785379735
 20
140.1981541142
 30
0.0
 11
172.7785379735
 21
134.1981541142
 31
0.0
  0
LINE
  5
14C
330
1F
100
AcDbEntity
  8
0
  6
Continuous
 62
     7
 48
10.0
370
    15
100
AcDbLine
 10
170.7785379735
 20
134.1981541142
 30
0.0
 11
170.7785379735
 21
128.1981541142
 31
0.0
  0
LINE
  5
14D
330
1F
100
AcDbEntity
  8
0
  6
Continuous
 62
     7
 48
10.0
370
    15
100
AcDbLine
 10
170.7785379735
 20
140.1981541142
 30
0.0
 11
170.7785379735
 21
134.1981541142
 31
0.0
  0
LINE
  5
14E
330
1F
100
AcDbEntity
  8
0
  6
Continuous
 62
     7
 48
10.0
370
    15
100
AcDbLine
 10
158.7785379735
 20
134.1981541142
 30
0.0
 11
158.7785379735
 21
130.9981541142
 31
0.0
  0
LINE
  5
14F
330
1F
100
AcDbEntity
  8
0
  6
Continuous
 62
     7
 48
10.0
370
    15
100
AcDbLine
 10
158.7785379735
 20
137.3981541142
 30
0.0
 11
158.7785379735
 21
134.1981541142
 31
0.0
  0
LINE
  5
150
330
1F
100
AcDbEntity
  8
0
  6
Continuous
 62
     7
 48
10.0
370
    15
100
AcDbLine
 10
169.7785379735
 20
201.6981541142
 30
0.0
 11
169.7785379735
 21
129.6339608775
 31
0.0
  0
SPLINE
  5
151
330
1F
100
AcDbEntity
  8
0
  6
Continuous
 62
     7
 48
10.0
370
    15
100
AcDbSpline
210
0.0
220
0.0
230
1.0
 70
     8
 71
     3
 72
    13
 73
     9
 74
     0
 42
0.00000001
 43
0.00000001
 40
0.0
 40
0.0
 40
0.0
 40
0.0
 40
0.0044895206270802
 40
0.2011433135351364
 40
0.4154892891916158
 40
0.614492476213216
 40
0.8071299115630148
 40
1.0
 40
1.0
 40
1.0
 40
1.0
 10
169.7785379735076
 20
129.6339608774736
 30
0.0
 10
169.7785330099187
 20
129.6329684512802
 30
0.0
 10
169.7783106269967
 20
129.5885049306603
 30
0.0
 10
169.7460532609025
 20
129.4967388842778
 30
0.0
 10
169.6053590576237
 20
129.3736175858545
 30
0.0
 10
169.3787225960409
 20
129.2758809044522
 30
0.0
 10
169.0955469016871
 20
129.2107769445147
 30
0.0
 10
168.8842501219744
 20
129.2023634168478
 30
0.0
 10
168.7785379735076
 20
129.1981541142401
 30
0.0
  0
LINE
  5
152
330
1F
100
AcDbEntity
  8
0
  6
Continuous
 62
     7
 48
10.0
370
    15
100
AcDbLine
 10
168.7785379735
 20
129.1981541142
 30
0.0
 11
168.7785379735
 21
201.6981541142
 31
0.0
  0
LINE
  5
153
330
1F
100
AcDbEntity
  8
0
  6
Continuous
 62
     7
 48
10.0
370
    15
100
AcDbLine
 10
169.7785379735
 20
201.6981541142
 30
0.0
 11
168.7785379735
 21
201.6981541142
 31
0.0
  0
LINE
  5
154
330
1F
100
AcDbEntity
  8
0
  6
Continuous
 62
     7
 48
10.0
370
    15
100
AcDbLine
 10
50.7785379735
 20
129.1981541142
 30
0.0
 11
50.7785379735
 21
201.6981541142
 31
0.0
  0
LINE
  5
155
330
1F
100
AcDbEntity
  8
0
  6
Continuous
 62
     7
 48
10.0
370
    15
100
AcDbLine
 10
50.7785379735
 20
201.6981541142
 30
0.0
 11
51.7785379735
 21
201.6981541142
 31
0.0
  0
LINE
  5
156
330
1F
100
AcDbEntity
  8
0
  6
Continuous
 62
     7
 48
10.0
370
    15
100
AcDbLine
 10
51.7785379735
 20
201.6981541142
 30
0.0
 11
51.7785379735
 21
129.6339608775
 31
0.0
  0
SPLINE
  5
157
330
1F
100
AcDbEntity
  8
0
  6
Continuous
 62
     7
 48
10.0
370
    15
100
AcDbSpline
210
0.0
220
0.0
230
1.0
 70
     8
 71
     3
 72
    13
 73
     9
 74
     0
 42
0.00000001
 43
0.00000001
 40
0.0
 40
0.0
 40
0.0
 40
0.0
 40
0.00448952062708
 40
0.2011433135351353
 40
0.4154892891916121
 40
0.6144924762132122
 40
0.8071299115630135
 40
1.0
 40
1.0
 40
1.0
 40
1.0
 10
51.77853797350755
 20
129.6339608774736
 30
0.0
 10
51.77853300991866
 20
129.6329684512802
 30
0.0
 10
51.77831062699635
 20
129.5885049306607
 30
0.0
 10
51.74605326090271
 20
129.4967388842775
 30
0.0
 10
51.60535905762355
 20
129.3736175858545
 30
0.0
 10
51.37872259604095
 20
129.2758809044522
 30
0.0
 10
51.09554690168709
 20
129.2107769445147
 30
0.0
 10
50.8842501219744
 20
129.2023634168478
 30
0.0
 10
50.77853797350755
 20
129.1981541142401
 30
0.0
  0
LINE
  5
158
330
1F
100
AcDbEntity
  8
0
  6
Continuous
 62
     7
 48
10.0
370
    15
100
AcDbLine
 10
49.7785379735
 20
129.1981541142
 30
0.0
 11
50.7785379735
 21
129.1981541142
 31
0.0
  0
LINE
  5
159
330
1F
100
AcDbEntity
  8
0
  6
Continuous
 62
     7
 48
10.0
370
    15
100
AcDbLine
 10
48.7785379735
 20
125.1981541142
 30
0.0
 11
48.7785379735
 21
129.6339608775
 31
0.0
  0
SPLINE
  5
15A
330
1F
100
AcDbEntity
  8
0
  6
Continuous
 62
     7
 48
10.0
370
    15
100
AcDbSpline
210
0.0
220
0.0
230
1.0
 70
     8
 71
     3
 72
    13
 73
     9
 74
     0
 42
0.00000001
 43
0.00000001
 40
0.0
 40
0.0
 40
0.0
 40
0.0
 40
0.1928700884369859
 40
0.3855075237867854
 40
0.5845107108083865
 40
0.7988566864648666
 40
0.9955104793729236
 40
1.0
 40
1.0
 40
1.0
 40
1.0
 10
49.77853797350755
 20
129.1981541142401
 30
0.0
 10
49.67282582504068
 20
129.2023634168478
 30
0.0
 10
49.46152904532799
 20
129.2107769445147
 30
0.0
 10
49.17835335097416
 20
129.2758809044522
 30
0.0
 10
48.95171688939146
 20
129.3736175858544
 30
0.0
 10
48.81102268611266
 20
129.4967388842781
 30
0.0
 10
48.77876532001817
 20
129.5885049306596
 30
0.0
 10
48.77854293709643
 20
129.6329684512802
 30
0.0
 10
48.77853797350754
 20
129.6339608774736
 30
0.0
  0
LINE
  5
15B
330
1F
100
AcDbEntity
  8
0
  6
Continuous
 62
     7
 48
10.0
370
    15
100
AcDbLine
 10
48.7785379735
 20
129.6339608775
 30
0.0
 11
48.7785379735
 21
201.6981541142
 31
0.0
  0
LINE
  5
15C
330
1F
100
AcDbEntity
  8
0
  6
Continuous
 62
     7
 48
10.0
370
    15
100
AcDbLine
 10
48.7785379735
 20
201.6981541142
 30
0.0
 11
49.7785379735
 21
201.6981541142
 31
0.0
  0
LINE
  5
15D
330
1F
100
AcDbEntity
  8
0
  6
Continuous
 62
     7
 48
10.0
370
    15
100
AcDbLine
 10
49.7785379735
 20
201.6981541142
 30
0.0
 11
49.7785379735
 21
129.1981541142
 31
0.0
  0
LINE
  5
15E
330
1F
100
AcDbEntity
  8
0
  6
Continuous
 62
     7
 48
10.0
370
    15
100
AcDbLine
 10
167.7785379735
 20
201.6981541142
 30
0.0
 11
167.7785379735
 21
129.1981541142
 31
0.0
  0
ARC
  5
15F
330
1F
100
AcDbEntity
  8
0
  6
Continuous
 62
     7
 48
100.0
370
    15
100
AcDbCircle
 10
109.2785379735
 20
201.6981541142
 30
0.0
 40
58.50000000000001
100
AcDbArc
 50
0.0
 51
180.0
  0
ARC
  5
160
330
1F
100
AcDbEntity
  8
0
  6
Continuous
 62
     7
 48
100.0
370
    15
100
AcDbCircle
 10
109.2785379735
 20
201.6981541142
 30
0.0
 40
59.50000000000002
100
AcDbArc
 50
0.0
 51
180.0
  0
LINE
  5
161
330
1F
100
AcDbEntity
  8
0
  6
Continuous
 62
     7
 48
10.0
370
    15
100
AcDbLine
 10
167.7785379735
 20
129.1981541142
 30
0.0
 11
168.7785379735
 21
129.1981541142
 31
0.0
  0
LINE
  5
162
330
1F
100
AcDbEntity
  8
0
  6
Continuous
 62
     7
 48
10.0
370
    15
100
AcDbLine
 10
169.7785379735
 20
129.6339608775
 30
0.0
 11
169.7785379735
 21
125.1981541142
 31
0.0
  0
SPLINE
  5
163
330
1F
100
AcDbEntity
  8
0
  6
Continuous
 62
     7
 48
10.0
370
    15
100
AcDbSpline
210
0.0
220
0.0
230
1.0
 70
     8
 71
     3
 72
    13
 73
     9
 74
     0
 42
0.00000001
 43
0.00000001
 40
0.0
 40
0.0
 40
0.0
 40
0.0
 40
0.1928700884369859
 40
0.3855075237867854
 40
0.5845107108083865
 40
0.7988566864648666
 40
0.9955104793729236
 40
1.0
 40
1.0
 40
1.0
 40
1.0
 10
167.7785379735076
 20
129.1981541142401
 30
0.0
 10
167.6728258250407
 20
129.2023634168478
 30
0.0
 10
167.461529045328
 20
129.2107769445147
 30
0.0
 10
167.1783533509742
 20
129.2758809044522
 30
0.0
 10
166.9517168893915
 20
129.3736175858544
 30
0.0
 10
166.8110226861124
 20
129.4967388842781
 30
0.0
 10
166.7787653200187
 20
129.5885049306596
 30
0.0
 10
166.7785429370964
 20
129.6329684512802
 30
0.0
 10
166.7785379735076
 20
129.6339608774736
 30
0.0
  0
LINE
  5
164
330
1F
100
AcDbEntity
  8
0
  6
Continuous
 62
     7
 48
10.0
370
    15
100
AcDbLine
 10
166.7785379735
 20
129.6339608775
 30
0.0
 11
166.7785379735
 21
201.6981541142
 31
0.0
  0
LINE
  5
165
330
1F
100
AcDbEntity
  8
0
  6
Continuous
 62
     7
 48
10.0
370
    15
100
AcDbLine
 10
167.7785379735
 20
201.6981541142
 30
0.0
 11
166.7785379735
 21
201.6981541142
 31
0.0
  0
ARC
  5
166
330
1F
100
AcDbEntity
  8
0
  6
Continuous
 62
     7
 48
100.0
370
    15
100
AcDbCircle
 10
109.2785379735
 20
201.6981541142
 30
0.0
 40
57.50000000000001
100
AcDbArc
 50
0.0
 51
180.0
  0
ARC
  5
167
330
1F
100
AcDbEntity
  8
0
  6
Continuous
 62
     7
 48
100.0
370
    15
100
AcDbCircle
 10
109.2785379735
 20
201.6981541142
 30
0.0
 40
60.50000000000002
100
AcDbArc
 50
0.0
 51
180.0
  0
LINE
  5
168
330
1F
100
AcDbEntity
  8
0
  6
Continuous
 62
     7
 48
10.0
370
    15
100
AcDbLine
 10
163.7785379735
 20
128.7270109439
 30
0.0
 11
163.7785379735
 21
162.7270109439
 31
0.0
  0
LINE
  5
169
330
1F
100
AcDbEntity
  8
0
  6
Continuous
 62
     7
 48
10.0
370
    15
100
AcDbLine
 10
163.7785379735
 20
162.7270109439
 30
0.0
 11
164.7785379735
 21
162.7270109439
 31
0.0
  0
LINE
  5
16A
330
1F
100
AcDbEntity
  8
0
  6
Continuous
 62
     7
 48
10.0
370
    15
100
AcDbLine
 10
164.7785379735
 20
162.7270109439
 30
0.0
 11
164.7785379735
 21
128.7270109439
 31
0.0
  0
LINE
  5
16B
330
1F
100
AcDbEntity
  8
0
  6
Continuous
 62
     7
 48
10.0
370
    15
100
AcDbLine
 10
163.7785379735
 20
128.7270109439
 30
0.0
 11
164.7785379735
 21
128.7270109439
 31
0.0
  0
LINE
  5
16C
330
1F
100
AcDbEntity
  8
0
  6
Continuous
 62
     7
 48
10.0
370
    15
100
AcDbLine
 10
54.7785379735
 20
162.7270109439
 30
0.0
 11
54.7785379735
 21
128.7270109439
 31
0.0
  0
LINE
  5
16D
330
1F
100
AcDbEntity
  8
0
  6
Continuous
 62
     7
 48
10.0
370
    15
100
AcDbLine
 10
54.7785379735
 20
128.7270109439
 30
0.0
 11
53.7785379735
 21
128.7270109439
 31
0.0
  0
LINE
  5
16E
330
1F
100
AcDbEntity
  8
0
  6
Continuous
 62
     7
 48
10.0
370
    15
100
AcDbLine
 10
53.7785379735
 20
128.7270109439
 30
0.0
 11
53.7785379735
 21
162.7270109439
 31
0.0
  0
LINE
  5
16F
330
1F
100
AcDbEntity
  8
0
  6
Continuous
 62
     7
 48
10.0
370
    15
100
AcDbLine
 10
54.7785379735
 20
162.7270109439
 30
0.0
 11
53.7785379735
 21
162.7270109439
 31
0.0
  0
LINE
  5
170
330
1F
100
AcDbEntity
  8
0
  6
Continuous
 62
     7
 48
10.0
370
    15
100
AcDbLine
 10
165.7785379735
 20
128.7270109439
 30
0.0
 11
165.7785379735
 21
162.7270109439
 31
0.0
  0
LINE
  5
171
330
1F
100
AcDbEntity
  8
0
  6
Continuous
 62
     7
 48
10.0
370
    15
100
AcDbLine
 10
165.7785379735
 20
162.7270109439
 30
0.0
 11
166.7785379735
 21
162.7270109439
 31
0.0
  0
LINE
  5
172
330
1F
100
AcDbEntity
  8
0
  6
Continuous
 62
     7
 48
10.0
370
    15
100
AcDbLine
 10
166.7785379735
 20
162.7270109439
 30
0.0
 11
166.7785379735
 21
128.7270109439
 31
0.0
  0
LINE
  5
173
330
1F
100
AcDbEntity
  8
0
  6
Continuous
 62
     7
 48
10.0
370
    15
100
AcDbLine
 10
165.7785379735
 20
128.7270109439
 30
0.0
 11
166.7785379735
 21
128.7270109439
 31
0.0
  0
LINE
  5
174
330
1F
100
AcDbEntity
  8
0
  6
Continuous
 62
     7
 48
10.0
370
    15
100
AcDbLine
 10
43.7785379735
 20
119.7270109439
 30
0.0
 11
26.7785379735
 21
119.7270109439
 31
0.0
  0
ARC
  5
175
330
1F
100
AcDbEntity
  8
0
  6
Continuous
 62
     7
 48
100.0
370
    15
100
AcDbCircle
 10
43.7785379735
 20
128.7270109439
 30
0.0
 40
9.0
100
AcDbArc
 50
270.0
 51
0.0
  0
LINE
  5
176
330
1F
100
AcDbEntity
  8
0
  6
Continuous
 62
     7
 48
10.0
370
    15
100
AcDbLine
 10
52.7785379735
 20
162.7270109439
 30
0.0
 11
52.7785379735
 21
128.7270109439
 31
0.0
  0
ARC
  5
177
330
1F
100
AcDbEntity
  8
0
  6
Continuous
 62
     7
 48
100.0
370
    15
100
AcDbCircle
 10
59.7785379735
 20
162.7270109439
 30
0.0
 40
7.0
100
AcDbArc
 50
38.2132107017
 51
180.0
  0
ARC
  5
178
330
1F
100
AcDbEntity
  8
0
  6
Continuous
 62
     7
 48
100.0
370
    15
100
AcDbCircle
 10
109.2785379735
 20
201.6981541142
 30
0.0
 40
56.00000000000001
100
AcDbArc
 50
218.2132107017
 51
321.7867892983
  0
ARC
  5
179
330
1F
100
AcDbEntity
  8
0
  6
Continuous
 62
     7
 48
100.0
370
    15
100
AcDbCircle
 10
158.7785379735
 20
162.7270109439
 30
0.0
 40
7.0
100
AcDbArc
 50
0.0
 51
141.7867892983
  0
ARC
  5
17A
330
1F
100
AcDbEntity
  8
0
  6
Continuous
 62
     7
 48
100.0
370
    15
100
AcDbCircle
 10
174.7785379735
 20
128.7270109439
 30
0.0
 40
9.0
100
AcDbArc
 50
180.0
 51
270.0
  0
LINE
  5
17B
330
1F
100
AcDbEntity
  8
0
  6
Continuous
 62
     7
 48
10.0
370
    15
100
AcDbLine
 10
191.7785379735
 20
119.7270109439
 30
0.0
 11
174.7785379735
 21
119.7270109439
 31
0.0
  0
LINE
  5
17C
330
1F
100
AcDbEntity
  8
0
  6
Continuous
 62
     7
 48
10.0
370
    15
100
AcDbLine
 10
191.7785379735
 20
118.7270109439
 30
0.0
 11
191.7785379735
 21
119.7270109439
 31
0.0
  0
LINE
  5
17D
330
1F
100
AcDbEntity
  8
0
  6
Continuous
 62
     7
 48
10.0
370
    15
100
AcDbLine
 10
174.7785379735
 20
118.7270109439
 30
0.0
 11
191.7785379735
 21
118.7270109439
 31
0.0
  0
ARC
  5
17E
330
1F
100
AcDbEntity
  8
0
  6
Continuous
 62
     7
 48
100.0
370
    15
100
AcDbCircle
 10
174.7785379735
 20
128.7270109439
 30
0.0
 40
10.0
100
AcDbArc
 50
180.0
 51
270.0
  0
ARC
  5
17F
330
1F
100
AcDbEntity
  8
0
  6
Continuous
 62
     7
 48
100.0
370
    15
100
AcDbCircle
 10
158.7785379735
 20
162.7270109439
 30
0.0
 40
6.0
100
AcDbArc
 50
0.0
 51
141.7867892983
  0
ARC
  5
180
330
1F
100
AcDbEntity
  8
0
  6
Continuous
 62
     7
 48
100.0
370
    15
100
AcDbCircle
 10
109.2785379735
 20
201.6981541142
 30
0.0
 40
57.00000000000003
100
AcDbArc
 50
218.2132107017
 51
321.7867892983
  0
ARC
  5
181
330
1F
100
AcDbEntity
  8
0
  6
Continuous
 62
     7
 48
100.0
370
    15
100
AcDbCircle
 10
59.7785379735
 20
162.7270109439
 30
0.0
 40
6.0
100
AcDbArc
 50
38.2132107017
 51
180.0
  0
ARC
  5
182
330
1F
100
AcDbEntity
  8
0
  6
Continuous
 62
     7
 48
100.0
370
    15
100
AcDbCircle
 10
43.7785379735
 20
128.7270109439
 30
0.0
 40
10.0
100
AcDbArc
 50
270.0
 51
0.0
  0
LINE
  5
183
330
1F
100
AcDbEntity
  8
0
  6
Continuous
 62
     7
 48
10.0
370
    15
100
AcDbLine
 10
26.7785379735
 20
118.7270109439
 30
0.0
 11
43.7785379735
 21
118.7270109439
 31
0.0
  0
LINE
  5
184
330
1F
100
AcDbEntity
  8
0
  6
Continuous
 62
     7
 48
10.0
370
    15
100
AcDbLine
 10
26.7785379735
 20
118.7270109439
 30
0.0
 11
26.7785379735
 21
119.7270109439
 31
0.0
  0
LINE
  5
185
330
1F
100
AcDbEntity
  8
0
  6
Continuous
 62
     7
 48
10.0
370
    15
100
AcDbLine
 10
52.7785379735
 20
128.7270109439
 30
0.0
 11
51.7785379735
 21
128.7270109439
 31
0.0
  0
LINE
  5
186
330
1F
100
AcDbEntity
  8
0
  6
Continuous
 62
     7
 48
10.0
370
    15
100
AcDbLine
 10
51.7785379735
 20
128.7270109439
 30
0.0
 11
51.7785379735
 21
162.7270109439
 31
0.0
  0
LINE
  5
187
330
1F
100
AcDbEntity
  8
0
  6
Continuous
 62
     7
 48
10.0
370
    15
100
AcDbLine
 10
52.7785379735
 20
162.7270109439
 30
0.0
 11
51.7785379735
 21
162.7270109439
 31
0.0
  0
ARC
  5
188
330
1F
100
AcDbEntity
  8
0
  6
Continuous
 62
     7
 48
100.0
370
    15
100
AcDbCircle
 10
59.7785379735
 20
162.7270109439
 30
0.0
 40
5.0
100
AcDbArc
 50
38.2132107017
 51
180.0
  0
LINE
  5
189
330
1F
100
AcDbEntity
  8
0
  6
Continuous
 62
     7
 48
10.0
370
    15
100
AcDbLine
 10
63.7071094021
 20
165.8199588146
 30
0.0
 11
64.4928236878
 21
166.4385483887
 31
0.0
  0
ARC
  5
18A
330
1F
100
AcDbEntity
  8
0
  6
Continuous
 62
     7
 48
100.0
370
    15
100
AcDbCircle
 10
109.2785379735
 20
201.6981541142
 30
0.0
 40
58.00000000000001
100
AcDbArc
 50
218.2132107017
 51
321.7867892983
  0
LINE
  5
18B
330
1F
100
AcDbEntity
  8
0
  6
Continuous
 62
     7
 48
10.0
370
    15
100
AcDbLine
 10
154.8499665449
 20
165.8199588146
 30
0.0
 11
154.0642522592
 21
166.4385483887
 31
0.0
  0
ARC
  5
18C
330
1F
100
AcDbEntity
  8
0
  6
Continuous
 62
     7
 48
100.0
370
    15
100
AcDbCircle
 10
174.7785379735
 20
128.7270109439
 30
0.0
 40
8.0
100
AcDbArc
 50
180.0
 51
270.0
  0
LINE
  5
18D
330
1F
100
AcDbEntity
  8
0
  6
Continuous
 62
     7
 48
10.0
370
    15
100
AcDbLine
 10
174.7785379735
 20
119.7270109439
 30
0.0
 11
174.7785379735
 21
120.7270109439
 31
0.0
  0
LINE
  5
18E
330
1F
100
AcDbEntity
  8
0
  6
Continuous
 62
     7
 48
10.0
370
    15
100
AcDbLine
 10
43.7785379735
 20
117.7270109439
 30
0.0
 11
27.2143447367
 21
117.7270109439
 31
0.0
  0
SPLINE
  5
18F
330
1F
100
AcDbEntity
  8
0
  6
Continuous
 62
     7
 48
10.0
370
    15
100
AcDbSpline
210
0.0
220
0.0
230
1.0
 70
     8
 71
     3
 72
    13
 73
     9
 74
     0
 42
0.00000001
 43
0.00000001
 40
0.0
 40
0.0
 40
0.0
 40
0.0
 40
0.0044895206270772
 40
0.2011433135351386
 40
0.4154892891916152
 40
0.6144924762132177
 40
0.8071299115630156
 40
1.0
 40
1.0
 40
1.0
 40
1.0
 10
27.21434473674104
 20
117.7270109439404
 30
0.0
 10
27.21335231054772
 20
117.7270159075293
 30
0.0
 10
27.16888878992957
 20
117.7272382904506
 30
0.0
 10
27.07712274354415
 20
117.7594956565456
 30
0.0
 10
26.95400144512218
 20
117.9001898598243
 30
0.0
 10
26.85626476371948
 20
118.126826321407
 30
0.0
 10
26.79116080378213
 20
118.4100020157609
 30
0.0
 10
26.78274727611527
 20
118.6212987954735
 30
0.0
 10
26.77853797350751
 20
118.7270109439404
 30
0.0
  0
LINE
  5
190
330
1F
100
AcDbEntity
  8
0
  6
Continuous
 62
     7
 48
10.0
370
    15
100
AcDbLine
 10
43.7785379735
 20
117.7270109439
 30
0.0
 11
43.7785379735
 21
118.7270109439
 31
0.0
  0
LINE
  5
191
330
1F
100
AcDbEntity
  8
0
  6
Continuous
 62
     7
 48
10.0
370
    15
100
AcDbLine
 10
153.2785379735
 20
167.0571379629
 30
0.0
 11
152.4928236878
 21
167.675727537
 31
0.0
  0
ARC
  5
192
330
1F
100
AcDbEntity
  8
0
  6
Continuous
 62
     7
 48
100.0
370
    15
100
AcDbCircle
 10
158.7785379735
 20
162.7270109439
 30
0.0
 40
8.0
100
AcDbArc
 50
0.0
 51
141.7867892983
  0
LINE
  5
193
330
1F
100
AcDbEntity
  8
0
  6
Continuous
 62
     7
 48
10.0
370
    15
100
AcDbLine
 10
27.2143447367
 20
117.7270109439
 30
0.0
 11
22.7785379735
 21
117.7270109439
 31
0.0
  0
ARC
  5
194
330
1F
100
AcDbEntity
  8
0
  6
Continuous
 62
     7
 48
100.0
370
    15
100
AcDbCircle
 10
59.7785379735
 20
162.7270109439
 30
0.0
 40
8.0
100
AcDbArc
 50
38.2132107017
 51
180.0
  0
LINE
  5
195
330
1F
100
AcDbEntity
  8
0
  6
Continuous
 62
     7
 48
10.0
370
    15
100
AcDbLine
 10
65.2785379735
 20
167.0571379629
 30
0.0
 11
66.0642522592
 21
167.675727537
 31
0.0
  0
ARC
  5
196
330
1F
100
AcDbEntity
  8
0
  6
Continuous
 62
     7
 48
100.0
370
    15
100
AcDbCircle
 10
158.7785379735
 20
162.7270109439
 30
0.0
 40
5.0
100
AcDbArc
 50
0.0
 51
141.7867892983
  0
LINE
  5
197
330
1F
100
AcDbEntity
  8
0
  6
Continuous
 62
     7
 48
10.0
370
    15
100
AcDbLine
 10
43.7785379735
 20
119.7270109439
 30
0.0
 11
43.7785379735
 21
120.7270109439
 31
0.0
  0
ARC
  5
198
330
1F
100
AcDbEntity
  8
0
  6
Continuous
 62
     7
 48
100.0
370
    15
100
AcDbCircle
 10
43.7785379735
 20
128.7270109439
 30
0.0
 40
8.0
100
AcDbArc
 50
270.0
 51
0.0
  0
ARC
  5
199
330
1F
100
AcDbEntity
  8
0
  6
Continuous
 62
     7
 48
100.0
370
    15
100
AcDbCircle
 10
174.7785379735
 20
128.7270109439
 30
0.0
 40
11.0
100
AcDbArc
 50
180.0
 51
270.0
  0
LINE
  5
19A
330
1F
100
AcDbEntity
  8
0
  6
Continuous
 62
     7
 48
10.0
370
    15
100
AcDbLine
 10
174.7785379735
 20
117.7270109439
 30
0.0
 11
174.7785379735
 21
118.7270109439
 31
0.0
  0
SPLINE
  5
19B
330
1F
100
AcDbEntity
  8
0
  6
Continuous
 62
     7
 48
10.0
370
    15
100
AcDbSpline
210
0.0
220
0.0
230
1.0
 70
     8
 71
     3
 72
    13
 73
     9
 74
     0
 42
0.00000001
 43
0.00000001
 40
0.0
 40
0.0
 40
0.0
 40
0.0
 40
0.1928700884369866
 40
0.3855075237867793
 40
0.584510710808384
 40
0.7988566864648631
 40
0.995510479372925
 40
1.0
 40
1.0
 40
1.0
 40
1.0
 10
26.77853797350751
 20
119.7270109439404
 30
0.0
 10
26.78274727611522
 20
119.8327230924072
 30
0.0
 10
26.79116080378209
 20
120.0440198721199
 30
0.0
 10
26.85626476371957
 20
120.3271955664738
 30
0.0
 10
26.95400144512207
 20
120.5538320280564
 30
0.0
 10
27.07712274354449
 20
120.6945262313354
 30
0.0
 10
27.16888878992897
 20
120.7267835974294
 30
0.0
 10
27.21335231054768
 20
120.7270059803515
 30
0.0
 10
27.21434473674104
 20
120.7270109439404
 30
0.0
  0
LINE
  5
19C
330
1F
100
AcDbEntity
  8
0
  6
Continuous
 62
     7
 48
10.0
370
    15
100
AcDbLine
 10
27.2143447367
 20
120.7270109439
 30
0.0
 11
43.7785379735
 21
120.7270109439
 31
0.0
  0
LINE
  5
19D
330
1F
100
AcDbEntity
  8
0
  6
Continuous
 62
     7
 48
10.0
370
    15
100
AcDbLine
 10
191.3427312103
 20
120.7270109439
 30
0.0
 11
195.7785379735
 21
120.7270109439
 31
0.0
  0
SPLINE
  5
19E
330
1F
100
AcDbEntity
  8
0
  6
Continuous
 62
     7
 48
10.0
370
    15
100
AcDbSpline
210
0.0
220
0.0
230
1.0
 70
     8
 71
     3
 72
    13
 73
     9
 74
     0
 42
0.00000001
 43
0.00000001
 40
0.0
 40
0.0
 40
0.0
 40
0.0
 40
0.0044895206270766
 40
0.2011433135351372
 40
0.4154892891916191
 40
0.6144924762132232
 40
0.8071299115630244
 40
1.0
 40
1.0
 40
1.0
 40
1.0
 10
191.342731210274
 20
120.7270109439404
 30
0.0
 10
191.3437236364674
 20
120.7270059803515
 30
0.0
 10
191.3881871570863
 20
120.7267835974294
 30
0.0
 10
191.4799532034705
 20
120.6945262313354
 30
0.0
 10
191.603074501893
 20
120.5538320280564
 30
0.0
 10
191.7008111832955
 20
120.3271955664737
 30
0.0
 10
191.765915143233
 20
120.0440198721199
 30
0.0
 10
191.7743286708998
 20
119.8327230924072
 30
0.0
 10
191.7785379735076
 20
119.7270109439404
 30
0.0
  0
ARC
  5
19F
330
1F
100
AcDbEntity
  8
0
  6
Continuous
 62
     7
 48
100.0
370
    15
100
AcDbCircle
 10
43.7785379735
 20
128.7270109439
 30
0.0
 40
11.0
100
AcDbArc
 50
270.0
 51
0.0
  0
LINE
  5
1A0
330
1F
100
AcDbEntity
  8
0
  6
Continuous
 62
     7
 48
10.0
370
    15
100
AcDbLine
 10
191.3427312103
 20
117.7270109439
 30
0.0
 11
174.7785379735
 21
117.7270109439
 31
0.0
  0
SPLINE
  5
1A1
330
1F
100
AcDbEntity
  8
0
  6
Continuous
 62
     7
 48
10.0
370
    15
100
AcDbSpline
210
0.0
220
0.0
230
1.0
 70
     8
 71
     3
 72
    13
 73
     9
 74
     0
 42
0.00000001
 43
0.00000001
 40
0.0
 40
0.0
 40
0.0
 40
0.0
 40
0.1928700884369917
 40
0.3855075237867765
 40
0.584510710808387
 40
0.7988566864648631
 40
0.9955104793729216
 40
1.0
 40
1.0
 40
1.0
 40
1.0
 10
191.7785379735076
 20
118.7270109439404
 30
0.0
 10
191.7743286708998
 20
118.6212987954735
 30
0.0
 10
191.765915143233
 20
118.4100020157608
 30
0.0
 10
191.7008111832955
 20
118.126826321407
 30
0.0
 10
191.603074501893
 20
117.9001898598242
 30
0.0
 10
191.4799532034707
 20
117.7594956565455
 30
0.0
 10
191.388187157086
 20
117.7272382904509
 30
0.0
 10
191.3437236364673
 20
117.7270159075292
 30
0.0
 10
191.342731210274
 20
117.7270109439403
 30
0.0
  0
LINE
  5
1A2
330
1F
100
AcDbEntity
  8
0
  6
Continuous
 62
     7
 48
10.0
370
    15
100
AcDbLine
 10
174.7785379735
 20
120.7270109439
 30
0.0
 11
191.3427312103
 21
120.7270109439
 31
0.0
  0
LINE
  5
1A3
330
1F
100
AcDbEntity
  8
0
  6
Continuous
 62
     7
 48
10.0
370
    15
100
AcDbLine
 10
195.7785379735
 20
117.7270109439
 30
0.0
 11
191.3427312103
 21
117.7270109439
 31
0.0
  0
LINE
  5
1A4
330
1F
100
AcDbEntity
  8
0
  6
Continuous
 62
     7
 48
10.0
370
    15
100
AcDbLine
 10
22.7785379735
 20
120.7270109439
 30
0.0
 11
27.2143447367
 21
120.7270109439
 31
0.0
  0
ARC
  5
1A5
330
1F
100
AcDbEntity
  8
0
  6
Continuous
 62
     7
 48
100.0
370
    15
100
AcDbCircle
 10
109.2785379735
 20
201.6981541142
 30
0.0
 40
55.00000000000001
100
AcDbArc
 50
218.2132107017
 51
321.7867892983
  0
LINE
  5
1A6
330
1F
100
AcDbEntity
  8
0
  6
Continuous
 62
     7
 48
10.0
370
    15
100
AcDbLine
 10
54.7785379735
 20
128.9481541142
 30
0.0
 11
56.2785379735
 21
128.9481541142
 31
0.0
  0
LINE
  5
1A7
330
1F
100
AcDbEntity
  8
0
  6
Continuous
 62
     7
 48
10.0
370
    15
100
AcDbLine
 10
54.7785379735
 20
139.4481541142
 30
0.0
 11
56.2785379735
 21
139.4481541142
 31
0.0
  0
LINE
  5
1A8
330
1F
100
AcDbEntity
  8
0
  6
Continuous
 62
     7
 48
10.0
370
    15
100
AcDbLine
 10
56.2785379735
 20
128.9481541142
 30
0.0
 11
56.2785379735
 21
139.4481541142
 31
0.0
  0
LINE
  5
1A9
330
1F
100
AcDbEntity
  8
0
  6
Continuous
 62
     7
 48
10.0
370
    15
100
AcDbLine
 10
162.2785379735
 20
128.9481541142
 30
0.0
 11
163.7785379735
 21
128.9481541142
 31
0.0
  0
LINE
  5
1AA
330
1F
100
AcDbEntity
  8
0
  6
Continuous
 62
     7
 48
10.0
370
    15
100
AcDbLine
 10
162.2785379735
 20
128.9481541142
 30
0.0
 11
162.2785379735
 21
139.4481541142
 31
0.0
  0
LINE
  5
1AB
330
1F
100
AcDbEntity
  8
0
  6
Continuous
 62
     7
 48
10.0
370
    15
100
AcDbLine
 10
162.2785379735
 20
139.4481541142
 30
0.0
 11
163.7785379735
 21
139.4481541142
 31
0.0
  0
LINE
  5
1AC
330
1F
100
AcDbEntity
  8
0
  6
Continuous
 62
     8
 48
10.0
370
    15
100
AcDbLine
 10
50.7785379735
 20
124.8540275977
 30
0.0
 11
50.7785379735
 21
129.1981541142
 31
0.0
  0
LINE
  5
1AD
330
1F
100
AcDbEntity
  8
0
  6
Continuous
 62
     8
 48
10.0
370
    15
100
AcDbLine
 10
49.7785379735
 20
129.1981541142
 30
0.0
 11
49.7785379735
 21
124.1981541142
 31
0.0
  0
LINE
  5
1AE
330
1F
100
AcDbEntity
  8
0
  6
Continuous
 62
     8
 48
10.0
370
    15
100
AcDbLine
 10
168.7785379735
 20
124.1981541142
 30
0.0
 11
168.7785379735
 21
129.1981541142
 31
0.0
  0
LINE
  5
1AF
330
1F
100
AcDbEntity
  8
0
  6
Continuous
 62
     8
 48
10.0
370
    15
100
AcDbLine
 10
167.7785379735
 20
129.1981541142
 30
0.0
 11
167.7785379735
 21
124.8540275977
 31
0.0
  0
LINE
  5
1B0
330
1F
100
AcDbEntity
  8
0
  6
Continuous
 62
     8
 48
10.0
370
    15
100
AcDbLine
 10
21.7785379735
 20
118.7270109439
 30
0.0
 11
26.7785379735
 21
118.7270109439
 31
0.0
  0
LINE
  5
1B1
330
1F
100
AcDbEntity
  8
0
  6
Continuous
 62
     8
 48
10.0
370
    15
100
AcDbLine
 10
196.7785379735
 20
119.7270109439
 30
0.0
 11
191.7785379735
 21
119.7270109439
 31
0.0
  0
LINE
  5
1B2
330
1F
100
AcDbEntity
  8
0
  6
Continuous
 62
     8
 48
10.0
370
    15
100
AcDbLine
 10
26.7785379735
 20
119.7270109439
 30
0.0
 11
21.7785379735
 21
119.7270109439
 31
0.0
  0
LINE
  5
1B3
330
1F
100
AcDbEntity
  8
0
  6
Continuous
 62
     8
 48
10.0
370
    15
100
AcDbLine
 10
191.7785379735
 20
118.7270109439
 30
0.0
 11
196.7785379735
 21
118.7270109439
 31
0.0
  0
DIMENSION
  5
1B4
330
1F
100
AcDbEntity
  8
SLD-0
 48
10.0
100
AcDbDimension
  2
*D4
 10
17.4308642
 20
262.1981541142
 30
0.0
 11
17.4308642
 21
185.9295365184
 31
0.0
 70
   160
 71
     2
 42
-1.0
 73
     0
 74
     0
 75
     0
  3
SLDDIMSTYLE0
100
AcDbAlignedDimension
 13
27.2143447367
 23
117.7270109439
 33
0.0
 14
109.2785379735
 24
262.1981541142
 34
0.0
 50
90.0
100
AcDbRotatedDimension
  0
DIMENSION
  5
1BF
330
1F
100
AcDbEntity
  8
SLD-0
 48
10.0
100
AcDbDimension
  2
*D5
 10
196.7785379735
 20
112.3914735195
 30
0.0
 11
108.1226928537
 21
112.3914735195
 31
0.0
 70
   160
 71
     2
 42
-1.0
 73
     0
 74
     0
 75
     0
  3
SLDDIMSTYLE0
100
AcDbAlignedDimension
 13
21.7785379735
 23
118.7270109439
 33
0.0
 14
196.7785379735
 24
118.7270109439
 34
0.0
100
AcDbRotatedDimension
  0
LINE
  5
1C9
330
1F
100
AcDbEntity
  8
0
  6
Continuous
 62
     7
 48
10.0
370
    15
100
AcDbLine
 10
45.7785379735
 20
74.5722096865
 30
0.0
 11
47.7785379735
 21
74.5722096865
 31
0.0
  0
LINE
  5
1CA
330
1F
100
AcDbEntity
  8
0
  6
Continuous
 62
     7
 48
10.0
370
    15
100
AcDbLine
 10
47.7785379735
 20
86.5722096865
 30
0.0
 11
45.7785379735
 21
86.5722096865
 31
0.0
  0
ARC
  5
1CB
330
1F
100
AcDbEntity
  8
0
  6
Continuous
 62
     7
 48
100.0
370
    15
100
AcDbCircle
 10
63.2785379735
 20
80.5722096865
 30
0.0
 40
18.5
100
AcDbArc
 50
161.0753555839
 51
198.9246444161
  0
LINE
  5
1CC
330
1F
100
AcDbEntity
  8
0
  6
Continuous
 62
     7
 48
10.0
370
    15
100
AcDbLine
 10
47.7785379735
 20
77.3722096865
 30
0.0
 11
48.7785379735
 21
77.3722096865
 31
0.0
  0
LINE
  5
1CD
330
1F
100
AcDbEntity
  8
0
  6
Continuous
 62
     7
 48
10.0
370
    15
100
AcDbLine
 10
48.7785379735
 20
83.7722096865
 30
0.0
 11
47.7785379735
 21
83.7722096865
 31
0.0
  0
LINE
  5
1CE
330
1F
100
AcDbEntity
  8
0
  6
Continuous
 62
     7
 48
10.0
370
    15
100
AcDbLine
 10
172.7785379735
 20
86.5722096865
 30
0.0
 11
170.7785379735
 21
86.5722096865
 31
0.0
  0
LINE
  5
1CF
330
1F
100
AcDbEntity
  8
0
  6
Continuous
 62
     7
 48
10.0
370
    15
100
AcDbLine
 10
170.7785379735
 20
74.5722096865
 30
0.0
 11
172.7785379735
 21
74.5722096865
 31
0.0
  0
ARC
  5
1D0
330
1F
100
AcDbEntity
  8
0
  6
Continuous
 62
     7
 48
100.0
370
    15
100
AcDbCircle
 10
155.2785379735
 20
80.5722096865
 30
0.0
 40
18.50000000000001
100
AcDbArc
 50
341.0753555839
 51
18.9246444161
  0
LINE
  5
1D1
330
1F
100
AcDbEntity
  8
0
  6
Continuous
 62
     7
 48
10.0
370
    15
100
AcDbLine
 10
170.7785379735
 20
83.7722096865
 30
0.0
 11
169.7785379735
 21
83.7722096865
 31
0.0
  0
LINE
  5
1D2
330
1F
100
AcDbEntity
  8
0
  6
Continuous
 62
     7
 48
10.0
370
    15
100
AcDbLine
 10
169.7785379735
 20
77.3722096865
 30
0.0
 11
170.7785379735
 21
77.3722096865
 31
0.0
  0
LINE
  5
1D3
330
1F
100
AcDbEntity
  8
0
  6
Continuous
 62
     7
 48
10.0
370
    15
100
AcDbLine
 10
45.7785379735
 20
74.5722096865
 30
0.0
 11
45.7785379735
 21
86.5722096865
 31
0.0
  0
LINE
  5
1D4
330
1F
100
AcDbEntity
  8
0
  6
Continuous
 62
     7
 48
10.0
370
    15
100
AcDbLine
 10
47.7785379735
 20
74.5722096865
 30
0.0
 11
47.7785379735
 21
86.5722096865
 31
0.0
  0
LINE
  5
1D5
330
1F
100
AcDbEntity
  8
0
  6
Continuous
 62
     7
 48
10.0
370
    15
100
AcDbLine
 10
172.7785379735
 20
86.5722096865
 30
0.0
 11
172.7785379735
 21
74.5722096865
 31
0.0
  0
LINE
  5
1D6
330
1F
100
AcDbEntity
  8
0
  6
Continuous
 62
     7
 48
10.0
370
    15
100
AcDbLine
 10
170.7785379735
 20
86.5722096865
 30
0.0
 11
170.7785379735
 21
74.5722096865
 31
0.0
  0
LINE
  5
1D7
330
1F
100
AcDbEntity
  8
0
  6
Continuous
 62
     7
 48
10.0
370
    15
100
AcDbLine
 10
48.7785379735
 20
69.0722096865
 30
0.0
 11
169.7785379735
 21
69.0722096865
 31
0.0
  0
LINE
  5
1D8
330
1F
100
AcDbEntity
  8
0
  6
Continuous
 62
     7
 48
10.0
370
    15
100
AcDbLine
 10
48.7785379735
 20
69.0722096865
 30
0.0
 11
48.7785379735
 21
92.0722096865
 31
0.0
  0
LINE
  5
1D9
330
1F
100
AcDbEntity
  8
0
  6
Continuous
 62
     7
 48
10.0
370
    15
100
AcDbLine
 10
169.7785379735
 20
92.0722096865
 30
0.0
 11
48.7785379735
 21
92.0722096865
 31
0.0
  0
LINE
  5
1DA
330
1F
100
AcDbEntity
  8
0
  6
Continuous
 62
     7
 48
10.0
370
    15
100
AcDbLine
 10
169.7785379735
 20
69.0722096865
 30
0.0
 11
169.7785379735
 21
92.0722096865
 31
0.0
  0
LINE
  5
1DB
330
1F
100
AcDbEntity
  8
0
  6
Continuous
 62
     7
 48
10.0
370
    15
100
AcDbLine
 10
49.7785379735
 20
93.0722096865
 30
0.0
 11
168.7785379735
 21
93.0722096865
 31
0.0
  0
ARC
  5
1DC
330
1F
100
AcDbEntity
  8
0
  6
Continuous
 62
     7
 48
100.0
370
    15
100
AcDbCircle
 10
168.7785379735
 20
92.0722096865
 30
0.0
 40
1.0
100
AcDbArc
 50
0.0
 51
90.0
  0
ARC
  5
1DD
330
1F
100
AcDbEntity
  8
0
  6
Continuous
 62
     7
 48
100.0
370
    15
100
AcDbCircle
 10
49.7785379735
 20
92.0722096865
 30
0.0
 40
1.000000000000007
100
AcDbArc
 50
90.0
 51
180.0
  0
ARC
  5
1DE
330
1F
100
AcDbEntity
  8
0
  6
Continuous
 62
     7
 48
100.0
370
    15
100
AcDbCircle
 10
168.7785379735
 20
69.0722096865
 30
0.0
 40
1.0
100
AcDbArc
 50
270.0
 51
0.0
  0
LINE
  5
1DF
330
1F
100
AcDbEntity
  8
0
  6
Continuous
 62
     7
 48
10.0
370
    15
100
AcDbLine
 10
168.7785379735
 20
68.0722096865
 30
0.0
 11
49.7785379735
 21
68.0722096865
 31
0.0
  0
ARC
  5
1E0
330
1F
100
AcDbEntity
  8
0
  6
Continuous
 62
     7
 48
100.0
370
    15
100
AcDbCircle
 10
49.7785379735
 20
69.0722096865
 30
0.0
 40
1.000000000000007
100
AcDbArc
 50
180.0
 51
270.0
  0
LINE
  5
1E1
330
1F
100
AcDbEntity
  8
0
  6
Continuous
 62
     7
 48
10.0
370
    15
100
AcDbLine
 10
43.7785379735
 20
92.0722096865
 30
0.0
 11
43.7785379735
 21
93.0722096865
 31
0.0
  0
LINE
  5
1E2
330
1F
100
AcDbEntity
  8
0
  6
Continuous
 62
     7
 48
10.0
370
    15
100
AcDbLine
 10
43.7785379735
 20
93.0722096865
 30
0.0
 11
49.7785379735
 21
93.0722096865
 31
0.0
  0
LINE
  5
1E3
330
1F
100
AcDbEntity
  8
0
  6
Continuous
 62
     7
 48
10.0
370
    15
100
AcDbLine
 10
174.7785379735
 20
69.0722096865
 30
0.0
 11
174.7785379735
 21
92.0722096865
 31
0.0
  0
LINE
  5
1E4
330
1F
100
AcDbEntity
  8
0
  6
Continuous
 62
     7
 48
10.0
370
    15
100
AcDbLine
 10
174.7785379735
 20
92.0722096865
 30
0.0
 11
174.7785379735
 21
93.0722096865
 31
0.0
  0
LINE
  5
1E5
330
1F
100
AcDbEntity
  8
0
  6
Continuous
 62
     7
 48
10.0
370
    15
100
AcDbLine
 10
168.7785379735
 20
93.0722096865
 30
0.0
 11
174.7785379735
 21
93.0722096865
 31
0.0
  0
LINE
  5
1E6
330
1F
100
AcDbEntity
  8
0
  6
Continuous
 62
     7
 48
10.0
370
    15
100
AcDbLine
 10
43.7785379735
 20
69.0722096865
 30
0.0
 11
43.7785379735
 21
92.0722096865
 31
0.0
  0
LINE
  5
1E7
330
1F
100
AcDbEntity
  8
0
  6
Continuous
 62
     7
 48
10.0
370
    15
100
AcDbLine
 10
43.7785379735
 20
68.0722096865
 30
0.0
 11
43.7785379735
 21
69.0722096865
 31
0.0
  0
LINE
  5
1E8
330
1F
100
AcDbEntity
  8
0
  6
Continuous
 62
     7
 48
10.0
370
    15
100
AcDbLine
 10
49.7785379735
 20
68.0722096865
 30
0.0
 11
43.7785379735
 21
68.0722096865
 31
0.0
  0
LINE
  5
1E9
330
1F
100
AcDbEntity
  8
0
  6
Continuous
 62
     7
 48
10.0
370
    15
100
AcDbLine
 10
174.7785379735
 20
68.0722096865
 30
0.0
 11
174.7785379735
 21
69.0722096865
 31
0.0
  0
LINE
  5
1EA
330
1F
100
AcDbEntity
  8
0
  6
Continuous
 62
     7
 48
10.0
370
    15
100
AcDbLine
 10
174.7785379735
 20
68.0722096865
 30
0.0
 11
168.7785379735
 21
68.0722096865
 31
0.0
  0
LINE
  5
1EB
330
1F
100
AcDbEntity
  8
0
  6
Continuous
 62
     7
 48
10.0
370
    15
100
AcDbLine
 10
43.7785379735
 20
92.0722096865
 30
0.0
 11
27.2143447367
 21
92.0722096865
 31
0.0
  0
SPLINE
  5
1EC
330
1F
100
AcDbEntity
  8
0
  6
Continuous
 62
     7
 48
10.0
370
    15
100
AcDbSpline
210
0.0
220
0.0
230
1.0
 70
     8
 71
     3
 72
    13
 73
     9
 74
     0
 42
0.00000001
 43
0.00000001
 40
0.0
 40
0.0
 40
0.0
 40
0.0
 40
0.1928700884369854
 40
0.3855075237867834
 40
0.5845107108083883
 40
0.7988566864648697
 40
0.9955104793729274
 40
1.0
 40
1.0
 40
1.0
 40
1.0
 10
26.77853797350749
 20
93.07220968650523
 30
0.0
 10
26.78274727611524
 20
93.06237986315705
 30
0.0
 10
26.79116080378208
 20
93.04273207386568
 30
0.0
 10
26.85626476371961
 20
92.89118933672756
 30
0.0
 10
26.9540014451218
 20
92.66515316626378
 30
0.0
 10
27.07712274354547
 20
92.38291519893762
 30
0.0
 10
27.16888878992692
 20
92.17475965693058
 30
0.0
 10
27.21335231054763
 20
92.07444862956804
 30
0.0
 10
27.21434473674103
 20
92.07220968650523
 30
0.0
  0
LINE
  5
1ED
330
1F
100
AcDbEntity
  8
0
  6
Continuous
 62
     7
 48
10.0
370
    15
100
AcDbLine
 10
26.7785379735
 20
93.0722096865
 30
0.0
 11
43.7785379735
 21
93.0722096865
 31
0.0
  0
ARC
  5
1EE
330
1F
100
AcDbEntity
  8
0
  6
Continuous
 62
     7
 48
100.0
370
    15
100
AcDbCircle
 10
39.9035379735
 20
80.5722096865
 30
0.0
 40
18.12500000000008
100
AcDbArc
 50
136.3971810273
 51
223.6028189727
  0
ARC
  5
1EF
330
1F
100
AcDbEntity
  8
0
  6
Continuous
 62
     7
 48
100.0
370
    15
100
AcDbCircle
 10
39.9035379735
 20
80.5722096865
 30
0.0
 40
17.12500000000007
100
AcDbArc
 50
137.8145188401
 51
222.1854811599
  0
SPLINE
  5
1F0
330
1F
100
AcDbEntity
  8
0
  6
Continuous
 62
     7
 48
10.0
370
    15
100
AcDbSpline
210
0.0
220
0.0
230
1.0
 70
     8
 71
     3
 72
    13
 73
     9
 74
     0
 42
0.00000001
 43
0.00000001
 40
0.0
 40
0.0
 40
0.0
 40
0.0
 40
0.1928700884369866
 40
0.3855075237867793
 40
0.584510710808384
 40
0.7988566864648631
 40
0.995510479372925
 40
1.0
 40
1.0
 40
1.0
 40
1.0
 10
26.7785379735075
 20
68.07220968650523
 30
0.0
 10
26.78274727611521
 20
68.08203950985342
 30
0.0
 10
26.79116080378208
 20
68.1016872991448
 30
0.0
 10
26.85626476371955
 20
68.25323003628291
 30
0.0
 10
26.95400144512206
 20
68.47926620674652
 30
0.0
 10
27.07712274354447
 20
68.7615041740735
 30
0.0
 10
27.16888878992896
 20
68.96965971607855
 30
0.0
 10
27.21335231054767
 20
69.06997074344241
 30
0.0
 10
27.21434473674103
 20
69.07220968650523
 30
0.0
  0
CIRCLE
  5
1F1
330
1F
100
AcDbEntity
  8
0
  6
Continuous
 62
     7
 48
100.0
370
    15
100
AcDbCircle
 10
30.7785379735
 20
80.5722096865
 30
0.0
 40
3.0
  0
LINE
  5
1F2
330
1F
100
AcDbEntity
  8
0
  6
Continuous
 62
     7
 48
10.0
370
    15
100
AcDbLine
 10
27.2143447367
 20
69.0722096865
 30
0.0
 11
43.7785379735
 21
69.0722096865
 31
0.0
  0
ARC
  5
1F3
330
1F
100
AcDbEntity
  8
0
  6
Continuous
 62
     7
 48
100.0
370
    15
100
AcDbCircle
 10
178.6535379735
 20
80.5722096865
 30
0.0
 40
17.12500000000007
100
AcDbArc
 50
317.8145188401
 51
42.1854811599
  0
SPLINE
  5
1F4
330
1F
100
AcDbEntity
  8
0
  6
Continuous
 62
     7
 48
10.0
370
    15
100
AcDbSpline
210
0.0
220
0.0
230
1.0
 70
     8
 71
     3
 72
    13
 73
     9
 74
     0
 42
0.00000001
 43
0.00000001
 40
0.0
 40
0.0
 40
0.0
 40
0.0
 40
0.0044895206270717
 40
0.2011433135351365
 40
0.4154892891916089
 40
0.6144924762132207
 40
0.8071299115630141
 40
1.0
 40
1.0
 40
1.0
 40
1.0
 10
191.3427312102741
 20
92.07220968650523
 30
0.0
 10
191.3437236364675
 20
92.07444862956802
 30
0.0
 10
191.3881871570887
 20
92.17475965693059
 30
0.0
 10
191.4799532034693
 20
92.38291519893761
 30
0.0
 10
191.6030745018933
 20
92.6651531662638
 30
0.0
 10
191.7008111832955
 20
92.89118933672758
 30
0.0
 10
191.765915143233
 20
93.04273207386565
 30
0.0
 10
191.7743286708999
 20
93.06237986315705
 30
0.0
 10
191.7785379735076
 20
93.07220968650523
 30
0.0
  0
ARC
  5
1F5
330
1F
100
AcDbEntity
  8
0
  6
Continuous
 62
     7
 48
100.0
370
    15
100
AcDbCircle
 10
178.6535379735
 20
80.5722096865
 30
0.0
 40
18.12500000000008
100
AcDbArc
 50
316.3971810273
 51
43.6028189727
  0
SPLINE
  5
1F6
330
1F
100
AcDbEntity
  8
0
  6
Continuous
 62
     7
 48
10.0
370
    15
100
AcDbSpline
210
0.0
220
0.0
230
1.0
 70
     8
 71
     3
 72
    13
 73
     9
 74
     0
 42
0.00000001
 43
0.00000001
 40
0.0
 40
0.0
 40
0.0
 40
0.0
 40
0.0044895206270766
 40
0.2011433135351372
 40
0.4154892891916191
 40
0.6144924762132232
 40
0.8071299115630244
 40
1.0
 40
1.0
 40
1.0
 40
1.0
 10
191.342731210274
 20
69.07220968650523
 30
0.0
 10
191.3437236364674
 20
69.06997074344241
 30
0.0
 10
191.3881871570863
 20
68.96965971607862
 30
0.0
 10
191.4799532034705
 20
68.76150417407345
 30
0.0
 10
191.603074501893
 20
68.4792662067465
 30
0.0
 10
191.7008111832955
 20
68.25323003628291
 30
0.0
 10
191.765915143233
 20
68.1016872991448
 30
0.0
 10
191.7743286708998
 20
68.08203950985343
 30
0.0
 10
191.7785379735076
 20
68.07220968650525
 30
0.0
  0
CIRCLE
  5
1F7
330
1F
100
AcDbEntity
  8
0
  6
Continuous
 62
     7
 48
100.0
370
    15
100
AcDbCircle
 10
187.7785379735
 20
80.5722096865
 30
0.0
 40
3.0
  0
LINE
  5
1F8
330
1F
100
AcDbEntity
  8
0
  6
Continuous
 62
     7
 48
10.0
370
    15
100
AcDbLine
 10
191.3427312103
 20
92.0722096865
 30
0.0
 11
174.7785379735
 21
92.0722096865
 31
0.0
  0
LINE
  5
1F9
330
1F
100
AcDbEntity
  8
0
  6
Continuous
 62
     7
 48
10.0
370
    15
100
AcDbLine
 10
174.7785379735
 20
69.0722096865
 30
0.0
 11
191.3427312103
 21
69.0722096865
 31
0.0
  0
LINE
  5
1FA
330
1F
100
AcDbEntity
  8
0
  6
Continuous
 62
     7
 48
10.0
370
    15
100
AcDbLine
 10
174.7785379735
 20
93.0722096865
 30
0.0
 11
191.7785379735
 21
93.0722096865
 31
0.0
  0
LINE
  5
1FB
330
1F
100
AcDbEntity
  8
0
  6
Continuous
 62
     7
 48
10.0
370
    15
100
AcDbLine
 10
191.7785379735
 20
68.0722096865
 30
0.0
 11
174.7785379735
 21
68.0722096865
 31
0.0
  0
LINE
  5
1FC
330
1F
100
AcDbEntity
  8
0
  6
Continuous
 62
     7
 48
10.0
370
    15
100
AcDbLine
 10
43.7785379735
 20
68.0722096865
 30
0.0
 11
26.7785379735
 21
68.0722096865
 31
0.0
  0
LINE
  5
1FD
330
1F
100
AcDbEntity
  8
0
  6
Continuous
 62
     8
 48
10.0
370
    15
100
AcDbLine
 10
48.7785379735
 20
92.0722096865
 30
0.0
 11
43.7785379735
 21
92.0722096865
 31
0.0
  0
LINE
  5
1FE
330
1F
100
AcDbEntity
  8
0
  6
Continuous
 62
     8
 48
10.0
370
    15
100
AcDbLine
 10
169.7785379735
 20
69.0722096865
 30
0.0
 11
174.7785379735
 21
69.0722096865
 31
0.0
  0
LINE
  5
1FF
330
1F
100
AcDbEntity
  8
0
  6
Continuous
 62
     8
 48
10.0
370
    15
100
AcDbLine
 10
174.7785379735
 20
92.0722096865
 30
0.0
 11
169.7785379735
 21
92.0722096865
 31
0.0
  0
LINE
  5
200
330
1F
100
AcDbEntity
  8
0
  6
Continuous
 62
     8
 48
10.0
370
    15
100
AcDbLine
 10
43.7785379735
 20
69.0722096865
 30
0.0
 11
48.7785379735
 21
69.0722096865
 31
0.0
  0
DIMENSION
  5
201
330
1F
100
AcDbEntity
  8
SLD-0
 48
10.0
100
AcDbDimension
  2
*D6
 10
30.7785379735
 20
96.4984664772
 30
0.0
 11
110.0679041151
 21
96.4984664772
 31
0.0
 70
   160
 71
     2
 42
-1.0
 73
     0
 74
     0
 75
     0
  3
SLDDIMSTYLE0
100
AcDbAlignedDimension
 13
187.7785379735
 23
80.5722096865
 33
0.0
 14
30.7785379735
 24
80.5722096865
 34
0.0
100
AcDbRotatedDimension
  0
DIMENSION
  5
20B
330
1F
100
AcDbEntity
  8
SLD-0
 48
10.0
100
AcDbDimension
  2
*D7
 10
189.8998583171
 20
82.6935300301
 30
0.0
 11
166.4917233498
 21
59.2853950628
 31
0.0
 70
   163
  1
<>
 71
     1
 42
-1.0
 73
     0
 74
     0
 75
     0
  3
SLDDIMSTYLE1
100
AcDbDiametricDimension
 15
185.6572176299
 25
78.4508893429
 35
0.0
 40
0.0
  0
ENDSEC
  0
SECTION
  2
OBJECTS
  0
DICTIONARY
  5
C
330
0
100
AcDbDictionary
281
     1
  3
ACAD_GROUP
350
D
  3
ACAD_IMAGE_DICT
350
73
  3
ACAD_IMAGE_VARS
350
239
  3
ACAD_LAYOUT
350
1A
  3
ACAD_MATERIAL
350
3B
  3
ACAD_MLEADERSTYLE
350
238
  3
ACAD_MLINESTYLE
350
17
  3
ACAD_PLOTSETTINGS
350
19
  3
ACAD_PLOTSTYLENAME
350
E
  3
ACAD_SCALELIST
350
4A
  3
ACAD_TABLESTYLE
350
237
  3
ACAD_VISUALSTYLE
350
2A
  3
AcDbVariableDictionary
350
215
  0
IMAGEDEF_REACTOR
  5
76
330
75
100
AcDbRasterImageDefReactor
 90
        2
330
75
  0
DICTIONARY
  5
D
102
{ACAD_REACTORS
330
C
102
}
330
C
100
AcDbDictionary
281
     1
  0
DICTIONARY
  5
73
102
{ACAD_REACTORS
330
C
102
}
330
C
100
AcDbDictionary
281
     1
  3
S:\MWDesign CLIENT L -Z\Marley NZ\RAINWATER PRODUCTS\12-501 illustration of rainwater products\12-501 Illustration\dxf6C6.bmp
350
74
  0
RASTERVARIABLES
  5
239
102
{ACAD_REACTORS
330
C
102
}
330
C
100
AcDbRasterVariables
 90
        0
 70
     1
 71
     1
 72
     1
  0
DICTIONARY
  5
1A
102
{ACAD_REACTORS
330
C
102
}
330
C
100
AcDbDictionary
281
     1
  3
Layout1
350
1E
  3
Layout2
350
26
  3
Model
350
22
  0
DICTIONARY
  5
3B
102
{ACAD_REACTORS
330
C
102
}
330
C
100
AcDbDictionary
281
     1
  3
ByBlock
350
3D
  3
ByLayer
350
3C
  3
Global
350
3E
  0
DICTIONARY
  5
238
102
{ACAD_REACTORS
330
C
102
}
330
C
100
AcDbDictionary
281
     1
  0
DICTIONARY
  5
17
102
{ACAD_REACTORS
330
C
102
}
330
C
100
AcDbDictionary
281
     1
  3
Standard
350
18
  0
DICTIONARY
  5
19
102
{ACAD_REACTORS
330
C
102
}
330
C
100
AcDbDictionary
281
     1
  0
ACDBDICTIONARYWDFLT
  5
E
102
{ACAD_REACTORS
330
C
102
}
330
C
100
AcDbDictionary
281
     1
  3
Normal
350
F
100
AcDbDictionaryWithDefault
340
F
  0
DICTIONARY
  5
4A
102
{ACAD_REACTORS
330
C
102
}
330
C
100
AcDbDictionary
281
     1
  3
A0
350
4B
  3
A1
350
4C
  3
A2
350
4D
  3
A3
350
4E
  3
A4
350
4F
  3
A5
350
50
  3
A6
350
51
  3
A7
350
52
  3
A8
350
53
  3
A9
350
54
  3
B0
350
55
  3
B1
350
56
  3
B2
350
57
  3
B3
350
58
  3
B4
350
59
  3
B5
350
5A
  3
B6
350
5B
  3
B7
350
5C
  3
B8
350
5D
  3
B9
350
5E
  3
C0
350
5F
  3
C1
350
60
  3
C2
350
61
  3
C3
350
62
  3
C4
350
63
  3
C5
350
64
  3
C6
350
65
  3
C7
350
66
  3
C8
350
67
  3
C9
350
68
  3
D0
350
69
  3
D1
350
6A
  3
D2
350
6B
  0
DICTIONARY
  5
237
102
{ACAD_REACTORS
330
C
102
}
330
C
100
AcDbDictionary
281
     1
  0
DICTIONARY
  5
2A
102
{ACAD_REACTORS
330
C
102
}
330
C
100
AcDbDictionary
281
     1
  3
2dWireframe
350
2F
  3
3D Hidden
350
31
  3
3dWireframe
350
30
  3
Basic
350
32
  3
Brighten
350
36
  3
ColorChange
350
3A
  3
Conceptual
350
34
  3
Dim
350
35
  3
Facepattern
350
39
  3
Flat
350
2B
  3
FlatWithEdges
350
2C
  3
Gouraud
350
2D
  3
GouraudWithEdges
350
2E
  3
Linepattern
350
38
  3
Realistic
350
33
  3
Thicken
350
37
  0
DICTIONARY
  5
215
102
{ACAD_REACTORS
330
C
102
}
330
C
100
AcDbDictionary
281
     1
  3
CANNOSCALE
350
216
  0
IMAGEDEF
  5
74
102
{ACAD_REACTORS
330
73
330
76
102
}
330
73
100
AcDbRasterImageDef
 90
        0
  1
S:\MWDesign CLIENT L -Z\Marley NZ\RAINWATER PRODUCTS\12-501 illustration of rainwater products\12-501 Illustration\dxf6C6.bmp
 10
394.0
 20
64.0
 11
0.2645502645502645
 21
0.2645502645502645
280
     1
281
     3
  0
LAYOUT
  5
1E
102
{ACAD_REACTORS
330
1A
102
}
330
1A
100
AcDbPlotSettings
  1

  2
none_device
  4

  6

 40
0.0
 41
0.0
 42
0.0
 43
0.0
 44
0.0
 45
0.0
 46
0.0
 47
0.0
 48
0.0
 49
0.0
140
0.0
141
0.0
142
1.0
143
1.0
 70
   688
 72
     0
 73
     0
 74
     5
  7

 75
    16
 76
     0
 77
     2
 78
   300
147
1.0
148
0.0
149
0.0
100
AcDbLayout
  1
Layout1
 70
     1
 71
     1
 10
0.0
 20
0.0
 11
420.0
 21
297.0
 12
0.0
 22
0.0
 32
0.0
 14
1.0000000000E+20
 24
1.0000000000E+20
 34
1.0000000000E+20
 15
-1.0000000000E+20
 25
-1.0000000000E+20
 35
-1.0000000000E+20
146
0.0
 13
0.0
 23
0.0
 33
0.0
 16
1.0
 26
0.0
 36
0.0
 17
0.0
 27
1.0
 37
0.0
 76
     0
330
1B
  0
LAYOUT
  5
26
102
{ACAD_REACTORS
330
1A
102
}
330
1A
100
AcDbPlotSettings
  1

  2
none_device
  4

  6

 40
0.0
 41
0.0
 42
0.0
 43
0.0
 44
0.0
 45
0.0
 46
0.0
 47
0.0
 48
0.0
 49
0.0
140
0.0
141
0.0
142
1.0
143
1.0
 70
   688
 72
     0
 73
     0
 74
     5
  7

 75
    16
 76
     0
 77
     2
 78
   300
147
1.0
148
0.0
149
0.0
100
AcDbLayout
  1
Layout2
 70
     1
 71
     2
 10
0.0
 20
0.0
 11
0.0
 21
0.0
 12
0.0
 22
0.0
 32
0.0
 14
0.0
 24
0.0
 34
0.0
 15
0.0
 25
0.0
 35
0.0
146
0.0
 13
0.0
 23
0.0
 33
0.0
 16
1.0
 26
0.0
 36
0.0
 17
0.0
 27
1.0
 37
0.0
 76
     0
330
23
  0
LAYOUT
  5
22
102
{ACAD_REACTORS
330
1A
102
}
330
1A
100
AcDbPlotSettings
  1

  2
none_device
  4

  6

 40
0.0
 41
0.0
 42
0.0
 43
0.0
 44
0.0
 45
0.0
 46
0.0
 47
0.0
 48
0.0
 49
0.0
140
0.0
141
0.0
142
1.0
143
1.0
 70
  1712
 72
     0
 73
     0
 74
     0
  7

 75
     0
 76
     0
 77
     2
 78
   300
147
1.0
148
0.0
149
0.0
100
AcDbLayout
  1
Model
 70
     1
 71
     0
 10
0.0
 20
0.0
 11
210.0
 21
297.0
 12
0.0
 22
0.0
 32
0.0
 14
0.0
 24
0.0
 34
0.0
 15
210.0
 25
297.0
 35
0.0
146
0.0
 13
0.0
 23
0.0
 33
0.0
 16
1.0
 26
0.0
 36
0.0
 17
0.0
 27
1.0
 37
0.0
 76
     0
330
1F
331
29
  0
MATERIAL
  5
3D
102
{ACAD_REACTORS
330
3B
102
}
330
3B
100
AcDbMaterial
  1
ByBlock
 72
     1
 94
      127
  0
MATERIAL
  5
3C
102
{ACAD_REACTORS
330
3B
102
}
330
3B
100
AcDbMaterial
  1
ByLayer
 72
     1
 94
      127
  0
MATERIAL
  5
3E
102
{ACAD_REACTORS
330
3B
102
}
330
3B
100
AcDbMaterial
  1
Global
 72
     1
 94
      127
  0
MLINESTYLE
  5
18
102
{ACAD_REACTORS
330
17
102
}
330
17
100
AcDbMlineStyle
  2
Standard
 70
     0
  3

 62
   256
 51
90.0
 52
90.0
 71
     2
 49
0.5
 62
   256
  6
BYLAYER
 49
-0.5
 62
   256
  6
BYLAYER
  0
ACDBPLACEHOLDER
  5
F
102
{ACAD_REACTORS
330
E
102
}
330
E
  0
SCALE
  5
4B
102
{ACAD_REACTORS
330
4A
102
}
330
4A
100
AcDbScale
 70
     0
300
1:1
140
1.0
141
1.0
290
     1
  0
SCALE
  5
4C
102
{ACAD_REACTORS
330
4A
102
}
330
4A
100
AcDbScale
 70
     0
300
1:2
140
1.0
141
2.0
290
     0
  0
SCALE
  5
4D
102
{ACAD_REACTORS
330
4A
102
}
330
4A
100
AcDbScale
 70
     0
300
1:4
140
1.0
141
4.0
290
     0
  0
SCALE
  5
4E
102
{ACAD_REACTORS
330
4A
102
}
330
4A
100
AcDbScale
 70
     0
300
1:5
140
1.0
141
5.0
290
     0
  0
SCALE
  5
4F
102
{ACAD_REACTORS
330
4A
102
}
330
4A
100
AcDbScale
 70
     0
300
1:8
140
1.0
141
8.0
290
     0
  0
SCALE
  5
50
102
{ACAD_REACTORS
330
4A
102
}
330
4A
100
AcDbScale
 70
     0
300
1:10
140
1.0
141
10.0
290
     0
  0
SCALE
  5
51
102
{ACAD_REACTORS
330
4A
102
}
330
4A
100
AcDbScale
 70
     0
300
1:16
140
1.0
141
16.0
290
     0
  0
SCALE
  5
52
102
{ACAD_REACTORS
330
4A
102
}
330
4A
100
AcDbScale
 70
     0
300
1:20
140
1.0
141
20.0
290
     0
  0
SCALE
  5
53
102
{ACAD_REACTORS
330
4A
102
}
330
4A
100
AcDbScale
 70
     0
300
1:30
140
1.0
141
30.0
290
     0
  0
SCALE
  5
54
102
{ACAD_REACTORS
330
4A
102
}
330
4A
100
AcDbScale
 70
     0
300
1:40
140
1.0
141
40.0
290
     0
  0
SCALE
  5
55
102
{ACAD_REACTORS
330
4A
102
}
330
4A
100
AcDbScale
 70
     0
300
1:50
140
1.0
141
50.0
290
     0
  0
SCALE
  5
56
102
{ACAD_REACTORS
330
4A
102
}
330
4A
100
AcDbScale
 70
     0
300
1:100
140
1.0
141
100.0
290
     0
  0
SCALE
  5
57
102
{ACAD_REACTORS
330
4A
102
}
330
4A
100
AcDbScale
 70
     0
300
2:1
140
2.0
141
1.0
290
     0
  0
SCALE
  5
58
102
{ACAD_REACTORS
330
4A
102
}
330
4A
100
AcDbScale
 70
     0
300
4:1
140
4.0
141
1.0
290
     0
  0
SCALE
  5
59
102
{ACAD_REACTORS
330
4A
102
}
330
4A
100
AcDbScale
 70
     0
300
8:1
140
8.0
141
1.0
290
     0
  0
SCALE
  5
5A
102
{ACAD_REACTORS
330
4A
102
}
330
4A
100
AcDbScale
 70
     0
300
10:1
140
10.0
141
1.0
290
     0
  0
SCALE
  5
5B
102
{ACAD_REACTORS
330
4A
102
}
330
4A
100
AcDbScale
 70
     0
300
100:1
140
100.0
141
1.0
290
     0
  0
SCALE
  5
5C
102
{ACAD_REACTORS
330
4A
102
}
330
4A
100
AcDbScale
 70
     0
300
1/128" = 1'-0"
140
0.0078125
141
12.0
290
     0
  0
SCALE
  5
5D
102
{ACAD_REACTORS
330
4A
102
}
330
4A
100
AcDbScale
 70
     0
300
1/64" = 1'-0"
140
0.015625
141
12.0
290
     0
  0
SCALE
  5
5E
102
{ACAD_REACTORS
330
4A
102
}
330
4A
100
AcDbScale
 70
     0
300
1/32" = 1'-0"
140
0.03125
141
12.0
290
     0
  0
SCALE
  5
5F
102
{ACAD_REACTORS
330
4A
102
}
330
4A
100
AcDbScale
 70
     0
300
1/16" = 1'-0"
140
0.0625
141
12.0
290
     0
  0
SCALE
  5
60
102
{ACAD_REACTORS
330
4A
102
}
330
4A
100
AcDbScale
 70
     0
300
3/32" = 1'-0"
140
0.09375
141
12.0
290
     0
  0
SCALE
  5
61
102
{ACAD_REACTORS
330
4A
102
}
330
4A
100
AcDbScale
 70
     0
300
1/8" = 1'-0"
140
0.125
141
12.0
290
     0
  0
SCALE
  5
62
102
{ACAD_REACTORS
330
4A
102
}
330
4A
100
AcDbScale
 70
     0
300
3/16" = 1'-0"
140
0.1875
141
12.0
290
     0
  0
SCALE
  5
63
102
{ACAD_REACTORS
330
4A
102
}
330
4A
100
AcDbScale
 70
     0
300
1/4" = 1'-0"
140
0.25
141
12.0
290
     0
  0
SCALE
  5
64
102
{ACAD_REACTORS
330
4A
102
}
330
4A
100
AcDbScale
 70
     0
300
3/8" = 1'-0"
140
0.375
141
12.0
290
     0
  0
SCALE
  5
65
102
{ACAD_REACTORS
330
4A
102
}
330
4A
100
AcDbScale
 70
     0
300
1/2" = 1'-0"
140
0.5
141
12.0
290
     0
  0
SCALE
  5
66
102
{ACAD_REACTORS
330
4A
102
}
330
4A
100
AcDbScale
 70
     0
300
3/4" = 1'-0"
140
0.75
141
12.0
290
     0
  0
SCALE
  5
67
102
{ACAD_REACTORS
330
4A
102
}
330
4A
100
AcDbScale
 70
     0
300
1" = 1'-0"
140
1.0
141
12.0
290
     0
  0
SCALE
  5
68
102
{ACAD_REACTORS
330
4A
102
}
330
4A
100
AcDbScale
 70
     0
300
1-1/2" = 1'-0"
140
1.5
141
12.0
290
     0
  0
SCALE
  5
69
102
{ACAD_REACTORS
330
4A
102
}
330
4A
100
AcDbScale
 70
     0
300
3" = 1'-0"
140
3.0
141
12.0
290
     0
  0
SCALE
  5
6A
102
{ACAD_REACTORS
330
4A
102
}
330
4A
100
AcDbScale
 70
     0
300
6" = 1'-0"
140
6.0
141
12.0
290
     0
  0
SCALE
  5
6B
102
{ACAD_REACTORS
330
4A
102
}
330
4A
100
AcDbScale
 70
     0
300
1'-0" = 1'-0"
140
12.0
141
12.0
290
     0
  0
VISUALSTYLE
  5
2F
102
{ACAD_REACTORS
330
2A
102
}
102
{ACAD_XDICTIONARY
360
21F
102
}
330
2A
100
AcDbVisualStyle
  2
2dWireframe
 70
     4
 71
     0
 72
     2
 73
     0
 90
        0
 40
-0.6
 41
-30.0
 62
     5
 63
     7
421
 16777215
 74
     1
 91
        4
 64
     7
 65
   257
 75
     1
175
     1
 42
1.0
 92
        0
 66
   257
 43
1.0
 76
     1
 77
     6
 78
     2
 67
     7
 79
     5
170
     0
171
     0
290
     0
174
     0
 93
        1
 44
0.0
173
     0
291
     0
 45
0.0
  0
VISUALSTYLE
  5
31
102
{ACAD_REACTORS
330
2A
102
}
102
{ACAD_XDICTIONARY
360
223
102
}
330
2A
100
AcDbVisualStyle
  2
3D Hidden
 70
     6
 71
     1
 72
     2
 73
     2
 90
        0
 40
-0.6
 41
-30.0
 62
     5
 63
     7
421
 16777215
 74
     2
 91
        2
 64
     7
 65
   257
 75
     2
175
     1
 42
40.0
 92
        0
 66
   257
 43
1.0
 76
     1
 77
     6
 78
     2
 67
     7
 79
     3
170
     0
171
     0
290
     0
174
     0
 93
        1
 44
0.0
173
     0
291
     0
 45
0.0
  0
VISUALSTYLE
  5
30
102
{ACAD_REACTORS
330
2A
102
}
102
{ACAD_XDICTIONARY
360
221
102
}
330
2A
100
AcDbVisualStyle
  2
3dWireframe
 70
     5
 71
     0
 72
     2
 73
     0
 90
        0
 40
-0.6
 41
-30.0
 62
     5
 63
     7
421
 16777215
 74
     1
 91
        4
 64
     7
 65
   257
 75
     1
175
     1
 42
1.0
 92
        0
 66
   257
 43
1.0
 76
     1
 77
     6
 78
     2
 67
     7
 79
     5
170
     0
171
     0
290
     0
174
     0
 93
        1
 44
0.0
173
     0
291
     0
 45
0.0
  0
VISUALSTYLE
  5
32
102
{ACAD_REACTORS
330
2A
102
}
102
{ACAD_XDICTIONARY
360
225
102
}
330
2A
100
AcDbVisualStyle
  2
Basic
 70
     7
 71
     1
 72
     0
 73
     1
 90
        0
 40
-0.6
 41
-30.0
 62
     5
 63
     7
421
 16777215
 74
     0
 91
        4
 64
     7
 65
   257
 75
     1
175
     1
 42
1.0
 92
        8
 66
     7
 43
1.0
 76
     1
 77
     6
 78
     2
 67
     7
 79
     5
170
     0
171
     0
290
     0
174
     0
 93
        1
 44
0.0
173
     0
291
     1
 45
0.0
  0
VISUALSTYLE
  5
36
102
{ACAD_REACTORS
330
2A
102
}
102
{ACAD_XDICTIONARY
360
22D
102
}
330
2A
100
AcDbVisualStyle
  2
Brighten
 70
    12
 71
     2
 72
     2
 73
     0
 90
        0
 40
-0.6
 41
-30.0
 62
     5
 63
     7
421
 16777215
 74
     1
 91
        4
 64
     7
 65
   257
 75
     1
175
     1
 42
1.0
 92
        8
 66
     7
 43
1.0
 76
     1
 77
     6
 78
     2
 67
     7
 79
     5
170
     0
171
     0
290
     0
174
     0
 93
        1
 44
50.0
173
     0
291
     1
 45
0.0
  0
VISUALSTYLE
  5
3A
102
{ACAD_REACTORS
330
2A
102
}
102
{ACAD_XDICTIONARY
360
235
102
}
330
2A
100
AcDbVisualStyle
  2
ColorChange
 70
    16
 71
     2
 72
     2
 73
     3
 90
        0
 40
-0.6
 41
-30.0
 62
     5
 63
     8
421
  8421504
 74
     1
 91
        4
 64
     7
 65
   257
 75
     1
175
     1
 42
1.0
 92
        8
 66
     8
424
  8421504
 43
1.0
 76
     1
 77
     6
 78
     2
 67
     7
 79
     5
170
     0
171
     0
290
     0
174
     0
 93
        1
 44
0.0
173
     0
291
     1
 45
0.0
  0
VISUALSTYLE
  5
34
102
{ACAD_REACTORS
330
2A
102
}
102
{ACAD_XDICTIONARY
360
229
102
}
330
2A
100
AcDbVisualStyle
  2
Conceptual
 70
     9
 71
     3
 72
     2
 73
     0
 90
        0
 40
-0.6
 41
-30.0
 62
     5
 63
     7
421
 16777215
 74
     2
 91
        2
 64
     7
 65
   257
 75
     1
175
     1
 42
40.0
 92
        8
 66
     7
 43
1.0
 76
     1
 77
     6
 78
     2
 67
     7
 79
     3
170
     0
171
     0
290
     0
174
     0
 93
        1
 44
0.0
173
     0
291
     0
 45
0.0
  0
VISUALSTYLE
  5
35
102
{ACAD_REACTORS
330
2A
102
}
102
{ACAD_XDICTIONARY
360
22B
102
}
330
2A
100
AcDbVisualStyle
  2
Dim
 70
    11
 71
     2
 72
     2
 73
     0
 90
        0
 40
-0.6
 41
-30.0
 62
     5
 63
     7
421
 16777215
 74
     1
 91
        4
 64
     7
 65
   257
 75
     1
175
     1
 42
1.0
 92
        8
 66
     7
 43
1.0
 76
     1
 77
     6
 78
     2
 67
     7
 79
     5
170
     0
171
     0
290
     0
174
     0
 93
        1
 44
-50.0
173
     0
291
     1
 45
0.0
  0
VISUALSTYLE
  5
39
102
{ACAD_REACTORS
330
2A
102
}
102
{ACAD_XDICTIONARY
360
233
102
}
330
2A
100
AcDbVisualStyle
  2
Facepattern
 70
    15
 71
     2
 72
     2
 73
     0
 90
        0
 40
-0.6
 41
-30.0
 62
     5
 63
     7
421
 16777215
 74
     1
 91
        4
 64
     7
 65
   257
 75
     1
175
     1
 42
1.0
 92
        8
 66
     7
 43
1.0
 76
     1
 77
     6
 78
     2
 67
     7
 79
     5
170
     0
171
     0
290
     0
174
     0
 93
        1
 44
0.0
173
     0
291
     1
 45
0.0
  0
VISUALSTYLE
  5
2B
102
{ACAD_REACTORS
330
2A
102
}
102
{ACAD_XDICTIONARY
360
217
102
}
330
2A
100
AcDbVisualStyle
  2
Flat
 70
     0
 71
     2
 72
     1
 73
     1
 90
        2
 40
-0.6
 41
30.0
 62
     5
 63
     7
421
 16777215
 74
     0
 91
        4
 64
     7
 65
   257
 75
     1
175
     1
 42
1.0
 92
        8
 66
     7
 43
1.0
 76
     1
 77
     6
 78
     2
 67
     7
 79
     5
170
     0
171
     0
290
     0
174
     0
 93
       13
 44
0.0
173
     0
291
     1
 45
0.0
  0
VISUALSTYLE
  5
2C
102
{ACAD_REACTORS
330
2A
102
}
102
{ACAD_XDICTIONARY
360
219
102
}
330
2A
100
AcDbVisualStyle
  2
FlatWithEdges
 70
     1
 71
     2
 72
     1
 73
     1
 90
        2
 40
-0.6
 41
30.0
 62
     5
 63
     7
421
 16777215
 74
     1
 91
        4
 64
     7
 65
   257
 75
     1
175
     1
 42
1.0
 92
        0
 66
   257
 43
1.0
 76
     1
 77
     6
 78
     2
 67
     7
 79
     5
170
     0
171
     0
290
     0
174
     0
 93
       13
 44
0.0
173
     0
291
     1
 45
0.0
  0
VISUALSTYLE
  5
2D
102
{ACAD_REACTORS
330
2A
102
}
102
{ACAD_XDICTIONARY
360
21B
102
}
330
2A
100
AcDbVisualStyle
  2
Gouraud
 70
     2
 71
     2
 72
     2
 73
     1
 90
        2
 40
-0.6
 41
30.0
 62
     5
 63
     7
421
 16777215
 74
     0
 91
        4
 64
     7
 65
   257
 75
     1
175
     1
 42
1.0
 92
        0
 66
     7
 43
1.0
 76
     1
 77
     6
 78
     2
 67
     7
 79
     5
170
     0
171
     0
290
     0
174
     0
 93
       13
 44
0.0
173
     0
291
     1
 45
0.0
  0
VISUALSTYLE
  5
2E
102
{ACAD_REACTORS
330
2A
102
}
102
{ACAD_XDICTIONARY
360
21D
102
}
330
2A
100
AcDbVisualStyle
  2
GouraudWithEdges
 70
     3
 71
     2
 72
     2
 73
     1
 90
        2
 40
-0.6
 41
30.0
 62
     5
 63
     7
421
 16777215
 74
     1
 91
        4
 64
     7
 65
   257
 75
     1
175
     1
 42
1.0
 92
        0
 66
   257
 43
1.0
 76
     1
 77
     6
 78
     2
 67
     7
 79
     5
170
     0
171
     0
290
     0
174
     0
 93
       13
 44
0.0
173
     0
291
     1
 45
0.0
  0
VISUALSTYLE
  5
38
102
{ACAD_REACTORS
330
2A
102
}
102
{ACAD_XDICTIONARY
360
231
102
}
330
2A
100
AcDbVisualStyle
  2
Linepattern
 70
    14
 71
     2
 72
     2
 73
     0
 90
        0
 40
-0.6
 41
-30.0
 62
     5
 63
     7
421
 16777215
 74
     1
 91
        4
 64
     7
 65
   257
 75
     7
175
     7
 42
1.0
 92
        8
 66
     7
 43
1.0
 76
     1
 77
     6
 78
     2
 67
     7
 79
     5
170
     0
171
     0
290
     0
174
     0
 93
        1
 44
0.0
173
     0
291
     1
 45
0.0
  0
VISUALSTYLE
  5
33
102
{ACAD_REACTORS
330
2A
102
}
102
{ACAD_XDICTIONARY
360
227
102
}
330
2A
100
AcDbVisualStyle
  2
Realistic
 70
     8
 71
     2
 72
     2
 73
     0
 90
        0
 40
-0.6
 41
-30.0
 62
     5
 63
     7
421
 16777215
 74
     1
 91
        0
 64
     7
 65
   257
 75
     1
175
     1
 42
1.0
 92
        8
 66
     8
424
  7895160
 43
1.0
 76
     1
 77
     6
 78
     2
 67
     7
 79
     5
170
     0
171
     0
290
     0
174
     0
 93
       13
 44
0.0
173
     0
291
     0
 45
0.0
  0
VISUALSTYLE
  5
37
102
{ACAD_REACTORS
330
2A
102
}
102
{ACAD_XDICTIONARY
360
22F
102
}
330
2A
100
AcDbVisualStyle
  2
Thicken
 70
    13
 71
     2
 72
     2
 73
     0
 90
        0
 40
-0.6
 41
-30.0
 62
     5
 63
     7
421
 16777215
 74
     1
 91
        4
 64
     7
 65
   257
 75
     1
175
     1
 42
1.0
 92
       12
 66
     7
 43
1.0
 76
     1
 77
     6
 78
     2
 67
     7
 79
     5
170
     0
171
     0
290
     0
174
     0
 93
        1
 44
0.0
173
     0
291
     1
 45
0.0
  0
DICTIONARYVAR
  5
216
102
{ACAD_REACTORS
330
215
102
}
330
215
100
DictionaryVariables
280
     0
  1
1:1
  0
DICTIONARY
  5
21F
330
2F
100
AcDbDictionary
280
     1
281
     1
  3
ACAD_XREC_ROUNDTRIP
360
220
  0
DICTIONARY
  5
223
330
31
100
AcDbDictionary
280
     1
281
     1
  3
ACAD_XREC_ROUNDTRIP
360
224
  0
DICTIONARY
  5
221
330
30
100
AcDbDictionary
280
     1
281
     1
  3
ACAD_XREC_ROUNDTRIP
360
222
  0
DICTIONARY
  5
225
330
32
100
AcDbDictionary
280
     1
281
     1
  3
ACAD_XREC_ROUNDTRIP
360
226
  0
DICTIONARY
  5
22D
330
36
100
AcDbDictionary
280
     1
281
     1
  3
ACAD_XREC_ROUNDTRIP
360
22E
  0
DICTIONARY
  5
235
330
3A
100
AcDbDictionary
280
     1
281
     1
  3
ACAD_XREC_ROUNDTRIP
360
236
  0
DICTIONARY
  5
229
330
34
100
AcDbDictionary
280
     1
281
     1
  3
ACAD_XREC_ROUNDTRIP
360
22A
  0
DICTIONARY
  5
22B
330
35
100
AcDbDictionary
280
     1
281
     1
  3
ACAD_XREC_ROUNDTRIP
360
22C
  0
DICTIONARY
  5
233
330
39
100
AcDbDictionary
280
     1
281
     1
  3
ACAD_XREC_ROUNDTRIP
360
234
  0
DICTIONARY
  5
217
330
2B
100
AcDbDictionary
280
     1
281
     1
  3
ACAD_XREC_ROUNDTRIP
360
218
  0
DICTIONARY
  5
219
330
2C
100
AcDbDictionary
280
     1
281
     1
  3
ACAD_XREC_ROUNDTRIP
360
21A
  0
DICTIONARY
  5
21B
330
2D
100
AcDbDictionary
280
     1
281
     1
  3
ACAD_XREC_ROUNDTRIP
360
21C
  0
DICTIONARY
  5
21D
330
2E
100
AcDbDictionary
280
     1
281
     1
  3
ACAD_XREC_ROUNDTRIP
360
21E
  0
DICTIONARY
  5
231
330
38
100
AcDbDictionary
280
     1
281
     1
  3
ACAD_XREC_ROUNDTRIP
360
232
  0
DICTIONARY
  5
227
330
33
100
AcDbDictionary
280
     1
281
     1
  3
ACAD_XREC_ROUNDTRIP
360
228
  0
DICTIONARY
  5
22F
330
37
100
AcDbDictionary
280
     1
281
     1
  3
ACAD_XREC_ROUNDTRIP
360
230
  0
XRECORD
  5
220
102
{ACAD_REACTORS
330
21F
102
}
330
21F
100
AcDbXrecord
280
     1
102
RTVSPropertyOp0
 70
     1
102
RTVSPropertyOp1
 70
     1
102
RTVSPropertyOp2
 70
     1
102
RTVSPropertyOp3
 70
     1
102
RTVSPropertyOp4
 70
     1
102
RTVSPropertyOp5
 70
     1
102
RTVSPropertyOp6
 70
     1
102
RTVSPropertyOp7
 70
     1
102
RTVSPropertyOp8
 70
     1
102
RTVSPropertyOp9
 70
     1
102
RTVSPropertyOp10
 70
     1
102
RTVSPropertyOp11
 70
     1
102
RTVSPropertyOp12
 70
     1
102
RTVSPropertyOp13
 70
     1
102
RTVSPropertyOp14
 70
     1
102
RTVSPropertyOp15
 70
     1
102
RTVSPropertyOp16
 70
     1
102
RTVSPropertyOp17
 70
     1
102
RTVSPropertyOp18
 70
     1
102
RTVSPropertyOp19
 70
     1
102
RTVSPropertyOp20
 70
     1
102
RTVSPropertyOp21
 70
     1
102
RTVSPropertyOp22
 70
     1
102
RTVSPropertyOp23
 70
     1
102
RTVSPropertyOp24
 70
     1
102
RTVSPropertyOp25
 70
     1
102
RTVSPropertyOp26
 70
     1
102
RTVSPropertyOp27
 70
     1
  0
XRECORD
  5
224
102
{ACAD_REACTORS
330
223
102
}
330
223
100
AcDbXrecord
280
     1
102
RTVSPropertyOp0
 70
     1
102
RTVSPropertyOp1
 70
     1
102
RTVSPropertyOp2
 70
     1
102
RTVSPropertyOp3
 70
     1
102
RTVSPropertyOp4
 70
     1
102
RTVSPropertyOp5
 70
     1
102
RTVSPropertyOp6
 70
     1
102
RTVSPropertyOp7
 70
     1
102
RTVSPropertyOp8
 70
     1
102
RTVSPropertyOp9
 70
     1
102
RTVSPropertyOp10
 70
     1
102
RTVSPropertyOp11
 70
     1
102
RTVSPropertyOp12
 70
     1
102
RTVSPropertyOp13
 70
     1
102
RTVSPropertyOp14
 70
     1
102
RTVSPropertyOp15
 70
     1
102
RTVSPropertyOp16
 70
     1
102
RTVSPropertyOp17
 70
     1
102
RTVSPropertyOp18
 70
     1
102
RTVSPropertyOp19
 70
     1
102
RTVSPropertyOp20
 70
     1
102
RTVSPropertyOp21
 70
     1
102
RTVSPropertyOp22
 70
     1
102
RTVSPropertyOp23
 70
     1
102
RTVSPropertyOp24
 70
     1
102
RTVSPropertyOp25
 70
     1
102
RTVSPropertyOp26
 70
     1
102
RTVSPropertyOp27
 70
     1
  0
XRECORD
  5
222
102
{ACAD_REACTORS
330
221
102
}
330
221
100
AcDbXrecord
280
     1
102
RTVSPropertyOp0
 70
     1
102
RTVSPropertyOp1
 70
     1
102
RTVSPropertyOp2
 70
     1
102
RTVSPropertyOp3
 70
     1
102
RTVSPropertyOp4
 70
     1
102
RTVSPropertyOp5
 70
     1
102
RTVSPropertyOp6
 70
     1
102
RTVSPropertyOp7
 70
     1
102
RTVSPropertyOp8
 70
     1
102
RTVSPropertyOp9
 70
     1
102
RTVSPropertyOp10
 70
     1
102
RTVSPropertyOp11
 70
     1
102
RTVSPropertyOp12
 70
     1
102
RTVSPropertyOp13
 70
     1
102
RTVSPropertyOp14
 70
     1
102
RTVSPropertyOp15
 70
     1
102
RTVSPropertyOp16
 70
     1
102
RTVSPropertyOp17
 70
     1
102
RTVSPropertyOp18
 70
     1
102
RTVSPropertyOp19
 70
     1
102
RTVSPropertyOp20
 70
     1
102
RTVSPropertyOp21
 70
     1
102
RTVSPropertyOp22
 70
     1
102
RTVSPropertyOp23
 70
     1
102
RTVSPropertyOp24
 70
     1
102
RTVSPropertyOp25
 70
     1
102
RTVSPropertyOp26
 70
     1
102
RTVSPropertyOp27
 70
     1
  0
XRECORD
  5
226
102
{ACAD_REACTORS
330
225
102
}
330
225
100
AcDbXrecord
280
     1
102
RTVSPropertyOp0
 70
     1
102
RTVSPropertyOp1
 70
     1
102
RTVSPropertyOp2
 70
     1
102
RTVSPropertyOp3
 70
     1
102
RTVSPropertyOp4
 70
     1
102
RTVSPropertyOp5
 70
     1
102
RTVSPropertyOp6
 70
     1
102
RTVSPropertyOp7
 70
     1
102
RTVSPropertyOp8
 70
     1
102
RTVSPropertyOp9
 70
     1
102
RTVSPropertyOp10
 70
     1
102
RTVSPropertyOp11
 70
     1
102
RTVSPropertyOp12
 70
     1
102
RTVSPropertyOp13
 70
     1
102
RTVSPropertyOp14
 70
     1
102
RTVSPropertyOp15
 70
     1
102
RTVSPropertyOp16
 70
     1
102
RTVSPropertyOp17
 70
     1
102
RTVSPropertyOp18
 70
     1
102
RTVSPropertyOp19
 70
     1
102
RTVSPropertyOp20
 70
     1
102
RTVSPropertyOp21
 70
     1
102
RTVSPropertyOp22
 70
     1
102
RTVSPropertyOp23
 70
     1
102
RTVSPropertyOp24
 70
     1
102
RTVSPropertyOp25
 70
     1
102
RTVSPropertyOp26
 70
     1
102
RTVSPropertyOp27
 70
     1
  0
XRECORD
  5
22E
102
{ACAD_REACTORS
330
22D
102
}
330
22D
100
AcDbXrecord
280
     1
102
RTVSPropertyOp0
 70
     1
102
RTVSPropertyOp1
 70
     1
102
RTVSPropertyOp2
 70
     1
102
RTVSPropertyOp3
 70
     1
102
RTVSPropertyOp4
 70
     1
102
RTVSPropertyOp5
 70
     1
102
RTVSPropertyOp6
 70
     1
102
RTVSPropertyOp7
 70
     1
102
RTVSPropertyOp8
 70
     1
102
RTVSPropertyOp9
 70
     1
102
RTVSPropertyOp10
 70
     1
102
RTVSPropertyOp11
 70
     1
102
RTVSPropertyOp12
 70
     1
102
RTVSPropertyOp13
 70
     1
102
RTVSPropertyOp14
 70
     1
102
RTVSPropertyOp15
 70
     1
102
RTVSPropertyOp16
 70
     1
102
RTVSPropertyOp17
 70
     1
102
RTVSPropertyOp18
 70
     1
102
RTVSPropertyOp19
 70
     1
102
RTVSPropertyOp20
 70
     1
102
RTVSPropertyOp21
 70
     1
102
RTVSPropertyOp22
 70
     1
102
RTVSPropertyOp23
 70
     1
102
RTVSPropertyOp24
 70
     1
102
RTVSPropertyOp25
 70
     1
102
RTVSPropertyOp26
 70
     1
102
RTVSPropertyOp27
 70
     1
  0
XRECORD
  5
236
102
{ACAD_REACTORS
330
235
102
}
330
235
100
AcDbXrecord
280
     1
102
RTVSPropertyOp0
 70
     1
102
RTVSPropertyOp1
 70
     1
102
RTVSPropertyOp2
 70
     1
102
RTVSPropertyOp3
 70
     1
102
RTVSPropertyOp4
 70
     1
102
RTVSPropertyOp5
 70
     1
102
RTVSPropertyOp6
 70
     1
102
RTVSPropertyOp7
 70
     1
102
RTVSPropertyOp8
 70
     1
102
RTVSPropertyOp9
 70
     1
102
RTVSPropertyOp10
 70
     1
102
RTVSPropertyOp11
 70
     1
102
RTVSPropertyOp12
 70
     1
102
RTVSPropertyOp13
 70
     1
102
RTVSPropertyOp14
 70
     1
102
RTVSPropertyOp15
 70
     1
102
RTVSPropertyOp16
 70
     1
102
RTVSPropertyOp17
 70
     1
102
RTVSPropertyOp18
 70
     1
102
RTVSPropertyOp19
 70
     1
102
RTVSPropertyOp20
 70
     1
102
RTVSPropertyOp21
 70
     1
102
RTVSPropertyOp22
 70
     1
102
RTVSPropertyOp23
 70
     1
102
RTVSPropertyOp24
 70
     1
102
RTVSPropertyOp25
 70
     1
102
RTVSPropertyOp26
 70
     1
102
RTVSPropertyOp27
 70
     1
  0
XRECORD
  5
22A
102
{ACAD_REACTORS
330
229
102
}
330
229
100
AcDbXrecord
280
     1
102
RTVSPropertyOp0
 70
     1
102
RTVSPropertyOp1
 70
     1
102
RTVSPropertyOp2
 70
     1
102
RTVSPropertyOp3
 70
     1
102
RTVSPropertyOp4
 70
     1
102
RTVSPropertyOp5
 70
     1
102
RTVSPropertyOp6
 70
     1
102
RTVSPropertyOp7
 70
     1
102
RTVSPropertyOp8
 70
     1
102
RTVSPropertyOp9
 70
     1
102
RTVSPropertyOp10
 70
     1
102
RTVSPropertyOp11
 70
     1
102
RTVSPropertyOp12
 70
     1
102
RTVSPropertyOp13
 70
     1
102
RTVSPropertyOp14
 70
     1
102
RTVSPropertyOp15
 70
     1
102
RTVSPropertyOp16
 70
     1
102
RTVSPropertyOp17
 70
     1
102
RTVSPropertyOp18
 70
     1
102
RTVSPropertyOp19
 70
     1
102
RTVSPropertyOp20
 70
     1
102
RTVSPropertyOp21
 70
     1
102
RTVSPropertyOp22
 70
     1
102
RTVSPropertyOp23
 70
     1
102
RTVSPropertyOp24
 70
     1
102
RTVSPropertyOp25
 70
     1
102
RTVSPropertyOp26
 70
     1
102
RTVSPropertyOp27
 70
     1
  0
XRECORD
  5
22C
102
{ACAD_REACTORS
330
22B
102
}
330
22B
100
AcDbXrecord
280
     1
102
RTVSPropertyOp0
 70
     1
102
RTVSPropertyOp1
 70
     1
102
RTVSPropertyOp2
 70
     1
102
RTVSPropertyOp3
 70
     1
102
RTVSPropertyOp4
 70
     1
102
RTVSPropertyOp5
 70
     1
102
RTVSPropertyOp6
 70
     1
102
RTVSPropertyOp7
 70
     1
102
RTVSPropertyOp8
 70
     1
102
RTVSPropertyOp9
 70
     1
102
RTVSPropertyOp10
 70
     1
102
RTVSPropertyOp11
 70
     1
102
RTVSPropertyOp12
 70
     1
102
RTVSPropertyOp13
 70
     1
102
RTVSPropertyOp14
 70
     1
102
RTVSPropertyOp15
 70
     1
102
RTVSPropertyOp16
 70
     1
102
RTVSPropertyOp17
 70
     1
102
RTVSPropertyOp18
 70
     1
102
RTVSPropertyOp19
 70
     1
102
RTVSPropertyOp20
 70
     1
102
RTVSPropertyOp21
 70
     1
102
RTVSPropertyOp22
 70
     1
102
RTVSPropertyOp23
 70
     1
102
RTVSPropertyOp24
 70
     1
102
RTVSPropertyOp25
 70
     1
102
RTVSPropertyOp26
 70
     1
102
RTVSPropertyOp27
 70
     1
  0
XRECORD
  5
234
102
{ACAD_REACTORS
330
233
102
}
330
233
100
AcDbXrecord
280
     1
102
RTVSPropertyOp0
 70
     1
102
RTVSPropertyOp1
 70
     1
102
RTVSPropertyOp2
 70
     1
102
RTVSPropertyOp3
 70
     1
102
RTVSPropertyOp4
 70
     1
102
RTVSPropertyOp5
 70
     1
102
RTVSPropertyOp6
 70
     1
102
RTVSPropertyOp7
 70
     1
102
RTVSPropertyOp8
 70
     1
102
RTVSPropertyOp9
 70
     1
102
RTVSPropertyOp10
 70
     1
102
RTVSPropertyOp11
 70
     1
102
RTVSPropertyOp12
 70
     1
102
RTVSPropertyOp13
 70
     1
102
RTVSPropertyOp14
 70
     1
102
RTVSPropertyOp15
 70
     1
102
RTVSPropertyOp16
 70
     1
102
RTVSPropertyOp17
 70
     1
102
RTVSPropertyOp18
 70
     1
102
RTVSPropertyOp19
 70
     1
102
RTVSPropertyOp20
 70
     1
102
RTVSPropertyOp21
 70
     1
102
RTVSPropertyOp22
 70
     1
102
RTVSPropertyOp23
 70
     1
102
RTVSPropertyOp24
 70
     1
102
RTVSPropertyOp25
 70
     1
102
RTVSPropertyOp26
 70
     1
102
RTVSPropertyOp27
 70
     1
  0
XRECORD
  5
218
102
{ACAD_REACTORS
330
217
102
}
330
217
100
AcDbXrecord
280
     1
102
RTVSPropertyOp0
 70
     1
102
RTVSPropertyOp1
 70
     1
102
RTVSPropertyOp2
 70
     1
102
RTVSPropertyOp3
 70
     1
102
RTVSPropertyOp4
 70
     1
102
RTVSPropertyOp5
 70
     1
102
RTVSPropertyOp6
 70
     1
102
RTVSPropertyOp7
 70
     1
102
RTVSPropertyOp8
 70
     1
102
RTVSPropertyOp9
 70
     1
102
RTVSPropertyOp10
 70
     1
102
RTVSPropertyOp11
 70
     1
102
RTVSPropertyOp12
 70
     1
102
RTVSPropertyOp13
 70
     1
102
RTVSPropertyOp14
 70
     1
102
RTVSPropertyOp15
 70
     1
102
RTVSPropertyOp16
 70
     1
102
RTVSPropertyOp17
 70
     1
102
RTVSPropertyOp18
 70
     1
102
RTVSPropertyOp19
 70
     1
102
RTVSPropertyOp20
 70
     1
102
RTVSPropertyOp21
 70
     1
102
RTVSPropertyOp22
 70
     1
102
RTVSPropertyOp23
 70
     1
102
RTVSPropertyOp24
 70
     1
102
RTVSPropertyOp25
 70
     1
102
RTVSPropertyOp26
 70
     1
102
RTVSPropertyOp27
 70
     1
  0
XRECORD
  5
21A
102
{ACAD_REACTORS
330
219
102
}
330
219
100
AcDbXrecord
280
     1
102
RTVSPropertyOp0
 70
     1
102
RTVSPropertyOp1
 70
     1
102
RTVSPropertyOp2
 70
     1
102
RTVSPropertyOp3
 70
     1
102
RTVSPropertyOp4
 70
     1
102
RTVSPropertyOp5
 70
     1
102
RTVSPropertyOp6
 70
     1
102
RTVSPropertyOp7
 70
     1
102
RTVSPropertyOp8
 70
     1
102
RTVSPropertyOp9
 70
     1
102
RTVSPropertyOp10
 70
     1
102
RTVSPropertyOp11
 70
     1
102
RTVSPropertyOp12
 70
     1
102
RTVSPropertyOp13
 70
     1
102
RTVSPropertyOp14
 70
     1
102
RTVSPropertyOp15
 70
     1
102
RTVSPropertyOp16
 70
     1
102
RTVSPropertyOp17
 70
     1
102
RTVSPropertyOp18
 70
     1
102
RTVSPropertyOp19
 70
     1
102
RTVSPropertyOp20
 70
     1
102
RTVSPropertyOp21
 70
     1
102
RTVSPropertyOp22
 70
     1
102
RTVSPropertyOp23
 70
     1
102
RTVSPropertyOp24
 70
     1
102
RTVSPropertyOp25
 70
     1
102
RTVSPropertyOp26
 70
     1
102
RTVSPropertyOp27
 70
     1
  0
XRECORD
  5
21C
102
{ACAD_REACTORS
330
21B
102
}
330
21B
100
AcDbXrecord
280
     1
102
RTVSPropertyOp0
 70
     1
102
RTVSPropertyOp1
 70
     1
102
RTVSPropertyOp2
 70
     1
102
RTVSPropertyOp3
 70
     1
102
RTVSPropertyOp4
 70
     1
102
RTVSPropertyOp5
 70
     1
102
RTVSPropertyOp6
 70
     1
102
RTVSPropertyOp7
 70
     1
102
RTVSPropertyOp8
 70
     1
102
RTVSPropertyOp9
 70
     1
102
RTVSPropertyOp10
 70
     1
102
RTVSPropertyOp11
 70
     1
102
RTVSPropertyOp12
 70
     1
102
RTVSPropertyOp13
 70
     1
102
RTVSPropertyOp14
 70
     1
102
RTVSPropertyOp15
 70
     1
102
RTVSPropertyOp16
 70
     1
102
RTVSPropertyOp17
 70
     1
102
RTVSPropertyOp18
 70
     1
102
RTVSPropertyOp19
 70
     1
102
RTVSPropertyOp20
 70
     1
102
RTVSPropertyOp21
 70
     1
102
RTVSPropertyOp22
 70
     1
102
RTVSPropertyOp23
 70
     1
102
RTVSPropertyOp24
 70
     1
102
RTVSPropertyOp25
 70
     1
102
RTVSPropertyOp26
 70
     1
102
RTVSPropertyOp27
 70
     1
  0
XRECORD
  5
21E
102
{ACAD_REACTORS
330
21D
102
}
330
21D
100
AcDbXrecord
280
     1
102
RTVSPropertyOp0
 70
     1
102
RTVSPropertyOp1
 70
     1
102
RTVSPropertyOp2
 70
     1
102
RTVSPropertyOp3
 70
     1
102
RTVSPropertyOp4
 70
     1
102
RTVSPropertyOp5
 70
     1
102
RTVSPropertyOp6
 70
     1
102
RTVSPropertyOp7
 70
     1
102
RTVSPropertyOp8
 70
     1
102
RTVSPropertyOp9
 70
     1
102
RTVSPropertyOp10
 70
     1
102
RTVSPropertyOp11
 70
     1
102
RTVSPropertyOp12
 70
     1
102
RTVSPropertyOp13
 70
     1
102
RTVSPropertyOp14
 70
     1
102
RTVSPropertyOp15
 70
     1
102
RTVSPropertyOp16
 70
     1
102
RTVSPropertyOp17
 70
     1
102
RTVSPropertyOp18
 70
     1
102
RTVSPropertyOp19
 70
     1
102
RTVSPropertyOp20
 70
     1
102
RTVSPropertyOp21
 70
     1
102
RTVSPropertyOp22
 70
     1
102
RTVSPropertyOp23
 70
     1
102
RTVSPropertyOp24
 70
     1
102
RTVSPropertyOp25
 70
     1
102
RTVSPropertyOp26
 70
     1
102
RTVSPropertyOp27
 70
     1
  0
XRECORD
  5
232
102
{ACAD_REACTORS
330
231
102
}
330
231
100
AcDbXrecord
280
     1
102
RTVSPropertyOp0
 70
     1
102
RTVSPropertyOp1
 70
     1
102
RTVSPropertyOp2
 70
     1
102
RTVSPropertyOp3
 70
     1
102
RTVSPropertyOp4
 70
     1
102
RTVSPropertyOp5
 70
     1
102
RTVSPropertyOp6
 70
     1
102
RTVSPropertyOp7
 70
     1
102
RTVSPropertyOp8
 70
     1
102
RTVSPropertyOp9
 70
     1
102
RTVSPropertyOp10
 70
     1
102
RTVSPropertyOp11
 70
     1
102
RTVSPropertyOp12
 70
     1
102
RTVSPropertyOp13
 70
     1
102
RTVSPropertyOp14
 70
     1
102
RTVSPropertyOp15
 70
     1
102
RTVSPropertyOp16
 70
     1
102
RTVSPropertyOp17
 70
     1
102
RTVSPropertyOp18
 70
     1
102
RTVSPropertyOp19
 70
     1
102
RTVSPropertyOp20
 70
     1
102
RTVSPropertyOp21
 70
     1
102
RTVSPropertyOp22
 70
     1
102
RTVSPropertyOp23
 70
     1
102
RTVSPropertyOp24
 70
     1
102
RTVSPropertyOp25
 70
     1
102
RTVSPropertyOp26
 70
     1
102
RTVSPropertyOp27
 70
     1
  0
XRECORD
  5
228
102
{ACAD_REACTORS
330
227
102
}
330
227
100
AcDbXrecord
280
     1
102
RTVSPropertyOp0
 70
     1
102
RTVSPropertyOp1
 70
     1
102
RTVSPropertyOp2
 70
     1
102
RTVSPropertyOp3
 70
     1
102
RTVSPropertyOp4
 70
     1
102
RTVSPropertyOp5
 70
     1
102
RTVSPropertyOp6
 70
     1
102
RTVSPropertyOp7
 70
     1
102
RTVSPropertyOp8
 70
     1
102
RTVSPropertyOp9
 70
     1
102
RTVSPropertyOp10
 70
     1
102
RTVSPropertyOp11
 70
     1
102
RTVSPropertyOp12
 70
     1
102
RTVSPropertyOp13
 70
     1
102
RTVSPropertyOp14
 70
     1
102
RTVSPropertyOp15
 70
     1
102
RTVSPropertyOp16
 70
     1
102
RTVSPropertyOp17
 70
     1
102
RTVSPropertyOp18
 70
     1
102
RTVSPropertyOp19
 70
     1
102
RTVSPropertyOp20
 70
     1
102
RTVSPropertyOp21
 70
     1
102
RTVSPropertyOp22
 70
     1
102
RTVSPropertyOp23
 70
     1
102
RTVSPropertyOp24
 70
     1
102
RTVSPropertyOp25
 70
     1
102
RTVSPropertyOp26
 70
     1
102
RTVSPropertyOp27
 70
     1
  0
XRECORD
  5
230
102
{ACAD_REACTORS
330
22F
102
}
330
22F
100
AcDbXrecord
280
     1
102
RTVSPropertyOp0
 70
     1
102
RTVSPropertyOp1
 70
     1
102
RTVSPropertyOp2
 70
     1
102
RTVSPropertyOp3
 70
     1
102
RTVSPropertyOp4
 70
     1
102
RTVSPropertyOp5
 70
     1
102
RTVSPropertyOp6
 70
     1
102
RTVSPropertyOp7
 70
     1
102
RTVSPropertyOp8
 70
     1
102
RTVSPropertyOp9
 70
     1
102
RTVSPropertyOp10
 70
     1
102
RTVSPropertyOp11
 70
     1
102
RTVSPropertyOp12
 70
     1
102
RTVSPropertyOp13
 70
     1
102
RTVSPropertyOp14
 70
     1
102
RTVSPropertyOp15
 70
     1
102
RTVSPropertyOp16
 70
     1
102
RTVSPropertyOp17
 70
     1
102
RTVSPropertyOp18
 70
     1
102
RTVSPropertyOp19
 70
     1
102
RTVSPropertyOp20
 70
     1
102
RTVSPropertyOp21
 70
     1
102
RTVSPropertyOp22
 70
     1
102
RTVSPropertyOp23
 70
     1
102
RTVSPropertyOp24
 70
     1
102
RTVSPropertyOp25
 70
     1
102
RTVSPropertyOp26
 70
     1
102
RTVSPropertyOp27
 70
     1
  0
ENDSEC
  0
EOF
