  0
SECTION
  2
HEADER
  9
$ACADVER
  1
AC1021
  9
$ACADMAINTVER
 70
    25
  9
$DWGCODEPAGE
  3
ANSI_1252
  9
$INSBASE
 10
0.0
 20
0.0
 30
0.0
  9
$EXTMIN
 10
0.0
 20
0.0
 30
0.0
  9
$EXTMAX
 10
210.0
 20
297.0
 30
0.0
  9
$LIMMIN
 10
0.0
 20
0.0
  9
$LIMMAX
 10
210.0
 20
297.0
  9
$ORTHOMODE
 70
     0
  9
$REGENMODE
 70
     1
  9
$FILLMODE
 70
     1
  9
$QTEXTMODE
 70
     0
  9
$MIRRTEXT
 70
     1
  9
$LTSCALE
 40
10.0
  9
$ATTMODE
 70
     1
  9
$TEXTSIZE
 40
3.5
  9
$TRACEWID
 40
1.0
  9
$TEXTSTYLE
  7
Standard
  9
$CLAYER
  8
0
  9
$CELTYPE
  6
ByLayer
  9
$CECOLOR
 62
   256
  9
$CELTSCALE
 40
1.0
  9
$DISPSILH
 70
     0
  9
$DIMSCALE
 40
1.0
  9
$DIMASZ
 40
3.302
  9
$DIMEXO
 40
1.0
  9
$DIMDLI
 40
3.75
  9
$DIMRND
 40
0.0
  9
$DIMDLE
 40
0.0
  9
$DIMEXE
 40
1.0
  9
$DIMTP
 40
0.0
  9
$DIMTM
 40
0.0
  9
$DIMTXT
 40
3.5
  9
$DIMCEN
 40
2.5
  9
$DIMTSZ
 40
0.0
  9
$DIMTOL
 70
     0
  9
$DIMLIM
 70
     0
  9
$DIMTIH
 70
     1
  9
$DIMTOH
 70
     1
  9
$DIMSE1
 70
     0
  9
$DIMSE2
 70
     0
  9
$DIMTAD
 70
     1
  9
$DIMZIN
 70
     1
  9
$DIMBLK
  1

  9
$DIMASO
 70
     1
  9
$DIMSHO
 70
     1
  9
$DIMPOST
  1

  9
$DIMAPOST
  1

  9
$DIMALT
 70
     0
  9
$DIMALTD
 70
     3
  9
$DIMALTF
 40
0.0393700787
  9
$DIMLFAC
 40
1.0
  9
$DIMTOFL
 70
     1
  9
$DIMTVP
 40
0.0
  9
$DIMTIX
 70
     0
  9
$DIMSOXD
 70
     0
  9
$DIMSAH
 70
     0
  9
$DIMBLK1
  1

  9
$DIMBLK2
  1

  9
$DIMSTYLE
  2
ISO-25
  9
$DIMCLRD
 70
     0
  9
$DIMCLRE
 70
     0
  9
$DIMCLRT
 70
     0
  9
$DIMTFAC
 40
1.0
  9
$DIMGAP
 40
1.524
  9
$DIMJUST
 70
     0
  9
$DIMSD1
 70
     0
  9
$DIMSD2
 70
     0
  9
$DIMTOLJ
 70
     0
  9
$DIMTZIN
 70
     1
  9
$DIMALTZ
 70
     0
  9
$DIMALTTZ
 70
     0
  9
$DIMUPT
 70
     0
  9
$DIMDEC
 70
     2
  9
$DIMTDEC
 70
     2
  9
$DIMALTU
 70
     2
  9
$DIMALTTD
 70
     3
  9
$DIMTXSTY
  7
Standard
  9
$DIMAUNIT
 70
     0
  9
$DIMADEC
 70
     2
  9
$DIMALTRND
 40
0.0
  9
$DIMAZIN
 70
     0
  9
$DIMDSEP
 70
    44
  9
$DIMATFIT
 70
     3
  9
$DIMFRAC
 70
     0
  9
$DIMLDRBLK
  1

  9
$DIMLUNIT
 70
     2
  9
$DIMLWD
 70
    -2
  9
$DIMLWE
 70
    -2
  9
$DIMTMOVE
 70
     0
  9
$DIMFXL
 40
1.0
  9
$DIMFXLON
 70
     0
  9
$DIMJOGANG
 40
0.7853981634
  9
$DIMTFILL
 70
     0
  9
$DIMTFILLCLR
 70
     0
  9
$DIMARCSYM
 70
     0
  9
$DIMLTYPE
  6

  9
$DIMLTEX1
  6

  9
$DIMLTEX2
  6

  9
$LUNITS
 70
     2
  9
$LUPREC
 70
     2
  9
$SKETCHINC
 40
1.0
  9
$FILLETRAD
 40
10.0
  9
$AUNITS
 70
     0
  9
$AUPREC
 70
     2
  9
$MENU
  1
.
  9
$ELEVATION
 40
0.0
  9
$PELEVATION
 40
0.0
  9
$THICKNESS
 40
0.0
  9
$LIMCHECK
 70
     0
  9
$CHAMFERA
 40
10.0
  9
$CHAMFERB
 40
10.0
  9
$CHAMFERC
 40
20.0
  9
$CHAMFERD
 40
0.0
  9
$SKPOLY
 70
     0
  9
$TDCREATE
 40
2456142.650304178
  9
$TDUCREATE
 40
2456142.150304178
  9
$TDUPDATE
 40
2456142.65030419
  9
$TDUUPDATE
 40
2456142.15030419
  9
$TDINDWG
 40
0.0000000116
  9
$TDUSRTIMER
 40
0.0000000116
  9
$USRTIMER
 70
     1
  9
$ANGBASE
 50
0.0
  9
$ANGDIR
 70
     0
  9
$PDMODE
 70
     0
  9
$PDSIZE
 40
-1.0
  9
$PLINEWID
 40
0.0
  9
$SPLFRAME
 70
     0
  9
$SPLINETYPE
 70
     6
  9
$SPLINESEGS
 70
     8
  9
$HANDSEED
  5
19A
  9
$SURFTAB1
 70
     6
  9
$SURFTAB2
 70
     6
  9
$SURFTYPE
 70
     6
  9
$SURFU
 70
     6
  9
$SURFV
 70
     6
  9
$UCSBASE
  2

  9
$UCSNAME
  2

  9
$UCSORG
 10
0.0
 20
0.0
 30
0.0
  9
$UCSXDIR
 10
1.0
 20
0.0
 30
0.0
  9
$UCSYDIR
 10
0.0
 20
1.0
 30
0.0
  9
$UCSORTHOREF
  2

  9
$UCSORTHOVIEW
 70
     0
  9
$UCSORGTOP
 10
0.0
 20
0.0
 30
0.0
  9
$UCSORGBOTTOM
 10
0.0
 20
0.0
 30
0.0
  9
$UCSORGLEFT
 10
0.0
 20
0.0
 30
0.0
  9
$UCSORGRIGHT
 10
0.0
 20
0.0
 30
0.0
  9
$UCSORGFRONT
 10
0.0
 20
0.0
 30
0.0
  9
$UCSORGBACK
 10
0.0
 20
0.0
 30
0.0
  9
$PUCSBASE
  2

  9
$PUCSNAME
  2

  9
$PUCSORG
 10
0.0
 20
0.0
 30
0.0
  9
$PUCSXDIR
 10
1.0
 20
0.0
 30
0.0
  9
$PUCSYDIR
 10
0.0
 20
1.0
 30
0.0
  9
$PUCSORTHOREF
  2

  9
$PUCSORTHOVIEW
 70
     0
  9
$PUCSORGTOP
 10
0.0
 20
0.0
 30
0.0
  9
$PUCSORGBOTTOM
 10
0.0
 20
0.0
 30
0.0
  9
$PUCSORGLEFT
 10
0.0
 20
0.0
 30
0.0
  9
$PUCSORGRIGHT
 10
0.0
 20
0.0
 30
0.0
  9
$PUCSORGFRONT
 10
0.0
 20
0.0
 30
0.0
  9
$PUCSORGBACK
 10
0.0
 20
0.0
 30
0.0
  9
$USERI1
 70
     0
  9
$USERI2
 70
     0
  9
$USERI3
 70
     0
  9
$USERI4
 70
     0
  9
$USERI5
 70
     0
  9
$USERR1
 40
0.0
  9
$USERR2
 40
0.0
  9
$USERR3
 40
0.0
  9
$USERR4
 40
0.0
  9
$USERR5
 40
0.0
  9
$WORLDVIEW
 70
     1
  9
$SHADEDGE
 70
     3
  9
$SHADEDIF
 70
    70
  9
$TILEMODE
 70
     1
  9
$MAXACTVP
 70
    64
  9
$PINSBASE
 10
0.0
 20
0.0
 30
0.0
  9
$PLIMCHECK
 70
     0
  9
$PEXTMIN
 10
1.0000000000E+20
 20
1.0000000000E+20
 30
1.0000000000E+20
  9
$PEXTMAX
 10
-1.0000000000E+20
 20
-1.0000000000E+20
 30
-1.0000000000E+20
  9
$PLIMMIN
 10
0.0
 20
0.0
  9
$PLIMMAX
 10
420.0
 20
297.0
  9
$UNITMODE
 70
     0
  9
$VISRETAIN
 70
     1
  9
$PLINEGEN
 70
     0
  9
$PSLTSCALE
 70
     1
  9
$TREEDEPTH
 70
  3020
  9
$CMLSTYLE
  2
Standard
  9
$CMLJUST
 70
     0
  9
$CMLSCALE
 40
20.0
  9
$PROXYGRAPHICS
 70
     1
  9
$MEASUREMENT
 70
     1
  9
$CELWEIGHT
370
    -1
  9
$ENDCAPS
280
     0
  9
$JOINSTYLE
280
     0
  9
$LWDISPLAY
290
     1
  9
$INSUNITS
 70
     4
  9
$HYPERLINKBASE
  1

  9
$STYLESHEET
  1

  9
$XEDIT
290
     1
  9
$CEPSNTYPE
380
     0
  9
$PSTYLEMODE
290
     1
  9
$FINGERPRINTGUID
  2
{89F40067-F422-4C71-9DCF-26DC1237C475}
  9
$VERSIONGUID
  2
{FAEB1C32-E019-11D5-929B-00C0DF256EC4}
  9
$EXTNAMES
290
     1
  9
$PSVPSCALE
 40
0.0
  9
$OLESTARTUP
290
     0
  9
$SORTENTS
280
   127
  9
$INDEXCTL
280
     0
  9
$HIDETEXT
280
     1
  9
$XCLIPFRAME
290
     0
  9
$HALOGAP
280
     0
  9
$OBSCOLOR
 70
   257
  9
$OBSLTYPE
280
     0
  9
$INTERSECTIONDISPLAY
280
     0
  9
$INTERSECTIONCOLOR
 70
   257
  9
$DIMASSOC
280
     2
  9
$PROJECTNAME
  1

  9
$CAMERADISPLAY
290
     0
  9
$LENSLENGTH
 40
50.0
  9
$CAMERAHEIGHT
 40
0.0
  9
$STEPSPERSEC
 40
2.0
  9
$STEPSIZE
 40
6.0
  9
$3DDWFPREC
 40
2.0
  9
$PSOLWIDTH
 40
5.0
  9
$PSOLHEIGHT
 40
80.0
  9
$LOFTANG1
 40
1.5707963268
  9
$LOFTANG2
 40
1.5707963268
  9
$LOFTMAG1
 40
0.0
  9
$LOFTMAG2
 40
0.0
  9
$LOFTPARAM
 70
     7
  9
$LOFTNORMALS
280
     1
  9
$LATITUDE
 40
37.795
  9
$LONGITUDE
 40
-122.394
  9
$NORTHDIRECTION
 40
0.0
  9
$TIMEZONE
 70
 -8000
  9
$LIGHTGLYPHDISPLAY
280
     1
  9
$TILEMODELIGHTSYNCH
280
     1
  9
$SOLIDHIST
280
     1
  9
$SHOWHIST
280
     1
  9
$DWFFRAME
280
     2
  9
$DGNFRAME
280
     2
  9
$REALWORLDSCALE
290
     1
  9
$INTERFERECOLOR
 62
   256
  9
$CSHADOW
280
     0
  9
$SHADOWPLANELOCATION
 40
0.0
  0
ENDSEC
  0
SECTION
  2
CLASSES
  0
CLASS
  1
ACDBDICTIONARYWDFLT
  2
AcDbDictionaryWithDefault
  3
ObjectDBX Classes
 90
        0
 91
        4
280
     0
281
     0
  0
CLASS
  1
VISUALSTYLE
  2
AcDbVisualStyle
  3
ObjectDBX Classes
 90
     4095
 91
        4
280
     0
281
     0
  0
CLASS
  1
MATERIAL
  2
AcDbMaterial
  3
ObjectDBX Classes
 90
     1153
 91
        4
280
     0
281
     0
  0
CLASS
  1
SCALE
  2
AcDbScale
  3
ObjectDBX Classes
 90
     1153
 91
        4
280
     0
281
     0
  0
CLASS
  1
IMAGEDEF
  2
AcDbRasterImageDef
  3
ISM
 90
        0
 91
        4
280
     0
281
     0
  0
CLASS
  1
IMAGE
  2
AcDbRasterImage
  3
ISM
 90
      127
 91
        5
280
     0
281
     1
  0
CLASS
  1
IMAGEDEF_REACTOR
  2
AcDbRasterImageDefReactor
  3
ISM
 90
        1
 91
        4
280
     0
281
     0
  0
CLASS
  1
DICTIONARYVAR
  2
AcDbDictionaryVar
  3
ObjectDBX Classes
 90
        0
 91
        4
280
     0
281
     0
  0
ENDSEC
  0
SECTION
  2
TABLES
  0
TABLE
  2
VPORT
  5
8
330
0
100
AcDbSymbolTable
 70
     1
  0
VPORT
  5
29
330
8
100
AcDbSymbolTableRecord
100
AcDbViewportTableRecord
  2
*Active
 70
     0
 10
0.0
 20
0.0
 11
1.0
 21
1.0
 12
105.0
 22
148.5
 13
0.0
 23
0.0
 14
10.0
 24
10.0
 15
10.0
 25
10.0
 16
0.0
 26
0.0
 36
1.0
 17
0.0
 27
0.0
 37
0.0
 40
297.0
 41
0.7070707071
 42
50.0
 43
0.0
 44
0.0
 50
0.0
 51
0.0
 71
     0
 72
  2000
 73
     1
 74
     3
 75
     0
 76
     0
 77
     0
 78
     0
281
     0
 65
     1
110
0.0
120
0.0
130
0.0
111
1.0
121
0.0
131
0.0
112
0.0
122
1.0
132
0.0
 79
     0
146
0.0
 60
     3
 61
     5
292
     1
282
     1
141
0.0
142
0.0
 63
   250
  0
ENDTAB
  0
TABLE
  2
LTYPE
  5
5
330
0
100
AcDbSymbolTable
 70
     6
  0
LTYPE
  5
14
330
5
100
AcDbSymbolTableRecord
100
AcDbLinetypeTableRecord
  2
ByBlock
 70
     0
  3

 72
    65
 73
     0
 40
0.0
  0
LTYPE
  5
15
330
5
100
AcDbSymbolTableRecord
100
AcDbLinetypeTableRecord
  2
ByLayer
 70
     0
  3

 72
    65
 73
     0
 40
0.0
  0
LTYPE
  5
16
330
5
100
AcDbSymbolTableRecord
100
AcDbLinetypeTableRecord
  2
Continuous
 70
     0
  3
Solid line
 72
    65
 73
     0
 40
0.0
  0
LTYPE
  5
3F
330
5
100
AcDbSymbolTableRecord
100
AcDbLinetypeTableRecord
  2
HIDDEN
 70
     0
  3
Hidden __ __ __ __ __ __ __ __ __ __ __ __ __ __
 72
    65
 73
     2
 40
1.905
 49
1.27
 74
     0
 49
-0.635
 74
     0
  0
LTYPE
  5
40
330
5
100
AcDbSymbolTableRecord
100
AcDbLinetypeTableRecord
  2
PHANTOM
 70
     0
  3
Phantom ______  __  __  ______  __  __  ______
 72
    65
 73
     6
 40
12.7
 49
6.35
 74
     0
 49
-1.27
 74
     0
 49
1.27
 74
     0
 49
-1.27
 74
     0
 49
1.27
 74
     0
 49
-1.27
 74
     0
  0
LTYPE
  5
41
330
5
100
AcDbSymbolTableRecord
100
AcDbLinetypeTableRecord
  2
CENTER
 70
     0
  3
Center ____ _ ____ _ ____ _ ____ _ ____ _ ____
 72
    65
 73
     4
 40
10.16
 49
6.35
 74
     0
 49
-1.27
 74
     0
 49
1.27
 74
     0
 49
-1.27
 74
     0
  0
LTYPE
  5
42
330
5
100
AcDbSymbolTableRecord
100
AcDbLinetypeTableRecord
  2
CENTERX2
 70
     0
  3
Center (2x) ________  __  ________  __  _____
 72
    65
 73
     4
 40
20.32
 49
12.7
 74
     0
 49
-2.54
 74
     0
 49
2.54
 74
     0
 49
-2.54
 74
     0
  0
LTYPE
  5
43
330
5
100
AcDbSymbolTableRecord
100
AcDbLinetypeTableRecord
  2
DOT2
 70
     0
  3
Dot (.5x) ........................................
 72
    65
 73
     2
 40
0.635
 49
0.0
 74
     0
 49
-0.635
 74
     0
  0
ENDTAB
  0
TABLE
  2
LAYER
  5
2
330
0
100
AcDbSymbolTable
 70
     3
  0
LAYER
  5
10
330
2
100
AcDbSymbolTableRecord
100
AcDbLayerTableRecord
  2
0
 70
     0
 62
     7
  6
Continuous
370
    -3
390
F
347
3E
  0
LAYER
  5
44
330
2
100
AcDbSymbolTableRecord
100
AcDbLayerTableRecord
  2
SLD-0
 70
     0
 62
   179
  6
Continuous
370
    -3
390
F
347
3E
  0
LAYER
  5
45
330
2
100
AcDbSymbolTableRecord
100
AcDbLayerTableRecord
  2
FORMAT
 70
     0
 62
   179
  6
Continuous
370
    -3
390
F
347
3E
  0
ENDTAB
  0
TABLE
  2
STYLE
  5
3
330
0
100
AcDbSymbolTable
 70
     5
  0
STYLE
  5
11
330
3
100
AcDbSymbolTableRecord
100
AcDbTextStyleTableRecord
  2
Standard
 70
     0
 40
0.0
 41
1.0
 50
0.0
 71
     0
 42
2.5
  3
txt
  4

  0
STYLE
  5
49
330
3
100
AcDbSymbolTableRecord
100
AcDbTextStyleTableRecord
  2
SLDTEXTSTYLE0
 70
     0
 40
0.0
 41
0.4457894737
 50
0.0
 71
     0
 42
0.2
  3
TXT
  4

  0
STYLE
  5
8E
330
3
100
AcDbSymbolTableRecord
100
AcDbTextStyleTableRecord
  2
SLDTEXTSTYLE1
 70
     0
 40
0.0
 41
0.5526315789
 50
0.0
 71
     0
 42
0.2
  3
TXT
  4

  0
STYLE
  5
90
330
3
100
AcDbSymbolTableRecord
100
AcDbTextStyleTableRecord
  2
SLDTEXTSTYLE2
 70
     0
 40
0.0
 41
0.5065789474
 50
0.0
 71
     0
 42
0.2
  3
TXT
  4

  0
STYLE
  5
9B
330
3
100
AcDbSymbolTableRecord
100
AcDbTextStyleTableRecord
  2
SLDTEXTSTYLE3
 70
     0
 40
0.0
 41
0.75
 50
0.0
 71
     0
 42
0.2
  3
TXT
  4

  0
ENDTAB
  0
TABLE
  2
VIEW
  5
6
330
0
100
AcDbSymbolTable
 70
     0
  0
ENDTAB
  0
TABLE
  2
UCS
  5
7
330
0
100
AcDbSymbolTable
 70
     0
  0
ENDTAB
  0
TABLE
  2
APPID
  5
9
330
0
100
AcDbSymbolTable
 70
     1
  0
APPID
  5
12
330
9
100
AcDbSymbolTableRecord
100
AcDbRegAppTableRecord
  2
ACAD
 70
     0
  0
ENDTAB
  0
TABLE
  2
DIMSTYLE
  5
A
330
0
100
AcDbSymbolTable
 70
     3
100
AcDbDimStyleTable
  0
DIMSTYLE
105
27
330
A
100
AcDbSymbolTableRecord
100
AcDbDimStyleTableRecord
  2
ISO-25
 70
     0
 41
2.5
 42
0.625
 43
3.75
 44
1.25
 73
     0
 74
     0
 77
     1
 78
     8
140
2.5
141
2.5
143
0.0393700787
147
0.625
171
     3
172
     1
271
     2
272
     2
274
     3
278
    44
283
     0
284
     8
340
11
  0
DIMSTYLE
105
C4
102
{ACAD_REACTORS
330
C3
330
FF
330
114
102
}
330
A
100
AcDbSymbolTableRecord
100
AcDbDimStyleTableRecord
  2
SLDDIMSTYLE0
 70
     0
 41
3.302
 44
0.0
 45
0.000000001
 73
     0
 77
     1
 78
    12
140
3.5
147
0.875
173
     1
271
     1
272
     2
284
    12
340
9B
  0
DIMSTYLE
105
10A
102
{ACAD_REACTORS
330
109
102
}
330
A
100
AcDbSymbolTableRecord
100
AcDbDimStyleTableRecord
  2
SLDDIMSTYLE1
 70
     0
 41
3.302
 44
0.0
 45
0.000000001
 73
     0
 77
     1
 78
    12
140
3.5
147
0.875
173
     1
271
     0
272
     2
284
    12
340
9B
  0
ENDTAB
  0
TABLE
  2
BLOCK_RECORD
  5
1
330
0
100
AcDbSymbolTable
 70
     8
  0
BLOCK_RECORD
  5
1F
330
1
100
AcDbSymbolTableRecord
100
AcDbBlockTableRecord
  2
*Model_Space
340
22
 70
     0
280
     1
281
     0
  0
BLOCK_RECORD
  5
1B
330
1
100
AcDbSymbolTableRecord
100
AcDbBlockTableRecord
  2
*Paper_Space
340
1E
 70
     0
280
     1
281
     0
  0
BLOCK_RECORD
  5
23
330
1
100
AcDbSymbolTableRecord
100
AcDbBlockTableRecord
  2
*Paper_Space0
340
26
 70
     0
280
     1
281
     0
  0
BLOCK_RECORD
  5
46
330
1
100
AcDbSymbolTableRecord
100
AcDbBlockTableRecord
  2
SW_NOTE_0
340
0
102
{BLKREFS
331
8B
102
}
 70
     0
280
     1
281
     0
  0
BLOCK_RECORD
  5
6E
330
1
100
AcDbSymbolTableRecord
100
AcDbBlockTableRecord
  2
SW_NOTE_1
340
0
102
{BLKREFS
331
8C
102
}
 70
     0
280
     1
281
     0
  0
BLOCK_RECORD
  5
98
330
1
100
AcDbSymbolTableRecord
100
AcDbBlockTableRecord
  2
SW_NOTE_0_1
340
0
102
{BLKREFS
331
9F
102
}
 70
     0
280
     1
281
     0
  0
BLOCK_RECORD
  5
C5
330
1
100
AcDbSymbolTableRecord
100
AcDbBlockTableRecord
  2
*D4
340
0
 70
     0
280
     1
281
     0
  0
BLOCK_RECORD
  5
100
330
1
100
AcDbSymbolTableRecord
100
AcDbBlockTableRecord
  2
*D5
340
0
 70
     0
280
     1
281
     0
  0
BLOCK_RECORD
  5
10B
330
1
100
AcDbSymbolTableRecord
100
AcDbBlockTableRecord
  2
*D6
340
0
 70
     0
280
     1
281
     0
  0
BLOCK_RECORD
  5
115
330
1
100
AcDbSymbolTableRecord
100
AcDbBlockTableRecord
  2
*D7
340
0
 70
     0
280
     1
281
     0
  0
ENDTAB
  0
ENDSEC
  0
SECTION
  2
BLOCKS
  0
BLOCK
  5
20
330
1F
100
AcDbEntity
  8
0
100
AcDbBlockBegin
  2
*Model_Space
 70
     0
 10
0.0
 20
0.0
 30
0.0
  3
*Model_Space
  1

  0
ENDBLK
  5
21
330
1F
100
AcDbEntity
  8
0
100
AcDbBlockEnd
  0
BLOCK
  5
1C
330
1B
100
AcDbEntity
 67
     1
  8
0
100
AcDbBlockBegin
  2
*Paper_Space
 70
     0
 10
0.0
 20
0.0
 30
0.0
  3
*Paper_Space
  1

  0
ENDBLK
  5
1D
330
1B
100
AcDbEntity
 67
     1
  8
0
100
AcDbBlockEnd
  0
BLOCK
  5
24
330
23
100
AcDbEntity
  8
0
100
AcDbBlockBegin
  2
*Paper_Space0
 70
     0
 10
0.0
 20
0.0
 30
0.0
  3
*Paper_Space0
  1

  0
ENDBLK
  5
25
330
23
100
AcDbEntity
  8
0
100
AcDbBlockEnd
  0
BLOCK
  5
47
330
46
100
AcDbEntity
  8
0
100
AcDbBlockBegin
  2
SW_NOTE_0
 70
     0
 10
0.0
 20
0.0
 30
0.0
  3
SW_NOTE_0
  1

  0
MTEXT
  5
6C
330
46
100
AcDbEntity
  8
SLD-0
 48
10.0
100
AcDbMText
 10
0.0
 20
16.0053660025
 30
0.0
 40
15.0
 41
0.0
 46
0.0
 71
     1
 72
     1
  1
Disclaimer: This information is intended solely as a guide for use fo Marley NZ products. Before using you should ensure that the product is suitable for use in the specific application. 
  7
SLDTEXTSTYLE0
 73
     1
 44
1.0
  0
MTEXT
  5
6D
330
46
100
AcDbEntity
  8
SLD-0
 48
10.0
100
AcDbMText
 10
0.0
 20
-8.9946334395
 30
0.0
 40
15.0
 41
0.0
 46
0.0
 71
     1
 72
     1
  1
Marley NZ makes no warranty regarding the use of this information with non-Marley NZ products. This drawing is the property of Marley NZ Ltd.
  7
SLDTEXTSTYLE0
 73
     1
 44
1.0
  0
ENDBLK
  5
48
330
46
100
AcDbEntity
  8
0
100
AcDbBlockEnd
  0
BLOCK
  5
6F
330
6E
100
AcDbEntity
  8
0
100
AcDbBlockBegin
  2
SW_NOTE_1
 70
     0
 10
0.0
 20
0.0
 30
0.0
  3
SW_NOTE_1
  1

  0
MTEXT
  5
71
330
6E
100
AcDbEntity
  8
SLD-0
 48
10.0
100
AcDbMText
 10
0.0
 20
25.4085168109
 30
0.0
 40
23.8125
 41
0.0
 46
0.0
 71
     1
 72
     1
  1
0800 MARLEY
  7
SLDTEXTSTYLE0
 73
     1
 44
1.0
  0
MTEXT
  5
72
330
6E
100
AcDbEntity
  8
SLD-0
 48
10.0
100
AcDbMText
 10
-20.973738283
 20
-6.3414828051
 30
0.0
 40
23.8125
 41
0.0
 46
0.0
 71
     1
 72
     1
  1
www.marley.co.nz
  7
SLDTEXTSTYLE0
 73
     1
 44
1.0
  0
ENDBLK
  5
70
330
6E
100
AcDbEntity
  8
0
100
AcDbBlockEnd
  0
BLOCK
  5
99
330
98
100
AcDbEntity
  8
0
100
AcDbBlockBegin
  2
SW_NOTE_0_1
 70
     0
 10
0.0
 20
0.0
 30
0.0
  3
SW_NOTE_0_1
  1

  0
MTEXT
  5
9C
330
98
100
AcDbEntity
  8
SLD-0
 62
     0
 48
10.0
100
AcDbMText
 10
0.0
 20
4.0927900738
 30
0.0
 40
3.175
 41
0.0
 46
0.0
 71
     1
 72
     1
  1
NOTE: Fixing recommendations
  7
SLDTEXTSTYLE3
 73
     1
 44
1.0
  0
MTEXT
  5
9D
330
98
100
AcDbEntity
  8
SLD-0
 62
     0
 48
10.0
100
AcDbMText
 10
0.0
 20
-0.1171193985
 30
0.0
 40
2.6458333333
 41
0.0
 46
0.0
 71
     1
 72
     1
  1
Stainless Steel, grade 304 8g screw with neutral coloured 
  7
SLDTEXTSTYLE3
 73
     1
 44
1.0
  0
MTEXT
  5
9E
330
98
100
AcDbEntity
  8
SLD-0
 62
     0
 48
10.0
100
AcDbMText
 10
0.0
 20
-3.6448971337
 30
0.0
 40
2.6458333333
 41
0.0
 46
0.0
 71
     1
 72
     1
  1
washer to go between clip and wall. 
  7
SLDTEXTSTYLE3
 73
     1
 44
1.0
  0
ENDBLK
  5
9A
330
98
100
AcDbEntity
  8
0
100
AcDbBlockEnd
  0
BLOCK
  5
C6
330
C5
100
AcDbEntity
  8
0
100
AcDbBlockBegin
  2
*D4
 70
     1
 10
0.0
 20
0.0
 30
0.0
  3
*D4
  1

  0
SOLID
  5
C8
330
C5
100
AcDbEntity
  8
SLD-0
 48
10.0
100
AcDbTrace
 10
196.6671666823
 20
81.2322326904
 30
0.0
 11
193.3651666823
 21
81.7402326904
 31
0.0
 12
193.3651666823
 22
80.7242326904
 32
0.0
 13
193.3651666823
 23
80.7242326904
 33
0.0
  0
SOLID
  5
C9
330
C5
100
AcDbEntity
  8
SLD-0
 48
10.0
100
AcDbTrace
 10
174.3671666823
 20
81.2322326904
 30
0.0
 11
177.6691666823
 21
80.7242326904
 31
0.0
 12
177.6691666823
 22
81.7402326904
 32
0.0
 13
177.6691666823
 23
81.7402326904
 33
0.0
  0
LINE
  5
CA
330
C5
100
AcDbEntity
  8
SLD-0
 48
10.0
100
AcDbLine
 10
196.6671666823
 20
93.4623842095
 30
0.0
 11
196.6671666823
 21
80.2322326904
 31
0.0
  0
LINE
  5
CB
330
C5
100
AcDbEntity
  8
SLD-0
 48
10.0
100
AcDbLine
 10
174.3671666823
 20
93.4623842095
 30
0.0
 11
174.3671666823
 21
80.2322326904
 31
0.0
  0
LINE
  5
CC
330
C5
100
AcDbEntity
  8
SLD-0
 48
10.0
100
AcDbLine
 10
196.6671666823
 20
81.2322326904
 30
0.0
 11
174.3671666823
 21
81.2322326904
 31
0.0
  0
MTEXT
  5
CD
330
C5
100
AcDbEntity
  8
SLD-0
 48
10.0
100
AcDbMText
 10
181.7045161374
 20
85.743969605
 30
0.0
 40
3.5
 41
0.0
 46
0.0
 71
     1
 72
     1
  1
22.3
  7
SLDTEXTSTYLE3
 73
     1
 44
1.0
  0
ENDBLK
  5
C7
330
C5
100
AcDbEntity
  8
0
100
AcDbBlockEnd
  0
BLOCK
  5
101
330
100
100
AcDbEntity
  8
0
100
AcDbBlockBegin
  2
*D5
 70
     1
 10
0.0
 20
0.0
 30
0.0
  3
*D5
  1

  0
SOLID
  5
103
330
100
100
AcDbEntity
  8
SLD-0
 48
10.0
100
AcDbTrace
 10
163.3916311346
 20
75.2322326904
 30
0.0
 11
160.0896311346
 21
75.7402326904
 31
0.0
 12
160.0896311346
 22
74.7242326904
 32
0.0
 13
160.0896311346
 23
74.7242326904
 33
0.0
  0
SOLID
  5
104
330
100
100
AcDbEntity
  8
SLD-0
 48
10.0
100
AcDbTrace
 10
23.6916311346
 20
75.2322326904
 30
0.0
 11
26.9936311346
 21
74.7242326904
 31
0.0
 12
26.9936311346
 22
75.7402326904
 32
0.0
 13
26.9936311346
 23
75.7402326904
 33
0.0
  0
LINE
  5
105
330
100
100
AcDbEntity
  8
SLD-0
 48
10.0
100
AcDbLine
 10
163.3916311346
 20
90.2322326904
 30
0.0
 11
163.3916311346
 21
74.2322326904
 31
0.0
  0
LINE
  5
106
330
100
100
AcDbEntity
  8
SLD-0
 48
10.0
100
AcDbLine
 10
23.6916311346
 20
90.2322326904
 30
0.0
 11
23.6916311346
 21
74.2322326904
 31
0.0
  0
LINE
  5
107
330
100
100
AcDbEntity
  8
SLD-0
 48
10.0
100
AcDbLine
 10
163.3916311346
 20
75.2322326904
 30
0.0
 11
23.6916311346
 21
75.2322326904
 31
0.0
  0
MTEXT
  5
108
330
100
100
AcDbEntity
  8
SLD-0
 48
10.0
100
AcDbMText
 10
93.6926053041
 20
79.743969605
 30
0.0
 40
3.5
 41
0.0
 46
0.0
 71
     1
 72
     1
  1
139.7
  7
SLDTEXTSTYLE3
 73
     1
 44
1.0
  0
ENDBLK
  5
102
330
100
100
AcDbEntity
  8
0
100
AcDbBlockEnd
  0
BLOCK
  5
10C
330
10B
100
AcDbEntity
  8
0
100
AcDbBlockBegin
  2
*D6
 70
     1
 10
0.0
 20
0.0
 30
0.0
  3
*D6
  1

  0
SOLID
  5
10E
330
10B
100
AcDbEntity
  8
SLD-0
 48
10.0
100
AcDbTrace
 10
20.1289790017
 20
91.2322326904
 30
0.0
 11
20.6369790017
 21
94.5342326904
 31
0.0
 12
19.6209790017
 22
94.5342326904
 32
0.0
 13
19.6209790017
 23
94.5342326904
 33
0.0
  0
SOLID
  5
10F
330
10B
100
AcDbEntity
  8
SLD-0
 48
10.0
100
AcDbTrace
 10
20.1289790017
 20
197.2822326904
 30
0.0
 11
19.6209790017
 21
193.9802326904
 31
0.0
 12
20.6369790017
 22
193.9802326904
 32
0.0
 13
20.6369790017
 23
193.9802326904
 33
0.0
  0
LINE
  5
110
330
10B
100
AcDbEntity
  8
SLD-0
 48
10.0
100
AcDbLine
 10
22.6916311346
 20
91.2322326904
 30
0.0
 11
19.1289790017
 21
91.2322326904
 31
0.0
  0
LINE
  5
111
330
10B
100
AcDbEntity
  8
SLD-0
 48
10.0
100
AcDbLine
 10
92.5416311346
 20
197.2822326904
 30
0.0
 11
19.1289790017
 21
197.2822326904
 31
0.0
  0
LINE
  5
112
330
10B
100
AcDbEntity
  8
SLD-0
 48
10.0
100
AcDbLine
 10
20.1289790017
 20
91.2322326904
 30
0.0
 11
20.1289790017
 21
197.2822326904
 31
0.0
  0
MTEXT
  5
113
330
10B
100
AcDbEntity
  8
SLD-0
 48
10.0
100
AcDbMText
 10
15.6172420871
 20
143.5739975272
 30
0.0
 40
3.5
 41
0.0
 46
0.0
 71
     1
 72
     1
  1
106
  7
SLDTEXTSTYLE3
 11
5.053215498074303E-16
 21
1.0
 31
0.0
 73
     1
 44
1.0
  0
ENDBLK
  5
10D
330
10B
100
AcDbEntity
  8
0
100
AcDbBlockEnd
  0
BLOCK
  5
116
330
115
100
AcDbEntity
  8
0
100
AcDbBlockBegin
  2
*D7
 70
     1
 10
0.0
 20
0.0
 30
0.0
  3
*D7
  1

  0
SOLID
  5
118
330
115
100
AcDbEntity
  8
SLD-0
 48
10.0
100
AcDbTrace
 10
36.3916311346
 20
80.6674566031
 30
0.0
 11
39.6936311346
 21
80.1594566031
 31
0.0
 12
39.6936311346
 22
81.1754566031
 32
0.0
 13
39.6936311346
 23
81.1754566031
 33
0.0
  0
SOLID
  5
119
330
115
100
AcDbEntity
  8
SLD-0
 48
10.0
100
AcDbTrace
 10
150.6916311346
 20
80.6674566031
 30
0.0
 11
147.3896311346
 21
81.1754566031
 31
0.0
 12
147.3896311346
 22
80.1594566031
 32
0.0
 13
147.3896311346
 23
80.1594566031
 33
0.0
  0
LINE
  5
11A
330
115
100
AcDbEntity
  8
SLD-0
 48
10.0
100
AcDbLine
 10
36.3916311346
 20
90.2322326904
 30
0.0
 11
36.3916311346
 21
79.6674566031
 31
0.0
  0
LINE
  5
11B
330
115
100
AcDbEntity
  8
SLD-0
 48
10.0
100
AcDbLine
 10
150.6916311346
 20
90.2322326904
 30
0.0
 11
150.6916311346
 21
79.6674566031
 31
0.0
  0
LINE
  5
11C
330
115
100
AcDbEntity
  8
SLD-0
 48
10.0
100
AcDbLine
 10
36.3916311346
 20
80.6674566031
 30
0.0
 11
150.6916311346
 21
80.6674566031
 31
0.0
  0
MTEXT
  5
11D
330
115
100
AcDbEntity
  8
SLD-0
 48
10.0
100
AcDbMText
 10
93.6926053041
 20
85.1791935176
 30
0.0
 40
3.5
 41
0.0
 46
0.0
 71
     1
 72
     1
  1
114.3
  7
SLDTEXTSTYLE3
 73
     1
 44
1.0
  0
ENDBLK
  5
117
330
115
100
AcDbEntity
  8
0
100
AcDbBlockEnd
  0
ENDSEC
  0
SECTION
  2
ENTITIES
  0
IMAGE
  5
75
330
1F
100
AcDbEntity
  8
0
 92
      140
310
8C000000010000008400000006000000050000007B2AF04D7B252440CA7ECED2C0853A400000000000000000D287FE2793E75340CA7ECED2C0853A400000000000000000D287FE2793E75340FC7BB1D4D9E8424000000000000000007B2AF04D7B252440FC7BB1D4D9E8424000000000000000007B2AF04D7B252440CA7ECE
310
D2C0853A400000000000000000
100
AcDbRasterImage
 90
        0
 10
10.0732063633
 20
26.5224735026
 30
0.0
 11
0.1765105338580665
 21
0.0
 31
0.0
 12
0.0
 22
0.1765105338580665
 32
0.0
 13
394.0
 23
64.0
340
74
 70
     7
280
     0
281
    50
282
    50
283
     0
360
76
 71
     1
 91
        2
 14
-0.5
 24
-0.5
 14
393.5
 24
63.5
  0
LINE
  5
77
330
1F
100
AcDbEntity
  8
SLD-0
  6
Continuous
 62
   250
420
  1644836
 48
10.0
370
    40
100
AcDbLine
 10
10.0788435654
 20
5.2147801566
 30
0.0
 11
205.0788435654
 21
5.2147801566
 31
0.0
  0
LINE
  5
78
330
1F
100
AcDbEntity
  8
SLD-0
  6
Continuous
 62
   250
420
  1644836
 48
10.0
370
    40
100
AcDbLine
 10
0.0788435654
 20
0.2147801566
 30
0.0
 11
210.0788435654
 21
0.2147801566
 31
0.0
  0
LINE
  5
79
330
1F
100
AcDbEntity
  8
SLD-0
  6
Continuous
 62
   250
420
  1644836
 48
10.0
370
    40
100
AcDbLine
 10
0.0788435654
 20
0.2147801566
 30
0.0
 11
0.0788435654
 21
297.2147801566
 31
0.0
  0
LINE
  5
7A
330
1F
100
AcDbEntity
  8
SLD-0
  6
Continuous
 62
   250
420
  1644836
 48
10.0
370
    40
100
AcDbLine
 10
0.0788435654
 20
297.2147801566
 30
0.0
 11
210.0788435654
 21
297.2147801566
 31
0.0
  0
LINE
  5
7B
330
1F
100
AcDbEntity
  8
SLD-0
  6
Continuous
 62
   250
420
  1644836
 48
10.0
370
    40
100
AcDbLine
 10
210.0788435654
 20
0.2147801566
 30
0.0
 11
210.0788435654
 21
297.2147801566
 31
0.0
  0
LINE
  5
7C
330
1F
100
AcDbEntity
  8
SLD-0
  6
Continuous
 62
   250
420
  1644836
 48
10.0
370
    40
100
AcDbLine
 10
205.0788435654
 20
35.066192565
 30
0.0
 11
116.9116953245
 21
35.066192565
 31
0.0
  0
LINE
  5
7D
330
1F
100
AcDbEntity
  8
SLD-0
  6
Continuous
 62
   250
420
  1644836
 48
10.0
370
    40
100
AcDbLine
 10
10.0788435654
 20
292.2147801566
 30
0.0
 11
205.0788435654
 21
292.2147801566
 31
0.0
  0
LINE
  5
7E
330
1F
100
AcDbEntity
  8
SLD-0
  6
Continuous
 62
   250
420
  1644836
 48
10.0
370
    40
100
AcDbLine
 10
205.0788435654
 20
5.2147801566
 30
0.0
 11
180.9883118484
 21
5.2147801566
 31
0.0
  0
LINE
  5
7F
330
1F
100
AcDbEntity
  8
SLD-0
  6
Continuous
 62
   250
420
  1644836
 48
10.0
370
    40
100
AcDbLine
 10
10.0788435654
 20
5.2147801566
 30
0.0
 11
10.0788435654
 21
292.2147801566
 31
0.0
  0
LINE
  5
80
330
1F
100
AcDbEntity
  8
SLD-0
  6
Continuous
 62
   250
420
  1644836
 48
10.0
370
    40
100
AcDbLine
 10
10.0788435654
 20
11.2357498601
 30
0.0
 11
205.0788435654
 21
11.2357498601
 31
0.0
  0
LINE
  5
81
330
1F
100
AcDbEntity
  8
SLD-0
  6
Continuous
 62
   250
420
  1644836
 48
10.0
370
    40
100
AcDbLine
 10
205.0788435654
 20
43.3709272577
 30
0.0
 11
10.1108209117
 21
43.3709272577
 31
0.0
  0
LINE
  5
82
330
1F
100
AcDbEntity
  8
SLD-0
  6
Continuous
 62
   250
420
  1644836
 48
10.0
370
    40
100
AcDbLine
 10
210.0788435654
 20
292.2147801566
 30
0.0
 11
210.0788435654
 21
297.2147801566
 31
0.0
  0
LINE
  5
83
330
1F
100
AcDbEntity
  8
SLD-0
  6
Continuous
 62
   250
420
  1644836
 48
10.0
370
    40
100
AcDbLine
 10
79.7554204619
 20
22.1812450349
 30
0.0
 11
79.7554204619
 21
43.3709272577
 31
0.0
  0
LINE
  5
84
330
1F
100
AcDbEntity
  8
SLD-0
  6
Continuous
 62
   250
420
  1644836
 48
10.0
370
    40
100
AcDbLine
 10
10.1108209117
 20
60.3709272577
 30
0.0
 11
10.1108209117
 21
5.1209272577
 31
0.0
  0
LINE
  5
85
330
1F
100
AcDbEntity
  8
SLD-0
  6
Continuous
 62
   250
420
  1644836
 48
10.0
370
    40
100
AcDbLine
 10
10.0788435654
 20
22.2147801566
 30
0.0
 11
205.0788435654
 21
22.1209272577
 31
0.0
  0
LINE
  5
86
330
1F
100
AcDbEntity
  8
SLD-0
  6
Continuous
 62
   250
420
  1644836
 48
10.0
370
    40
100
AcDbLine
 10
116.9080516189
 20
43.3709272577
 30
0.0
 11
116.9173564476
 21
22.1633591097
 31
0.0
  0
LINE
  5
87
330
1F
100
AcDbEntity
  8
SLD-0
  6
Continuous
 62
   250
420
  1644836
 48
10.0
370
    40
100
AcDbLine
 10
160.8788435654
 20
5.2147801566
 30
0.0
 11
160.8788435654
 21
11.2357498601
 31
0.0
  0
LINE
  5
88
330
1F
100
AcDbEntity
  8
SLD-0
  6
Continuous
 62
   250
420
  1644836
 48
10.0
370
    40
100
AcDbLine
 10
192.0788435654
 20
11.2357498601
 30
0.0
 11
192.0788435654
 21
22.2147801566
 31
0.0
  0
LINE
  5
89
330
1F
100
AcDbEntity
  8
SLD-0
  6
Continuous
 62
   250
420
  1644836
 48
10.0
370
    40
100
AcDbLine
 10
205.0788435654
 20
13.7147801566
 30
0.0
 11
192.0788435654
 21
13.7147801566
 31
0.0
  0
LINE
  5
8A
330
1F
100
AcDbEntity
  8
SLD-0
  6
Continuous
 62
   250
420
  1644836
 48
10.0
370
    40
100
AcDbLine
 10
205.0788435654
 20
5.2147801566
 30
0.0
 11
205.0788435654
 21
292.2147801566
 31
0.0
  0
INSERT
  5
8B
330
1F
100
AcDbEntity
  8
0
  6
Continuous
 62
     7
 48
10.0
100
AcDbBlockReference
  2
SW_NOTE_0
 10
12.3050601837
 20
16.8389604502
 30
0.0
 41
0.1
 42
0.1
 43
0.1
  0
INSERT
  5
8C
330
1F
100
AcDbEntity
  8
0
  6
Continuous
 62
     7
 48
10.0
100
AcDbBlockReference
  2
SW_NOTE_1
 10
87.196611182
 20
32.8969357155
 30
0.0
 41
0.1
 42
0.1
 43
0.1
  0
MTEXT
  5
8D
330
1F
100
AcDbEntity
  8
SLD-0
 62
   250
420
  1644836
 48
10.0
100
AcDbMText
 10
131.9867841055
 20
40.1015259906
 30
0.0
 40
3.175
 41
0.0
 46
0.0
 71
     1
 72
     1
  1
RC80
  7
SLDTEXTSTYLE0
 73
     1
 44
1.0
  0
MTEXT
  5
8F
330
1F
100
AcDbEntity
  8
SLD-0
 62
   250
420
  1644836
 48
10.0
100
AcDbMText
 10
195.9998284117
 20
18.8689860195
 30
0.0
 40
2.9104166667
 41
0.0
 46
0.0
 71
     1
 72
     1
  1
A4
  7
SLDTEXTSTYLE1
 73
     1
 44
1.0
  0
MTEXT
  5
91
330
1F
100
AcDbEntity
  8
SLD-0
 62
   250
420
  1644836
 48
10.0
100
AcDbMText
 10
164.0281072696
 20
8.5413340856
 30
0.0
 40
1.5
 41
0.0
 46
0.0
 71
     1
 72
     1
  1
SHEET 1 OF 1
  7
SLDTEXTSTYLE2
 73
     1
 44
1.0
  0
MTEXT
  5
92
330
1F
100
AcDbEntity
  8
SLD-0
 62
   250
420
  1644836
 48
10.0
100
AcDbMText
 10
14.3797311356
 20
8.5413340856
 30
0.0
 40
1.5
 41
0.0
 46
0.0
 71
     1
 72
     1
  1
SCALE:
  7
SLDTEXTSTYLE1
 73
     1
 44
1.0
  0
MTEXT
  5
93
330
1F
100
AcDbEntity
  8
SLD-0
 62
   250
420
  1644836
 48
10.0
100
AcDbMText
 10
92.7036146979
 20
40.1514661596
 30
0.0
 40
1.5
 41
0.0
 46
0.0
 71
     1
 72
     1
  1
CONTACT:
  7
SLDTEXTSTYLE1
 73
     1
 44
1.0
  0
MTEXT
  5
94
330
1F
100
AcDbEntity
  8
SLD-0
 62
   250
420
  1644836
 48
10.0
100
AcDbMText
 10
23.5366971372
 20
9.0162768564
 30
0.0
 40
2.1166666667
 41
0.0
 46
0.0
 71
     1
 72
     1
  1
1:2
  7
SLDTEXTSTYLE0
 73
     1
 44
1.0
  0
MTEXT
  5
95
330
1F
100
AcDbEntity
  8
SLD-0
 62
   250
420
  1644836
 48
10.0
100
AcDbMText
 10
122.1441575388
 20
38.7971767854
 30
0.0
 40
1.5
 41
0.0
 46
0.0
 71
     1
 72
     1
  1
DWG NO.
  7
SLDTEXTSTYLE1
 73
     1
 44
1.0
  0
MTEXT
  5
96
330
1F
100
AcDbEntity
  8
SLD-0
 62
   250
420
  1644836
 48
10.0
100
AcDbMText
 10
131.9867841055
 20
31.9731020187
 30
0.0
 40
3.175
 41
0.0
 46
0.0
 71
     1
 72
     1
  1
80mm Round Downpipe with Saddle Clip
  7
SLDTEXTSTYLE0
 73
     1
 44
1.0
  0
MTEXT
  5
97
330
1F
100
AcDbEntity
  8
SLD-0
 62
   250
420
  1644836
 48
10.0
100
AcDbMText
 10
128.9875122993
 20
8.4914975992
 30
0.0
 40
1.5
 41
0.0
 46
0.0
 71
     1
 72
     1
  1
DATE: 30/04/12
  7
SLDTEXTSTYLE1
 73
     1
 44
1.0
  0
INSERT
  5
9F
330
1F
100
AcDbEntity
  8
SLD-0
 48
10.0
100
AcDbBlockReference
  2
SW_NOTE_0_1
 10
15.7447573062
 20
57.145715134
 30
0.0
  0
ARC
  5
A0
330
1F
100
AcDbEntity
  8
0
  6
Continuous
 62
     7
 48
100.0
370
    15
100
AcDbCircle
 10
195.6671666823
 20
196.2822326904
 30
0.0
 40
1.0
100
AcDbArc
 50
0.0
 51
90.0
  0
LINE
  5
A1
330
1F
100
AcDbEntity
  8
0
  6
Continuous
 62
     7
 48
10.0
370
    15
100
AcDbLine
 10
195.6671666823
 20
197.2822326904
 30
0.0
 11
175.3671666823
 21
197.2822326904
 31
0.0
  0
ARC
  5
A2
330
1F
100
AcDbEntity
  8
0
  6
Continuous
 62
     7
 48
100.0
370
    15
100
AcDbCircle
 10
175.3671666823
 20
196.2822326904
 30
0.0
 40
1.0
100
AcDbArc
 50
90.0
 51
180.0
  0
LINE
  5
A3
330
1F
100
AcDbEntity
  8
0
  6
Continuous
 62
     7
 48
10.0
370
    15
100
AcDbLine
 10
196.6671666823
 20
91.2322326904
 30
0.0
 11
174.3671666823
 21
91.2322326904
 31
0.0
  0
LINE
  5
A4
330
1F
100
AcDbEntity
  8
0
  6
Continuous
 62
     7
 48
10.0
370
    15
100
AcDbLine
 10
174.3671666823
 20
91.2322326904
 30
0.0
 11
174.3671666823
 21
93.2322326904
 31
0.0
  0
LINE
  5
A5
330
1F
100
AcDbEntity
  8
0
  6
Continuous
 62
     7
 48
10.0
370
    15
100
AcDbLine
 10
196.6671666823
 20
93.2322326904
 30
0.0
 11
174.3671666823
 21
93.2322326904
 31
0.0
  0
LINE
  5
A6
330
1F
100
AcDbEntity
  8
0
  6
Continuous
 62
     7
 48
10.0
370
    15
100
AcDbLine
 10
196.6671666823
 20
93.2322326904
 30
0.0
 11
196.6671666823
 21
91.2322326904
 31
0.0
  0
LINE
  5
A7
330
1F
100
AcDbEntity
  8
0
  6
Continuous
 62
     7
 48
10.0
370
    15
100
AcDbLine
 10
175.3671666823
 20
94.2322326904
 30
0.0
 11
195.6671666823
 21
94.2322326904
 31
0.0
  0
ARC
  5
A8
330
1F
100
AcDbEntity
  8
0
  6
Continuous
 62
     7
 48
100.0
370
    15
100
AcDbCircle
 10
195.6671666823
 20
93.2322326904
 30
0.0
 40
1.0
100
AcDbArc
 50
0.0
 51
90.0
  0
ARC
  5
A9
330
1F
100
AcDbEntity
  8
0
  6
Continuous
 62
     7
 48
100.0
370
    15
100
AcDbCircle
 10
175.3671666823
 20
93.2322326904
 30
0.0
 40
1.0
100
AcDbArc
 50
90.0
 51
180.0
  0
LINE
  5
AA
330
1F
100
AcDbEntity
  8
0
  6
Continuous
 62
     7
 48
10.0
370
    15
100
AcDbLine
 10
195.6671666823
 20
94.2322326904
 30
0.0
 11
195.6671666823
 21
95.1694909906
 31
0.0
  0
ARC
  5
AB
330
1F
100
AcDbEntity
  8
0
  6
Continuous
 62
     7
 48
100.0
370
    15
100
AcDbCircle
 10
195.7921666823
 20
94.2856075142
 30
0.0
 40
0.8926785535678594
100
AcDbArc
 50
11.421753659
 51
98.0494669755
  0
LINE
  5
AC
330
1F
100
AcDbEntity
  8
0
  6
Continuous
 62
     7
 48
10.0
370
    15
100
AcDbLine
 10
196.6671666823
 20
94.4623842095
 30
0.0
 11
196.6671666823
 21
93.2322326904
 31
0.0
  0
LINE
  5
AD
330
1F
100
AcDbEntity
  8
0
  6
Continuous
 62
     7
 48
10.0
370
    15
100
AcDbLine
 10
175.3671666823
 20
95.1694909906
 30
0.0
 11
175.3671666823
 21
94.2322326904
 31
0.0
  0
LINE
  5
AE
330
1F
100
AcDbEntity
  8
0
  6
Continuous
 62
     7
 48
10.0
370
    15
100
AcDbLine
 10
175.3671666823
 20
95.1694909906
 30
0.0
 11
195.6671666823
 21
95.1694909906
 31
0.0
  0
ARC
  5
AF
330
1F
100
AcDbEntity
  8
0
  6
Continuous
 62
     7
 48
100.0
370
    15
100
AcDbCircle
 10
175.2421666823
 20
94.2856075142
 30
0.0
 40
0.8926785535678291
100
AcDbArc
 50
81.9505330245
 51
168.578246341
  0
LINE
  5
B0
330
1F
100
AcDbEntity
  8
0
  6
Continuous
 62
     7
 48
10.0
370
    15
100
AcDbLine
 10
174.3671666823
 20
93.2322326904
 30
0.0
 11
174.3671666823
 21
94.4623842095
 31
0.0
  0
LINE
  5
B1
330
1F
100
AcDbEntity
  8
0
  6
Continuous
 62
     7
 48
10.0
370
    15
100
AcDbLine
 10
195.6671666823
 20
95.1694909906
 30
0.0
 11
195.6671666823
 21
115.3895172482
 31
0.0
  0
ARC
  5
B2
330
1F
100
AcDbEntity
  8
0
  6
Continuous
 62
     7
 48
100.0
370
    15
100
AcDbCircle
 10
195.7921666823
 20
114.5056337717
 30
0.0
 40
0.8926785535679291
100
AcDbArc
 50
11.421753659
 51
98.0494669755
  0
LINE
  5
B3
330
1F
100
AcDbEntity
  8
0
  6
Continuous
 62
     7
 48
10.0
370
    15
100
AcDbLine
 10
196.6671666823
 20
114.682410467
 30
0.0
 11
196.6671666823
 21
94.4623842095
 31
0.0
  0
LINE
  5
B4
330
1F
100
AcDbEntity
  8
0
  6
Continuous
 62
     7
 48
10.0
370
    15
100
AcDbLine
 10
175.3671666823
 20
115.3895172482
 30
0.0
 11
175.3671666823
 21
95.1694909906
 31
0.0
  0
LINE
  5
B5
330
1F
100
AcDbEntity
  8
0
  6
Continuous
 62
     7
 48
10.0
370
    15
100
AcDbLine
 10
195.6671666823
 20
115.3895172482
 30
0.0
 11
175.3671666823
 21
115.3895172482
 31
0.0
  0
ARC
  5
B6
330
1F
100
AcDbEntity
  8
0
  6
Continuous
 62
     7
 48
100.0
370
    15
100
AcDbCircle
 10
175.2421666823
 20
114.5056337717
 30
0.0
 40
0.8926785535678814
100
AcDbArc
 50
81.9505330245
 51
168.578246341
  0
LINE
  5
B7
330
1F
100
AcDbEntity
  8
0
  6
Continuous
 62
     7
 48
10.0
370
    15
100
AcDbLine
 10
174.3671666823
 20
94.4623842095
 30
0.0
 11
174.3671666823
 21
114.682410467
 31
0.0
  0
ARC
  5
B8
330
1F
100
AcDbEntity
  8
0
  6
Continuous
 62
     7
 48
100.0
370
    15
100
AcDbCircle
 10
195.7529426741
 20
121.1621542149
 30
0.0
 40
0.9203292733315381
100
AcDbArc
 50
264.652190763
 51
353.3967361137
  0
LINE
  5
B9
330
1F
100
AcDbEntity
  8
0
  6
Continuous
 62
     7
 48
10.0
370
    15
100
AcDbLine
 10
196.6671666823
 20
196.2822326904
 30
0.0
 11
196.6671666823
 21
121.0563221112
 31
0.0
  0
LINE
  5
BA
330
1F
100
AcDbEntity
  8
0
  6
Continuous
 62
     7
 48
10.0
370
    15
100
AcDbLine
 10
175.3671666823
 20
120.2458308819
 30
0.0
 11
195.6671666823
 21
120.2458308819
 31
0.0
  0
ARC
  5
BB
330
1F
100
AcDbEntity
  8
0
  6
Continuous
 62
     7
 48
100.0
370
    15
100
AcDbCircle
 10
175.2813906905
 20
121.1621542149
 30
0.0
 40
0.9203292733314843
100
AcDbArc
 50
186.6032638863
 51
275.347809237
  0
LINE
  5
BC
330
1F
100
AcDbEntity
  8
0
  6
Continuous
 62
     7
 48
10.0
370
    15
100
AcDbLine
 10
174.3671666823
 20
121.0563221112
 30
0.0
 11
174.3671666823
 21
196.2822326904
 31
0.0
  0
LINE
  5
BD
330
1F
100
AcDbEntity
  8
0
  6
Continuous
 62
     7
 48
10.0
370
    15
100
AcDbLine
 10
195.6671666823
 20
115.3895172482
 30
0.0
 11
195.6671666823
 21
120.2458308819
 31
0.0
  0
LINE
  5
BE
330
1F
100
AcDbEntity
  8
0
  6
Continuous
 62
     7
 48
10.0
370
    15
100
AcDbLine
 10
196.6671666823
 20
121.0563221112
 30
0.0
 11
196.6671666823
 21
114.682410467
 31
0.0
  0
LINE
  5
BF
330
1F
100
AcDbEntity
  8
0
  6
Continuous
 62
     7
 48
10.0
370
    15
100
AcDbLine
 10
175.3671666823
 20
120.2458308819
 30
0.0
 11
175.3671666823
 21
115.3895172482
 31
0.0
  0
LINE
  5
C0
330
1F
100
AcDbEntity
  8
0
  6
Continuous
 62
     7
 48
10.0
370
    15
100
AcDbLine
 10
174.3671666823
 20
114.682410467
 30
0.0
 11
174.3671666823
 21
121.0563221112
 31
0.0
  0
LINE
  5
C1
330
1F
100
AcDbEntity
  8
0
  6
Continuous
 62
     8
 48
10.0
370
    15
100
AcDbLine
 10
195.6671666823
 20
120.2458308819
 30
0.0
 11
195.6671666823
 21
197.2822326904
 31
0.0
  0
LINE
  5
C2
330
1F
100
AcDbEntity
  8
0
  6
Continuous
 62
     8
 48
10.0
370
    15
100
AcDbLine
 10
175.3671666823
 20
197.2822326904
 30
0.0
 11
175.3671666823
 21
120.2458308819
 31
0.0
  0
DIMENSION
  5
C3
330
1F
100
AcDbEntity
  8
SLD-0
 48
10.0
100
AcDbDimension
  2
*D4
 10
174.3671666823
 20
81.2322326904
 30
0.0
 11
186.2297631008
 21
81.2322326904
 31
0.0
 70
   160
 71
     2
 42
-1.0
 73
     0
 74
     0
 75
     0
  3
SLDDIMSTYLE0
100
AcDbAlignedDimension
 13
196.6671666823
 23
94.4623842095
 33
0.0
 14
174.3671666823
 24
94.4623842095
 34
0.0
 50
0.0
100
AcDbRotatedDimension
  0
ARC
  5
CE
330
1F
100
AcDbEntity
  8
0
  6
Continuous
 62
     7
 48
100.0
370
    15
100
AcDbCircle
 10
162.3916311346
 20
93.2322326904
 30
0.0
 40
1.0
100
AcDbArc
 50
0.0
 51
90.0
  0
LINE
  5
CF
330
1F
100
AcDbEntity
  8
0
  6
Continuous
 62
     7
 48
10.0
370
    15
100
AcDbLine
 10
163.3916311346
 20
91.2322326904
 30
0.0
 11
163.3916311346
 21
93.2322326904
 31
0.0
  0
LINE
  5
D0
330
1F
100
AcDbEntity
  8
0
  6
Continuous
 62
     7
 48
10.0
370
    15
100
AcDbLine
 10
23.6916311346
 20
93.2322326904
 30
0.0
 11
23.6916311346
 21
91.2322326904
 31
0.0
  0
ARC
  5
D1
330
1F
100
AcDbEntity
  8
0
  6
Continuous
 62
     7
 48
100.0
370
    15
100
AcDbCircle
 10
24.6916311346
 20
93.2322326904
 30
0.0
 40
1.000000000000004
100
AcDbArc
 50
90.0
 51
180.0
  0
LINE
  5
D2
330
1F
100
AcDbEntity
  8
0
  6
Continuous
 62
     7
 48
10.0
370
    15
100
AcDbLine
 10
152.2416311346
 20
93.2322326904
 30
0.0
 11
152.2416311346
 21
94.2322326904
 31
0.0
  0
LINE
  5
D3
330
1F
100
AcDbEntity
  8
0
  6
Continuous
 62
     7
 48
10.0
370
    15
100
AcDbLine
 10
152.2416311346
 20
94.2322326904
 30
0.0
 11
162.3916311346
 21
94.2322326904
 31
0.0
  0
LINE
  5
D4
330
1F
100
AcDbEntity
  8
0
  6
Continuous
 62
     7
 48
10.0
370
    15
100
AcDbLine
 10
163.3916311346
 20
91.2322326904
 30
0.0
 11
152.2416311346
 21
91.2322326904
 31
0.0
  0
LINE
  5
D5
330
1F
100
AcDbEntity
  8
0
  6
Continuous
 62
     7
 48
10.0
370
    15
100
AcDbLine
 10
152.2416311346
 20
91.2322326904
 30
0.0
 11
152.2416311346
 21
93.2322326904
 31
0.0
  0
LINE
  5
D6
330
1F
100
AcDbEntity
  8
0
  6
Continuous
 62
     7
 48
10.0
370
    15
100
AcDbLine
 10
152.2416311346
 20
93.2322326904
 30
0.0
 11
140.5597552213
 21
93.2322326904
 31
0.0
  0
LINE
  5
D7
330
1F
100
AcDbEntity
  8
0
  6
Continuous
 62
     7
 48
10.0
370
    15
100
AcDbLine
 10
140.5597552213
 20
93.2322326904
 30
0.0
 11
140.5597552213
 21
94.2322326904
 31
0.0
  0
LINE
  5
D8
330
1F
100
AcDbEntity
  8
0
  6
Continuous
 62
     7
 48
10.0
370
    15
100
AcDbLine
 10
140.5597552213
 20
94.2322326904
 30
0.0
 11
152.2416311346
 21
94.2322326904
 31
0.0
  0
ARC
  5
D9
330
1F
100
AcDbEntity
  8
0
  6
Continuous
 62
     7
 48
100.0
370
    15
100
AcDbCircle
 10
140.4769125089
 20
97.2322326904
 30
0.0
 40
6.0
100
AcDbArc
 50
225.0
 51
270.0
  0
LINE
  5
DA
330
1F
100
AcDbEntity
  8
0
  6
Continuous
 62
     7
 48
10.0
370
    15
100
AcDbLine
 10
136.2342718218
 20
92.9895920033
 30
0.0
 11
115.7892282915
 21
113.4346355336
 31
0.0
  0
ARC
  5
DB
330
1F
100
AcDbEntity
  8
0
  6
Continuous
 62
     7
 48
100.0
370
    15
100
AcDbCircle
 10
120.0318689786
 20
117.6772762207
 30
0.0
 40
6.000000000000008
100
AcDbArc
 50
125.5606177737
 51
225.0
  0
ARC
  5
DC
330
1F
100
AcDbEntity
  8
0
  6
Continuous
 62
     7
 48
100.0
370
    15
100
AcDbCircle
 10
93.5416311346
 20
154.7322326904
 30
0.0
 40
39.55000000000002
100
AcDbArc
 50
305.5606177737
 51
234.4393822263
  0
ARC
  5
DD
330
1F
100
AcDbEntity
  8
0
  6
Continuous
 62
     7
 48
100.0
370
    15
100
AcDbCircle
 10
67.0513932907
 20
117.6772762207
 30
0.0
 40
6.000000000000008
100
AcDbArc
 50
315.0
 51
54.4393822263
  0
LINE
  5
DE
330
1F
100
AcDbEntity
  8
0
  6
Continuous
 62
     7
 48
10.0
370
    15
100
AcDbLine
 10
71.2940339778
 20
113.4346355336
 30
0.0
 11
50.8489904475
 21
92.9895920033
 31
0.0
  0
ARC
  5
DF
330
1F
100
AcDbEntity
  8
0
  6
Continuous
 62
     7
 48
100.0
370
    15
100
AcDbCircle
 10
46.6063497604
 20
97.2322326904
 30
0.0
 40
6.0
100
AcDbArc
 50
270.0
 51
315.0
  0
LINE
  5
E0
330
1F
100
AcDbEntity
  8
0
  6
Continuous
 62
     7
 48
10.0
370
    15
100
AcDbLine
 10
46.6063497604
 20
91.2322326904
 30
0.0
 11
34.8416311346
 21
91.2322326904
 31
0.0
  0
LINE
  5
E1
330
1F
100
AcDbEntity
  8
0
  6
Continuous
 62
     7
 48
10.0
370
    15
100
AcDbLine
 10
34.8416311346
 20
93.2322326904
 30
0.0
 11
34.8416311346
 21
91.2322326904
 31
0.0
  0
LINE
  5
E2
330
1F
100
AcDbEntity
  8
0
  6
Continuous
 62
     7
 48
10.0
370
    15
100
AcDbLine
 10
46.5235070479
 20
93.2322326904
 30
0.0
 11
34.8416311346
 21
93.2322326904
 31
0.0
  0
ARC
  5
E3
330
1F
100
AcDbEntity
  8
0
  6
Continuous
 62
     7
 48
100.0
370
    15
100
AcDbCircle
 10
46.5235070479
 20
97.4322326904
 30
0.0
 40
4.200000000000012
100
AcDbArc
 50
270.0
 51
315.0
  0
LINE
  5
E4
330
1F
100
AcDbEntity
  8
0
  6
Continuous
 62
     7
 48
10.0
370
    15
100
AcDbLine
 10
69.7133817865
 20
114.682410467
 30
0.0
 11
49.4933555289
 21
94.4623842095
 31
0.0
  0
ARC
  5
E5
330
1F
100
AcDbEntity
  8
0
  6
Continuous
 62
     7
 48
100.0
370
    15
100
AcDbCircle
 10
66.7435333055
 20
117.652258948
 30
0.0
 40
4.200000000000002
100
AcDbArc
 50
315.0
 51
54.1439536503
  0
ARC
  5
E6
330
1F
100
AcDbEntity
  8
0
  6
Continuous
 62
     7
 48
100.0
370
    15
100
AcDbCircle
 10
93.5416311346
 20
154.7322326904
 30
0.0
 40
41.55000000000003
100
AcDbArc
 50
305.8560463497
 51
234.1439536503
  0
ARC
  5
E7
330
1F
100
AcDbEntity
  8
0
  6
Continuous
 62
     7
 48
100.0
370
    15
100
AcDbCircle
 10
120.3397289638
 20
117.652258948
 30
0.0
 40
4.199999999999991
100
AcDbArc
 50
125.8560463497
 51
225.0
  0
LINE
  5
E8
330
1F
100
AcDbEntity
  8
0
  6
Continuous
 62
     7
 48
10.0
370
    15
100
AcDbLine
 10
137.5899067404
 20
94.4623842095
 30
0.0
 11
117.3698804828
 21
114.682410467
 31
0.0
  0
ARC
  5
E9
330
1F
100
AcDbEntity
  8
0
  6
Continuous
 62
     7
 48
100.0
370
    15
100
AcDbCircle
 10
140.5597552213
 20
97.4322326904
 30
0.0
 40
4.199999999999991
100
AcDbArc
 50
225.0
 51
270.0
  0
LINE
  5
EA
330
1F
100
AcDbEntity
  8
0
  6
Continuous
 62
     7
 48
10.0
370
    15
100
AcDbLine
 10
152.2416311346
 20
91.2322326904
 30
0.0
 11
140.4769125089
 21
91.2322326904
 31
0.0
  0
LINE
  5
EB
330
1F
100
AcDbEntity
  8
0
  6
Continuous
 62
     7
 48
10.0
370
    15
100
AcDbLine
 10
137.5899067404
 20
94.4623842095
 30
0.0
 11
138.2970135216
 21
95.1694909906
 31
0.0
  0
ARC
  5
EC
330
1F
100
AcDbEntity
  8
0
  6
Continuous
 62
     7
 48
100.0
370
    15
100
AcDbCircle
 10
140.5597552213
 20
97.4322326904
 30
0.0
 40
3.200000000000004
100
AcDbArc
 50
225.0
 51
270.0
  0
LINE
  5
ED
330
1F
100
AcDbEntity
  8
0
  6
Continuous
 62
     7
 48
10.0
370
    15
100
AcDbLine
 10
117.3698804828
 20
114.682410467
 30
0.0
 11
118.076987264
 21
115.3895172482
 31
0.0
  0
LINE
  5
EE
330
1F
100
AcDbEntity
  8
0
  6
Continuous
 62
     7
 48
10.0
370
    15
100
AcDbLine
 10
118.076987264
 20
115.3895172482
 30
0.0
 11
138.2970135216
 21
95.1694909906
 31
0.0
  0
ARC
  5
EF
330
1F
100
AcDbEntity
  8
0
  6
Continuous
 62
     7
 48
100.0
370
    15
100
AcDbCircle
 10
93.5416311346
 20
154.7322326904
 30
0.0
 40
42.55000000000002
100
AcDbArc
 50
305.8560463497
 51
234.1439536503
  0
LINE
  5
F0
330
1F
100
AcDbEntity
  8
0
  6
Continuous
 62
     7
 48
10.0
370
    15
100
AcDbLine
 10
118.4653264927
 20
120.2458308819
 30
0.0
 11
117.8795757205
 21
121.0563221112
 31
0.0
  0
LINE
  5
F1
330
1F
100
AcDbEntity
  8
0
  6
Continuous
 62
     7
 48
10.0
370
    15
100
AcDbLine
 10
68.6179357766
 20
120.2458308819
 30
0.0
 11
69.2036865488
 21
121.0563221112
 31
0.0
  0
ARC
  5
F2
330
1F
100
AcDbEntity
  8
0
  6
Continuous
 62
     7
 48
100.0
370
    15
100
AcDbCircle
 10
120.3397289638
 20
117.652258948
 30
0.0
 40
3.199999999999995
100
AcDbArc
 50
125.8560463497
 51
225.0
  0
ARC
  5
F3
330
1F
100
AcDbEntity
  8
0
  6
Continuous
 62
     7
 48
100.0
370
    15
100
AcDbCircle
 10
66.7435333055
 20
117.652258948
 30
0.0
 40
3.200000000000004
100
AcDbArc
 50
315.0
 51
54.1439536503
  0
LINE
  5
F4
330
1F
100
AcDbEntity
  8
0
  6
Continuous
 62
     7
 48
10.0
370
    15
100
AcDbLine
 10
69.0062750053
 20
115.3895172482
 30
0.0
 11
69.7133817865
 21
114.682410467
 31
0.0
  0
LINE
  5
F5
330
1F
100
AcDbEntity
  8
0
  6
Continuous
 62
     7
 48
10.0
370
    15
100
AcDbLine
 10
48.7862487477
 20
95.1694909906
 30
0.0
 11
69.0062750053
 21
115.3895172482
 31
0.0
  0
LINE
  5
F6
330
1F
100
AcDbEntity
  8
0
  6
Continuous
 62
     7
 48
10.0
370
    15
100
AcDbLine
 10
48.7862487477
 20
95.1694909906
 30
0.0
 11
49.4933555289
 21
94.4623842095
 31
0.0
  0
ARC
  5
F7
330
1F
100
AcDbEntity
  8
0
  6
Continuous
 62
     7
 48
100.0
370
    15
100
AcDbCircle
 10
46.5235070479
 20
97.4322326904
 30
0.0
 40
3.200000000000003
100
AcDbArc
 50
270.0
 51
315.0
  0
LINE
  5
F8
330
1F
100
AcDbEntity
  8
0
  6
Continuous
 62
     7
 48
10.0
370
    15
100
AcDbLine
 10
46.5235070479
 20
94.2322326904
 30
0.0
 11
46.5235070479
 21
93.2322326904
 31
0.0
  0
LINE
  5
F9
330
1F
100
AcDbEntity
  8
0
  6
Continuous
 62
     7
 48
10.0
370
    15
100
AcDbLine
 10
34.8416311346
 20
94.2322326904
 30
0.0
 11
46.5235070479
 21
94.2322326904
 31
0.0
  0
LINE
  5
FA
330
1F
100
AcDbEntity
  8
0
  6
Continuous
 62
     7
 48
10.0
370
    15
100
AcDbLine
 10
34.8416311346
 20
94.2322326904
 30
0.0
 11
34.8416311346
 21
93.2322326904
 31
0.0
  0
LINE
  5
FB
330
1F
100
AcDbEntity
  8
0
  6
Continuous
 62
     7
 48
10.0
370
    15
100
AcDbLine
 10
34.8416311346
 20
91.2322326904
 30
0.0
 11
23.6916311346
 21
91.2322326904
 31
0.0
  0
LINE
  5
FC
330
1F
100
AcDbEntity
  8
0
  6
Continuous
 62
     7
 48
10.0
370
    15
100
AcDbLine
 10
24.6916311346
 20
94.2322326904
 30
0.0
 11
34.8416311346
 21
94.2322326904
 31
0.0
  0
LINE
  5
FD
330
1F
100
AcDbEntity
  8
0
  6
Continuous
 62
     8
 48
10.0
370
    15
100
AcDbLine
 10
163.3916311346
 20
93.2322326904
 30
0.0
 11
152.2416311346
 21
93.2322326904
 31
0.0
  0
LINE
  5
FE
330
1F
100
AcDbEntity
  8
0
  6
Continuous
 62
     8
 48
10.0
370
    15
100
AcDbLine
 10
34.8416311346
 20
93.2322326904
 30
0.0
 11
23.6916311346
 21
93.2322326904
 31
0.0
  0
DIMENSION
  5
FF
330
1F
100
AcDbEntity
  8
SLD-0
 48
10.0
100
AcDbDimension
  2
*D5
 10
23.6916311346
 20
75.2322326904
 30
0.0
 11
99.5107799713
 21
75.2322326904
 31
0.0
 70
   160
 71
     2
 42
-1.0
 73
     0
 74
     0
 75
     0
  3
SLDDIMSTYLE0
100
AcDbAlignedDimension
 13
163.3916311346
 23
91.2322326904
 33
0.0
 14
23.6916311346
 24
91.2322326904
 34
0.0
100
AcDbRotatedDimension
  0
DIMENSION
  5
109
330
1F
100
AcDbEntity
  8
SLD-0
 48
10.0
100
AcDbDimension
  2
*D6
 10
20.1289790017
 20
197.2822326904
 30
0.0
 11
20.1289790017
 21
147.4527806387
 31
0.0
 70
   160
 71
     2
 42
-1.0
 73
     0
 74
     0
 75
     0
  3
SLDDIMSTYLE1
100
AcDbAlignedDimension
 13
23.6916311346
 23
91.2322326904
 33
0.0
 14
93.5416311346
 24
197.2822326904
 34
0.0
 50
90.0
100
AcDbRotatedDimension
  0
DIMENSION
  5
114
330
1F
100
AcDbEntity
  8
SLD-0
 48
10.0
100
AcDbDimension
  2
*D7
 10
150.6916311346
 20
80.6674566031
 30
0.0
 11
99.5107799713
 21
80.6674566031
 31
0.0
 70
   160
 71
     2
 42
-1.0
 73
     0
 74
     0
 75
     0
  3
SLDDIMSTYLE0
100
AcDbAlignedDimension
 13
36.3916311346
 23
91.2322326904
 33
0.0
 14
150.6916311346
 24
91.2322326904
 34
0.0
100
AcDbRotatedDimension
  0
LINE
  5
11E
330
1F
100
AcDbEntity
  8
0
  6
Continuous
 62
     7
 48
10.0
370
    15
100
AcDbLine
 10
82.7885053898
 20
256.031295208
 30
0.0
 11
83.156379813
 21
250.0707959083
 31
0.0
  0
LINE
  5
11F
330
1F
100
AcDbEntity
  8
0
  6
Continuous
 62
     7
 48
10.0
370
    15
100
AcDbLine
 10
83.9484867676
 20
237.2366529205
 30
0.0
 11
83.9575293379
 21
237.0901403318
 31
0.0
  0
LINE
  5
120
330
1F
100
AcDbEntity
  8
0
  6
Continuous
 62
     7
 48
10.0
370
    15
100
AcDbLine
 10
123.8815622767
 20
239.5542007819
 30
0.0
 11
123.8734425317
 21
239.6857612587
 31
0.0
  0
LINE
  5
121
330
1F
100
AcDbEntity
  8
0
  6
Continuous
 62
     7
 48
10.0
370
    15
100
AcDbLine
 10
123.0804127518
 20
252.5348563585
 30
0.0
 11
122.7125383286
 21
258.4953556582
 31
0.0
  0
SPLINE
  5
122
330
1F
100
AcDbEntity
  8
0
  6
Continuous
 62
     7
 48
10.0
370
    15
100
AcDbSpline
210
0.0
220
0.0
230
1.0
 70
     8
 71
     3
 72
    11
 73
     7
 74
     0
 42
0.00000001
 43
0.00000001
 40
0.0
 40
0.0
 40
0.0
 40
0.0
 40
0.0252605701421157
 40
0.3874345285437713
 40
0.7502245278405453
 40
1.0
 40
1.0
 40
1.0
 40
1.0
 10
123.9602560021377
 20
254.4675492674106
 30
0.0
 10
123.9548728576424
 20
254.487820850249
 30
0.0
 10
123.8723087651488
 20
254.7987366805599
 30
0.0
 10
123.6334986804302
 20
255.3866090525684
 30
0.0
 10
123.2852931292119
 20
256.1397779463511
 30
0.0
 10
123.0153536659479
 20
256.5986697385865
 30
0.0
 10
122.9052850120112
 20
256.7857842910982
 30
0.0
  0
SPLINE
  5
123
330
1F
100
AcDbEntity
  8
0
  6
Continuous
 62
     7
 48
10.0
370
    15
100
AcDbSpline
210
0.0
220
0.0
230
1.0
 70
     8
 71
     3
 72
    11
 73
     7
 74
     0
 42
0.00000001
 43
0.00000001
 40
0.0
 40
0.0
 40
0.0
 40
0.0
 40
0.1693429231303416
 40
0.5242373341198613
 40
0.8782795337881809
 40
1.0
 40
1.0
 40
1.0
 40
1.0
 10
82.88569006298044
 20
254.4566568534605
 30
0.0
 10
82.81866076687206
 20
254.3190277744308
 30
0.0
 10
82.61115720634392
 20
253.8929674457547
 30
0.0
 10
82.3564705812092
 20
253.1626056451566
 30
0.0
 10
82.15035291503997
 20
252.4671710257097
 30
0.0
 10
82.08447227976517
 20
252.0649470745868
 30
0.0
 10
82.06761719168223
 20
251.9620409611749
 30
0.0
  0
LINE
  5
124
330
1F
100
AcDbEntity
  8
0
  6
Continuous
 62
     7
 48
10.0
370
    15
100
AcDbLine
 10
81.907181742
 20
249.6134308839
 30
0.0
 11
82.3818054649
 21
241.9233220042
 31
0.0
  0
LINE
  5
125
330
1F
100
AcDbEntity
  8
0
  6
Continuous
 62
     7
 48
10.0
370
    15
100
AcDbLine
 10
124.8509955036
 20
244.544466308
 30
0.0
 11
124.3763717807
 21
252.2345751878
 31
0.0
  0
SPLINE
  5
126
330
1F
100
AcDbEntity
  8
0
  6
Continuous
 62
     7
 48
10.0
370
    15
100
AcDbSpline
210
0.0
220
0.0
230
1.0
 70
     8
 71
     3
 72
    52
 73
    48
 74
     0
 42
0.00000001
 43
0.00000001
 40
0.0
 40
0.0
 40
0.0
 40
0.0
 40
0.0081520078971299
 40
0.0305458438881752
 40
0.052982380463971
 40
0.0754686240147659
 40
0.0980061164904043
 40
0.1205918414095552
 40
0.1432196416497207
 40
0.1658817265738715
 40
0.1885699546751379
 40
0.2112767393686734
 40
0.2339955665731297
 40
0.2567211971616231
 40
0.2794495988009016
 40
0.3021772564508949
 40
0.3249025554931497
 40
0.3476245806219053
 40
0.3703429521647084
 40
0.3930576905898075
 40
0.41576910904887
 40
0.4384777306963776
 40
0.4611842263371486
 40
0.4838893678333688
 40
0.5065939930526465
 40
0.5292989786145005
 40
0.5520049810145728
 40
0.5747128321445584
 40
0.5974234043529455
 40
0.6201375238495126
 40
0.642855938083542
 40
0.6655792725391558
 40
0.6883079726607522
 40
0.7110422261088847
 40
0.7337818602940287
 40
0.7565262106473647
 40
0.7792739571836796
 40
0.8020223959979728
 40
0.8247675225334611
 40
0.847504416099538
 40
0.8702267483393838
 40
0.8929268581243296
 40
0.9155961116710463
 40
0.9382256514688301
 40
0.9608075774285488
 40
0.9833364739388418
 40
1.0
 40
1.0
 40
1.0
 40
1.0
 10
82.83992044435409
 20
239.5815911951135
 30
0.0
 10
82.87144728688179
 20
239.476286749747
 30
0.0
 10
82.98957941117439
 20
239.0817075013598
 30
0.0
 10
83.28039618079552
 20
238.4143619379152
 30
0.0
 10
83.71046750206284
 20
237.5835407486842
 30
0.0
 10
84.22641630163247
 20
236.7763795852573
 30
0.0
 10
84.81933525002574
 20
235.9948062130863
 30
0.0
 10
85.48885831827607
 20
235.2423999910857
 30
0.0
 10
86.231829626158
 20
234.5222210207027
 30
0.0
 10
87.0453602021306
 20
233.8373288699068
 30
0.0
 10
87.92604160153583
 20
233.1905867619524
 30
0.0
 10
88.87020540354042
 20
232.5846735240011
 30
0.0
 10
89.87390402626109
 20
232.0220562299695
 30
0.0
 10
90.93296102227387
 20
231.5049870756586
 30
0.0
 10
92.0429858753531
 20
231.0355059779409
 30
0.0
 10
93.1994125443973
 20
230.6154342836799
 30
0.0
 10
94.39752053454274
 20
230.2463782377032
 30
0.0
 10
95.6324640615069
 20
229.929730130812
 30
0.0
 10
96.89927122785994
 20
229.6666755755853
 30
0.0
 10
98.19285994630953
 20
229.4581928771138
 30
0.0
 10
99.50805449307596
 20
229.3050518320063
 30
0.0
 10
100.8396028764488
 20
229.2078123341562
 30
0.0
 10
102.1821950273296
 20
229.1668231196508
 30
0.0
 10
103.5304817131007
 20
229.1822209204146
 30
0.0
 10
104.8790940120798
 20
229.253930227338
 30
0.0
 10
106.2226585026332
 20
229.381663358566
 30
0.0
 10
107.5558209887753
 20
229.5649212244359
 30
0.0
 10
108.8732681084162
 20
229.8029955560215
 30
0.0
 10
110.1697517770936
 20
230.0949733900237
 30
0.0
 10
111.4401049001729
 20
230.4397409677618
 30
0.0
 10
112.6792586790353
 20
230.8359882023585
 30
0.0
 10
113.882260209993
 20
231.2822138111493
 30
0.0
 10
115.0442890022643
 20
231.7767306932605
 30
0.0
 10
116.1606722905846
 20
232.3176712016216
 30
0.0
 10
117.2268990914835
 20
232.902991856785
 30
0.0
 10
118.2386331995323
 20
233.5304769423688
 30
0.0
 10
119.1917177732688
 20
234.1977351462005
 30
0.0
 10
120.0821877029695
 20
234.9021949457527
 30
0.0
 10
120.9062895611793
 20
235.6411034336832
 30
0.0
 10
121.6605145695437
 20
236.4115259499888
 30
0.0
 10
122.3415921994895
 20
237.2103458916348
 30
0.0
 10
122.9466312190428
 20
238.0342504146734
 30
0.0
 10
123.4727297650272
 20
238.879765231792
 30
0.0
 10
123.918614565894
 20
239.7431628204906
 30
0.0
 10
124.2787441297868
 20
240.6209081595607
 30
0.0
 10
124.5407844643094
 20
241.4319002749625
 30
0.0
 10
124.6438802380329
 20
241.9521270562915
 30
0.0
 10
124.6877136884685
 20
242.1733129886636
 30
0.0
  0
SPLINE
  5
127
330
1F
100
AcDbEntity
  8
0
  6
Continuous
 62
     7
 48
10.0
370
    15
100
AcDbSpline
210
0.0
220
0.0
230
1.0
 70
     8
 71
     3
 72
    16
 73
    12
 74
     0
 42
0.00000001
 43
0.00000001
 40
0.0
 40
0.0
 40
0.0
 40
0.0
 40
0.0669634338051798
 40
0.1931387927971773
 40
0.31966943967502
 40
0.4461214511894828
 40
0.5718988273529642
 40
0.6962086897902283
 40
0.8183504590477377
 40
0.9381680780823595
 40
1.0
 40
1.0
 40
1.0
 40
1.0
 10
144.7295244308359
 20
250.689214354915
 30
0.0
 10
144.8345230550211
 20
250.650600197234
 30
0.0
 10
145.1373645666957
 20
250.539227596165
 30
0.0
 10
145.6362382717916
 20
250.4078249462522
 30
0.0
 10
146.2154868528015
 20
250.3214746533301
 30
0.0
 10
146.7742220806868
 20
250.3117011322274
 30
0.0
 10
147.3018274939565
 20
250.3793451535132
 30
0.0
 10
147.7889509365612
 20
250.5230660857553
 30
0.0
 10
148.2212110791346
 20
250.7432282596531
 30
0.0
 10
148.5458513338671
 20
250.9761656280423
 30
0.0
 10
148.6989423136643
 20
251.1560313057277
 30
0.0
 10
148.7510531500556
 20
251.2172560161234
 30
0.0
  0
LINE
  5
128
330
1F
100
AcDbEntity
  8
0
  6
Continuous
 62
     7
 48
10.0
370
    15
100
AcDbLine
 10
148.7011734664
 20
251.1474079056
 30
0.0
 11
149.243151222
 21
251.7140866098
 31
0.0
  0
SPLINE
  5
129
330
1F
100
AcDbEntity
  8
0
  6
Continuous
 62
     7
 48
10.0
370
    15
100
AcDbSpline
210
0.0
220
0.0
230
1.0
 70
     8
 71
     3
 72
     9
 73
     5
 74
     0
 42
0.00000001
 43
0.00000001
 40
0.0
 40
0.0
 40
0.0
 40
0.0
 40
0.3284986343182522
 40
1.0
 40
1.0
 40
1.0
 40
1.0
 10
122.9052850120112
 20
256.7857842910982
 30
0.0
 10
122.8921884715284
 20
256.8091922221543
 30
0.0
 10
122.8523206026404
 20
256.880449538352
 30
0.0
 10
122.8443696872501
 20
256.944152374521
 30
0.0
 10
122.8390306367071
 20
256.9869289160063
 30
0.0
  0
LINE
  5
12A
330
1F
100
AcDbEntity
  8
0
  6
Continuous
 62
     7
 48
10.0
370
    15
100
AcDbLine
 10
124.5530922331
 20
250.2313289542
 30
0.0
 11
138.5157143936
 21
252.6868194611
 31
0.0
  0
LINE
  5
12B
330
1F
100
AcDbEntity
  8
0
  6
Continuous
 62
     7
 48
10.0
370
    15
100
AcDbLine
 10
124.5006583263
 20
250.2208177154
 30
0.0
 11
124.5530922331
 21
250.2313289542
 31
0.0
  0
LINE
  5
12C
330
1F
100
AcDbEntity
  8
0
  6
Continuous
 62
     7
 48
10.0
370
    15
100
AcDbLine
 10
139.8284465902
 20
252.5805195294
 30
0.0
 11
144.7295244308
 21
250.6892143549
 31
0.0
  0
SPLINE
  5
12D
330
1F
100
AcDbEntity
  8
0
  6
Continuous
 62
     7
 48
10.0
370
    15
100
AcDbSpline
210
0.0
220
0.0
230
1.0
 70
     8
 71
     3
 72
    12
 73
     8
 74
     0
 42
0.00000001
 43
0.00000001
 40
0.0
 40
0.0
 40
0.0
 40
0.0
 40
0.1351629362693365
 40
0.4015939211634496
 40
0.6678534568599321
 40
0.9319723178507572
 40
1.0
 40
1.0
 40
1.0
 40
1.0
 10
138.515714393593
 20
252.6868194611476
 30
0.0
 10
138.5769603119305
 20
252.6962657510555
 30
0.0
 10
138.7589331898457
 20
252.7243324142198
 30
0.0
 10
139.0706267510374
 20
252.7342990532595
 30
0.0
 10
139.4302622336263
 20
252.6979970301743
 30
0.0
 10
139.6796391385
 20
252.6356521191689
 30
0.0
 10
139.8031500433647
 20
252.5898918029106
 30
0.0
 10
139.82844659018
 20
252.5805195293953
 30
0.0
  0
SPLINE
  5
12E
330
1F
100
AcDbEntity
  8
0
  6
Continuous
 62
     7
 48
10.0
370
    15
100
AcDbSpline
210
0.0
220
0.0
230
1.0
 70
     8
 71
     3
 72
    25
 73
    21
 74
     0
 42
0.00000001
 43
0.00000001
 40
0.0
 40
0.0
 40
0.0
 40
0.0
 40
0.0266600269802802
 40
0.08232966215787
 40
0.1381784612094533
 40
0.1947299178753038
 40
0.2522332975178647
 40
0.3106311041692241
 40
0.3696639898885144
 40
0.4290329602989843
 40
0.4884987178504606
 40
0.5479229232358942
 40
0.6072748029890579
 40
0.6665624309123102
 40
0.7258139360609515
 40
0.7850670518892384
 40
0.8443567967176989
 40
0.9037190810333329
 40
0.963195299283617
 40
1.0
 40
1.0
 40
1.0
 40
1.0
 10
91.33875606879624
 20
277.7913814850241
 30
0.0
 10
91.28842445931487
 20
277.7383248116923
 30
0.0
 10
91.13299384375219
 20
277.5744788413243
 30
0.0
 10
90.94221265427902
 20
277.2398601094215
 30
0.0
 10
90.7680660070993
 20
276.8005746119277
 30
0.0
 10
90.66861008195539
 20
276.3176923058125
 30
0.0
 10
90.64082086118316
 20
275.8001675679259
 30
0.0
 10
90.68715140676383
 20
275.2533149530742
 30
0.0
 10
90.80729515126843
 20
274.6857355676496
 30
0.0
 10
90.99955470596208
 20
274.1068913928317
 30
0.0
 10
91.26037963626736
 20
273.5266286024998
 30
0.0
 10
91.5849946550796
 20
272.9543087905333
 30
0.0
 10
91.96781468430248
 20
272.3986414656478
 30
0.0
 10
92.40269901926929
 20
271.8677590932388
 30
0.0
 10
92.88297475943145
 20
271.3693467011662
 30
0.0
 10
93.40148062106425
 20
270.9107911685869
 30
0.0
 10
93.95065615258167
 20
270.4985773700541
 30
0.0
 10
94.5225959398657
 20
270.1402543437979
 30
0.0
 10
95.03438269157826
 20
269.8755362772538
 30
0.0
 10
95.35306744944255
 20
269.7459178768549
 30
0.0
 10
95.47488906541746
 20
269.6963694670015
 30
0.0
  0
LINE
  5
12F
330
1F
100
AcDbEntity
  8
0
  6
Continuous
 62
     7
 48
10.0
370
    15
100
AcDbLine
 10
91.9306135081
 20
278.4279082998
 30
0.0
 11
91.3886357525
 21
277.8612295956
 31
0.0
  0
LINE
  5
130
330
1F
100
AcDbEntity
  8
0
  6
Continuous
 62
     7
 48
10.0
370
    15
100
AcDbLine
 10
95.4748890654
 20
269.696369467
 30
0.0
 11
96.3120341687
 21
269.3733187183
 31
0.0
  0
LWPOLYLINE
  5
131
330
1F
100
AcDbEntity
  8
0
  6
Continuous
 62
     7
 48
10.0
370
    15
100
AcDbPolyline
 90
       90
 70
   128
 43
0.0
 10
118.8065260793
 20
251.0673814285
 10
118.0349894653
 20
250.317933432
 10
117.1873064026
 20
249.603087029
 10
116.2677000054
 20
248.9264035485
 10
115.2807517067
 20
248.2912541934
 10
114.2313784331
 20
247.7008032459
 10
113.1248081097
 20
247.157992303
 10
111.9665536139
 20
246.6655256214
 10
110.7623853115
 20
246.2258566454
 10
109.5183023085
 20
245.8411757836
 10
108.2405025636
 20
245.5133994969
 10
106.935352011
 20
245.2441607502
 10
105.6093528452
 20
245.0348008773
 10
104.2691111271
 20
244.8863628986
 10
102.9213038737
 20
244.7995863247
 10
101.5726457929
 20
244.7749034721
 10
100.2298558315
 20
244.8124373095
 10
98.8996237013
 20
244.9120008453
 10
97.5885765521
 20
245.0730980589
 10
96.3032459548
 20
245.294926372
 10
95.0500353617
 20
245.5763806473
 10
93.835188205
 20
245.9160586936
 10
92.6647567921
 20
246.312268252
 10
91.5445721534
 20
246.7630354264
 10
90.4802149925
 20
247.2661145175
 10
89.4769878832
 20
247.8189992104
 10
88.5398888525
 20
248.4189350616
 10
87.6735864806
 20
249.0629332207
 10
86.8823966423
 20
249.7477853213
 10
86.1702610057
 20
250.4700794647
 10
85.5407273947
 20
251.2262172178
 10
84.996932114
 20
252.0124315404
 10
84.5415843244
 20
252.8248055522
 10
84.1769525456
 20
253.6592920467
 10
83.9048533549
 20
254.5117336544
 10
83.7266423367
 20
255.3778835538
 10
83.6432073294
 20
256.2534266299
 10
83.6549640019
 20
257.134000971
 10
83.7618537831
 20
258.0152196001
 10
83.9633441536
 20
258.8926923302
 10
84.2584312983
 20
259.7620476364
 10
84.645645108
 20
260.6189544343
 10
85.123056503
 20
261.4591436573
 10
85.6882870437
 20
262.278429525
 10
86.33852078
 20
263.0727303964
 10
87.0705182802
 20
263.8380891044
 10
87.8806327694
 20
264.5706926706
 10
88.7648282981
 20
265.2668913007
 10
89.7186998486
 20
265.9232165683
 10
90.7374952809
 20
266.5363986939
 10
91.8161390073
 20
267.1033828349
 10
92.949257279
 20
267.6213443049
 10
94.1312049579
 20
268.0877026459
 10
95.35609364
 20
268.5001344842
 10
96.6178209916
 20
268.8565851049
 10
97.9101011504
 20
269.1552786892
 10
99.2264960416
 20
269.3947271605
 10
100.5604474523
 20
269.5737375986
 10
101.9053097034
 20
269.6914181826
 10
103.254382759
 20
269.7471826336
 10
104.600945605
 20
269.740753136
 10
105.9382897329
 20
269.6721617212
 10
107.2597525617
 20
269.5417501083
 10
108.5587506299
 20
269.3501680012
 10
109.8288123945
 20
269.0983698524
 10
111.0636104717
 20
268.7876101077
 10
112.2569931596
 20
268.4194369564
 10
113.4030150857
 20
267.9956846186
 10
114.4959668264
 20
267.5184642073
 10
115.530403351
 20
266.9901532104
 10
116.5011711489
 20
266.4133836468
 10
117.4034339038
 20
265.7910289535
 10
118.2326965879
 20
265.1261896701
 10
118.9848278562
 20
264.4221779927
 10
119.6560806287
 20
263.6825012719
 10
120.2431107578
 20
262.91084454
 10
120.7429936889
 20
262.1110521519
 10
121.1532390304
 20
261.2871086332
 10
121.4718029606
 20
260.443118829
 10
121.6970984101
 20
259.5832874541
 10
121.8280029683
 20
258.711898145
 10
121.8638644752
 20
257.8332921196
 10
121.8045042706
 20
256.9518465488
 10
121.6502180841
 20
256.0719527501
 10
121.4017745617
 20
255.1979943102
 10
121.0604114365
 20
254.3343252461
 10
120.6278293624
 20
253.4852483136
 10
120.1061834416
 20
252.6549935713
 10
119.4980724878
 20
251.8476973064
 10
118.8065260793
 20
251.0673814285
  0
LWPOLYLINE
  5
132
330
1F
100
AcDbEntity
  8
0
  6
Continuous
 62
     7
 48
10.0
370
    15
100
AcDbPolyline
 90
       92
 70
   128
 43
0.0
 10
113.5900769725
 20
268.5968995174
 10
114.7220460823
 20
268.1231058096
 10
115.7969654275
 20
267.5975603028
 10
116.8097125277
 20
267.0227674607
 10
117.7554611819
 20
266.4014664328
 10
118.629704467
 20
265.7366180016
 10
119.4282762156
 20
265.0313904727
 10
120.1473708697
 20
264.2891445762
 10
120.7835616158
 20
263.513417452
 10
121.3338167152
 20
262.707905793
 10
121.7955139519
 20
261.8764482292
 10
122.1664531282
 20
261.0230070344
 10
122.4448665501
 20
260.1516492447
 10
122.6294274507
 20
259.2665272767
 10
122.7192563134
 20
258.3718591396
 10
122.7139250627
 20
257.4719083346
 10
122.6134591044
 20
256.5709635371
 10
122.4183372047
 20
255.6733181593
 10
122.1294892082
 20
254.7832498903
 10
121.7482916071
 20
253.9050003106
 10
121.2765609816
 20
253.0427546795
 10
120.716545343
 20
252.2006219901
 10
120.0709134208
 20
251.3826153882
 10
119.3427419451
 20
250.5926330477
 10
118.5355009847
 20
249.8344395942
 10
117.6530374103
 20
249.1116481648
 10
116.6995565628
 20
248.4277031899
 10
115.6796022125
 20
247.7858639786
 10
114.5980349065
 20
247.1891891873
 10
113.4600088054
 20
246.6405222428
 10
112.270947122
 20
246.1424777932
 10
111.0365162767
 20
245.697429247
 10
109.7625988945
 20
245.3074974632
 10
108.455265772
 20
244.9745406443
 10
107.1207469468
 20
244.7001454812
 10
105.7654020089
 20
244.4856195918
 10
104.395689794
 20
244.3319852897
 10
103.0181376048
 20
244.2399747123
 10
101.6393101047
 20
244.2100263319
 10
100.2657780346
 20
244.2422828661
 10
98.9040869004
 20
244.3365905979
 10
97.5607257804
 20
244.492500108
 10
96.2420964022
 20
244.7092684166
 10
94.9544826352
 20
244.9858625239
 10
93.7040205454
 20
245.3209643332
 10
92.4966691541
 20
245.7129769316
 10
91.3381820405
 20
246.1600322006
 10
90.2340799233
 20
246.6599997182
 10
89.1896243519
 20
247.2104969117
 10
88.2097926327
 20
247.808900411
 10
87.2992541101
 20
248.4523585512
 10
86.4623479148
 20
249.137804961
 10
85.7030622859
 20
249.8619731762
 10
85.0250155653
 20
250.6214122054
 10
84.4314389543
 20
251.4125029759
 10
83.9251611158
 20
252.2314755799
 10
83.5085946942
 20
253.0744272399
 10
83.1837248184
 20
253.9373409074
 10
82.9520996411
 20
254.8161044058
 10
82.8148229618
 20
255.7065300269
 10
82.7725489665
 20
256.604374487
 10
82.8254791098
 20
257.5053591485
 10
82.9733611558
 20
258.4051904091
 10
83.2154903789
 20
259.2995801631
 10
83.5507129232
 20
260.184266236
 10
83.9774313007
 20
261.0550326958
 10
84.4936120039
 20
261.9077299437
 10
85.0967951967
 20
262.7382944891
 10
85.7841064365
 20
263.5427683137
 10
86.5522703723
 20
264.3173177333
 10
87.397626353
 20
265.0582516672
 10
88.3161458725
 20
265.7620392278
 10
89.303451767
 20
266.4253265469
 10
90.3548390742
 20
267.0449527584
 10
91.4652974549
 20
267.6179650611
 10
92.6295350691
 20
268.1416327905
 10
93.8420037944
 20
268.6134604314
 10
95.0969256652
 20
269.0311995102
 10
96.3883204073
 20
269.3928593099
 10
97.7100339367
 20
269.696716357
 10
99.0557676864
 20
269.9413226342
 10
100.4191086224
 20
270.1255124812
 10
101.7935598041
 20
270.2484081495
 10
103.1725713458
 20
270.3094239853
 10
104.5495716296
 20
270.3082692203
 10
105.9179986219
 20
270.2449493575
 10
107.2713311449
 20
270.119766145
 10
108.603119953
 20
269.9333161376
 10
109.9070184658
 20
269.6864878547
 10
111.1768130133
 20
269.3804575454
 10
112.4064524462
 20
269.0166835834
 10
113.5900769725
 20
268.5968995174
  0
LWPOLYLINE
  5
133
330
1F
100
AcDbEntity
  8
0
  6
Continuous
 62
     7
 48
10.0
370
    15
100
AcDbPolyline
 90
       48
 70
   128
 43
0.0
 10
123.8815622767
 20
239.5542007819
 10
123.8882802615
 20
239.4307042633
 10
123.8829490108
 20
238.5307534583
 10
123.7824830526
 20
237.6298086608
 10
123.5873611528
 20
236.732163283
 10
123.2985131563
 20
235.842095014
 10
122.9173155552
 20
234.9638454343
 10
122.4455849297
 20
234.1015998032
 10
121.8855692911
 20
233.2594671138
 10
121.2399373689
 20
232.4414605119
 10
120.5117658932
 20
231.6514781714
 10
119.7045249328
 20
230.8932847179
 10
118.8220613584
 20
230.1704932885
 10
117.8685805109
 20
229.4865483136
 10
116.8486261606
 20
228.8447091024
 10
115.7670588546
 20
228.248034311
 10
114.6290327536
 20
227.6993673665
 10
113.4399710702
 20
227.2013229169
 10
112.2055402248
 20
226.7562743707
 10
110.9316228426
 20
226.3663425869
 10
109.6242897201
 20
226.033385768
 10
108.2897708949
 20
225.7589906049
 10
106.934425957
 20
225.5444647155
 10
105.5647137422
 20
225.3908304134
 10
104.1871615529
 20
225.298819836
 10
102.8083340528
 20
225.2688714556
 10
101.4348019827
 20
225.3011279898
 10
100.0731108485
 20
225.3954357216
 10
98.7297497286
 20
225.5513452317
 10
97.4111203503
 20
225.7681135403
 10
96.1235065833
 20
226.0447076476
 10
94.8730444935
 20
226.3798094569
 10
93.6656931022
 20
226.7718220553
 10
92.5072059886
 20
227.2188773243
 10
91.4031038714
 20
227.7188448419
 10
90.3586483
 20
228.2693420354
 10
89.3788165808
 20
228.8677455347
 10
88.4682780582
 20
229.5112036749
 10
87.6313718629
 20
230.1966500847
 10
86.872086234
 20
230.9208182999
 10
86.1940395134
 20
231.6802573291
 10
85.6004629024
 20
232.4713480996
 10
85.0941850639
 20
233.2903207036
 10
84.6776186424
 20
234.1332723636
 10
84.3527487665
 20
234.9961860311
 10
84.1211235892
 20
235.8749495295
 10
83.9838469099
 20
236.7653751506
 10
83.9575293379
 20
237.0901403318
  0
ARC
  5
134
330
1F
100
AcDbEntity
  8
0
  6
Continuous
 62
     7
 48
100.0
370
    15
100
AcDbCircle
 10
104.8121665123
 20
223.8594497147
 30
0.0
 40
26.99411737714533
100
AcDbArc
 50
66.1919726003
 51
120.8715127809
  0
LINE
  5
135
330
1F
100
AcDbEntity
  8
0
  6
Continuous
 62
     7
 48
10.0
370
    15
100
AcDbLine
 10
95.6988723419
 20
278.7984525482
 30
0.0
 11
100.6347064654
 21
276.8937350715
 31
0.0
  0
ARC
  5
136
330
1F
100
AcDbEntity
  8
0
  6
Continuous
 62
     7
 48
100.0
370
    15
100
AcDbCircle
 10
100.0118233046
 20
274.8985970089
 30
0.0
 40
2.090109882432026
100
AcDbArc
 50
22.8110591487
 51
72.6616085131
  0
LINE
  5
137
330
1F
100
AcDbEntity
  8
0
  6
Continuous
 62
     7
 48
10.0
370
    15
100
AcDbLine
 10
101.9384622167
 20
275.7089190579
 30
0.0
 11
103.7376772792
 21
270.3164761924
 31
0.0
  0
LWPOLYLINE
  5
138
330
1F
100
AcDbEntity
  8
0
  6
Continuous
 62
     7
 48
10.0
370
    15
100
AcDbPolyline
 90
        3
 70
   128
 43
0.0
 10
123.6434638656
 20
259.4021565517
 10
123.0936851735
 20
259.2684030851
 10
122.6533839055
 20
259.1002825576
  0
LINE
  5
139
330
1F
100
AcDbEntity
  8
0
  6
Continuous
 62
     7
 48
10.0
370
    15
100
AcDbLine
 10
123.6434638656
 20
259.4021565517
 30
0.0
 11
137.7614681763
 21
261.8849728282
 31
0.0
  0
ARC
  5
13A
330
1F
100
AcDbEntity
  8
0
  6
Continuous
 62
     7
 48
100.0
370
    15
100
AcDbCircle
 10
138.5426362419
 20
257.6480063454
 30
0.0
 40
4.30837655309047
100
AcDbArc
 50
69.9789716361
 51
100.446293492
  0
LINE
  5
13B
330
1F
100
AcDbEntity
  8
0
  6
Continuous
 62
     7
 48
10.0
370
    15
100
AcDbLine
 10
140.017673584
 20
261.6960149129
 30
0.0
 11
144.9535077074
 21
259.7912974362
 31
0.0
  0
LINE
  5
13C
330
1F
100
AcDbEntity
  8
0
  6
Continuous
 62
     7
 48
10.0
370
    15
100
AcDbLine
 10
144.4115299517
 20
259.2246187319
 30
0.0
 11
144.9535077074
 21
259.7912974362
 31
0.0
  0
LINE
  5
13D
330
1F
100
AcDbEntity
  8
0
  6
Continuous
 62
     7
 48
10.0
370
    15
100
AcDbLine
 10
139.510452111
 20
261.1159239064
 30
0.0
 11
144.4115299517
 21
259.2246187319
 31
0.0
  0
ARC
  5
13E
330
1F
100
AcDbEntity
  8
0
  6
Continuous
 62
     7
 48
100.0
370
    15
100
AcDbCircle
 10
138.4779259716
 20
258.2823179092
 30
0.0
 40
3.01586358716299
100
AcDbArc
 50
69.9789716361
 51
100.446293492
  0
LINE
  5
13F
330
1F
100
AcDbEntity
  8
0
  6
Continuous
 62
     7
 48
10.0
370
    15
100
AcDbLine
 10
123.9684861652
 20
258.7927039402
 30
0.0
 11
137.9311083257
 21
261.2481944471
 31
0.0
  0
ARC
  5
140
330
1F
100
AcDbEntity
  8
0
  6
Continuous
 62
     7
 48
100.0
370
    15
100
AcDbCircle
 10
99.6219542144
 20
274.9438720258
 30
0.0
 40
1.463076917701957
100
AcDbArc
 50
22.8110591487
 51
72.6616085131
  0
LINE
  5
141
330
1F
100
AcDbEntity
  8
0
  6
Continuous
 62
     7
 48
10.0
370
    15
100
AcDbLine
 10
95.1568945863
 20
278.231773844
 30
0.0
 11
100.0579724269
 21
276.3404686695
 31
0.0
  0
LINE
  5
142
330
1F
100
AcDbEntity
  8
0
  6
Continuous
 62
     7
 48
10.0
370
    15
100
AcDbLine
 10
95.6988723419
 20
278.7984525482
 30
0.0
 11
95.1568945863
 21
278.231773844
 31
0.0
  0
ARC
  5
143
330
1F
100
AcDbEntity
  8
0
  6
Continuous
 62
     7
 48
100.0
370
    15
100
AcDbCircle
 10
115.2640099735
 20
251.6721724387
 30
0.0
 40
9.128625610522326
100
AcDbArc
 50
349.6729401629
 51
17.3922924002
  0
ARC
  5
144
330
1F
100
AcDbEntity
  8
0
  6
Continuous
 62
     7
 48
100.0
370
    15
100
AcDbCircle
 10
91.0261261485
 20
250.176223074
 30
0.0
 40
9.135116636619905
100
AcDbArc
 50
169.1728918198
 51
197.9345727226
  0
ARC
  5
145
330
1F
100
AcDbEntity
  8
0
  6
Continuous
 62
     7
 48
100.0
370
    15
100
AcDbCircle
 10
91.5331294026
 20
242.4969246813
 30
0.0
 40
9.169282951456399
100
AcDbArc
 50
183.5865929816
 51
198.0842314986
  0
ARC
  5
146
330
1F
100
AcDbEntity
  8
0
  6
Continuous
 62
     7
 48
100.0
370
    15
100
AcDbCircle
 10
115.7072312708
 20
243.987863481
 30
0.0
 40
9.160689441982193
100
AcDbArc
 50
349.0223143662
 51
3.4834329982
  0
LINE
  5
147
330
1F
100
AcDbEntity
  8
0
  6
Continuous
 62
     7
 48
10.0
370
    15
100
AcDbLine
 10
138.0595341614
 20
260.5545390116
 30
0.0
 11
124.096912001
 21
258.0990485046
 31
0.0
  0
ARC
  5
148
330
1F
100
AcDbEntity
  8
0
  6
Continuous
 62
     7
 48
100.0
370
    15
100
AcDbCircle
 10
120.9260644079
 20
257.8707028235
 30
0.0
 40
3.1790590130904
100
AcDbArc
 50
4.1189924267
 51
16.8593496603
  0
ARC
  5
149
330
1F
100
AcDbEntity
  8
0
  6
Continuous
 62
     7
 48
100.0
370
    15
100
AcDbCircle
 10
134.8886865684
 20
260.3261933305
 30
0.0
 40
3.179059013088935
100
AcDbArc
 50
4.1189924267
 51
16.8593496603
  0
LINE
  5
14A
330
1F
100
AcDbEntity
  8
0
  6
Continuous
 62
     7
 48
10.0
370
    15
100
AcDbLine
 10
138.5341578844
 20
252.8644301318
 30
0.0
 11
138.0595341614
 21
260.5545390116
 31
0.0
  0
LINE
  5
14B
330
1F
100
AcDbEntity
  8
0
  6
Continuous
 62
     7
 48
10.0
370
    15
100
AcDbLine
 10
124.5715357239
 20
250.4089396249
 30
0.0
 11
138.5341578844
 21
252.8644301318
 31
0.0
  0
LINE
  5
14C
330
1F
100
AcDbEntity
  8
0
  6
Continuous
 62
     7
 48
10.0
370
    15
100
AcDbLine
 10
124.096912001
 20
258.0990485046
 30
0.0
 11
124.5715357239
 21
250.4089396249
 31
0.0
  0
LWPOLYLINE
  5
14D
330
1F
100
AcDbEntity
  8
0
  6
Continuous
 62
     7
 48
10.0
370
    15
100
AcDbPolyline
 90
       23
 70
   128
 43
0.0
 10
144.6385452758
 20
250.8723474025
 10
145.2421613376
 20
250.6776195033
 10
145.8286585319
 20
250.5651299228
 10
146.3860974671
 20
250.5371686244
 10
146.9031302942
 20
250.5943048195
 10
147.3692317156
 20
250.73537538
 10
147.7749132506
 20
250.957508516
 10
148.111916393
 20
251.2561822375
 10
148.3733807308
 20
251.6253164088
 10
148.5539836038
 20
252.0573965228
 10
148.6500484586
 20
252.5436266742
 10
148.6596196916
 20
253.0741086194
 10
148.5825024602
 20
253.6380432757
 10
148.4202666488
 20
254.2239505598
 10
148.1762149107
 20
254.8199030891
 10
147.8553154355
 20
255.4137689886
 10
147.4641008111
 20
255.9934588611
 10
147.010535039
 20
256.5471718926
 10
146.5038514105
 20
257.0636360825
 10
145.954364543
 20
257.5323377092
 10
145.3732604046
 20
257.9437353593
 10
144.7723685998
 20
258.2894541629
 10
144.1639215528
 20
258.5624562823
  0
ARC
  5
14E
330
1F
100
AcDbEntity
  8
0
  6
Continuous
 62
     7
 48
100.0
370
    15
100
AcDbCircle
 10
145.1495661064
 20
258.5712617419
 30
0.0
 40
0.9856838854950796
100
AcDbArc
 50
138.4826835102
 51
180.5118500853
  0
LINE
  5
14F
330
1F
100
AcDbEntity
  8
0
  6
Continuous
 62
     7
 48
10.0
370
    15
100
AcDbLine
 10
148.7517245372
 20
251.202132465
 30
0.0
 11
148.7011734664
 21
251.1474079056
 31
0.0
  0
LWPOLYLINE
  5
150
330
1F
100
AcDbEntity
  8
0
  6
Continuous
 62
     7
 48
10.0
370
    15
100
AcDbPolyline
 90
       18
 70
   128
 43
0.0
 10
144.9535077074
 20
259.7912974362
 10
145.5663305818
 20
259.5195364749
 10
146.1731284052
 20
259.1801537033
 10
146.7635186985
 20
258.7789560547
 10
147.3273997201
 20
258.322808132
 10
147.8551233095
 20
257.8195147527
 10
148.3376599696
 20
257.2776874061
 10
148.7667533645
 20
256.7065969083
 10
149.1350615872
 20
256.1160147759
 10
149.4362827819
 20
255.5160460331
 10
149.6652629704
 20
254.9169563115
 10
149.8180842383
 20
254.3289962021
 10
149.8921317712
 20
253.7622258655
 10
149.8861385953
 20
253.2263428994
 10
149.8002072556
 20
252.7305164097
 10
149.6358080611
 20
252.2832301253
 10
149.3957539276
 20
251.8921372385
 10
149.243151222
 20
251.7140866098
  0
LINE
  5
151
330
1F
100
AcDbEntity
  8
0
  6
Continuous
 62
     7
 48
10.0
370
    15
100
AcDbLine
 10
144.1639215528
 20
258.5624562823
 30
0.0
 11
139.2628437122
 21
260.4537614568
 31
0.0
  0
LINE
  5
152
330
1F
100
AcDbEntity
  8
0
  6
Continuous
 62
     7
 48
10.0
370
    15
100
AcDbLine
 10
139.7374674351
 20
252.763652577
 30
0.0
 11
144.6385452758
 21
250.8723474025
 31
0.0
  0
LINE
  5
153
330
1F
100
AcDbEntity
  8
0
  6
Continuous
 62
     7
 48
10.0
370
    15
100
AcDbLine
 10
139.2628437122
 20
260.4537614568
 30
0.0
 11
139.7374674351
 21
252.763652577
 31
0.0
  0
LWPOLYLINE
  5
154
330
1F
100
AcDbEntity
  8
0
  6
Continuous
 62
     7
 48
10.0
370
    15
100
AcDbPolyline
 90
       22
 70
   128
 43
0.0
 10
142.8069607193
 20
255.332624921
 10
142.8644048937
 20
255.0652059704
 10
143.0006214227
 20
254.7891807729
 10
143.2035068698
 20
254.5290753784
 10
143.4550339728
 20
254.3080012928
 10
143.7328534448
 20
254.1456019188
 10
144.0122798065
 20
254.0563071533
 10
144.2684847994
 20
254.0480512282
 10
144.4787034855
 20
254.1215677187
 10
144.6242570121
 20
254.2703243619
 10
144.6922123096
 20
254.4811034773
 10
144.6765312515
 20
254.7351764156
 10
144.5786071688
 20
255.009967681
 10
144.4071410458
 20
255.2810608639
 10
144.1773684001
 20
255.5243681452
 10
143.9097055396
 20
255.7182706053
 10
143.627935484
 20
255.8455391597
 10
143.3570947394
 20
255.8948654387
 10
143.1212486944
 20
255.8618665861
 10
142.9413533052
 20
255.7494746947
 10
142.8333930665
 20
255.5676762773
 10
142.8069607193
 20
255.332624921
  0
ARC
  5
155
330
1F
100
AcDbEntity
  8
0
  6
Continuous
 62
     7
 48
100.0
370
    15
100
AcDbCircle
 10
140.2484882658
 20
260.4625669164
 30
0.0
 40
0.9856838854940511
100
AcDbArc
 50
138.4826835101
 51
180.5118500853
  0
ARC
  5
156
330
1F
100
AcDbEntity
  8
0
  6
Continuous
 62
     7
 48
100.0
370
    15
100
AcDbCircle
 10
138.4761571297
 20
258.2948235541
 30
0.0
 40
2.297800828315238
100
AcDbArc
 50
69.9789716361
 51
100.446293492
  0
ARC
  5
157
330
1F
100
AcDbEntity
  8
0
  6
Continuous
 62
     7
 48
100.0
370
    15
100
AcDbCircle
 10
138.9507808527
 20
250.6047146743
 30
0.0
 40
2.297800828314635
100
AcDbArc
 50
69.9789716361
 51
100.446293492
  0
ARC
  5
158
330
1F
100
AcDbEntity
  8
0
  6
Continuous
 62
     7
 48
100.0
370
    15
100
AcDbCircle
 10
145.2439478786
 20
256.5294027907
 30
0.0
 40
1.684855872578204
100
AcDbArc
 50
205.1851953584
 51
247.3674907869
  0
ARC
  5
159
330
1F
100
AcDbEntity
  8
0
  6
Continuous
 62
     7
 48
100.0
370
    15
100
AcDbCircle
 10
101.0155881213
 20
275.0011895933
 30
0.0
 40
0.5118884965218697
100
AcDbArc
 50
95.0418710467
 51
174.932499772
  0
ARC
  5
15A
330
1F
100
AcDbEntity
  8
0
  6
Continuous
 62
     7
 48
100.0
370
    15
100
AcDbCircle
 10
99.4781596757
 20
274.6142325865
 30
0.0
 40
1.114725270630509
100
AcDbArc
 50
22.8110591487
 51
72.6616085131
  0
ARC
  5
15B
330
1F
100
AcDbEntity
  8
0
  6
Continuous
 62
     7
 48
100.0
370
    15
100
AcDbCircle
 10
100.7960085817
 20
275.6871116795
 30
0.0
 40
0.9856838854941359
100
AcDbArc
 50
138.4826835102
 51
180.5118500853
  0
LINE
  5
15C
330
1F
100
AcDbEntity
  8
0
  6
Continuous
 62
     7
 48
10.0
370
    15
100
AcDbLine
 10
99.8103640281
 20
275.6783062199
 30
0.0
 11
94.9092861874
 21
277.5696113944
 31
0.0
  0
ARC
  5
15D
330
1F
100
AcDbEntity
  8
0
  6
Continuous
 62
     7
 48
100.0
370
    15
100
AcDbCircle
 10
95.894930741
 20
277.578416854
 30
0.0
 40
0.9856838854943769
100
AcDbArc
 50
138.4826835102
 51
180.5118500853
  0
LWPOLYLINE
  5
15E
330
1F
100
AcDbEntity
  8
0
  6
Continuous
 62
     7
 48
10.0
370
    15
100
AcDbPolyline
 90
       23
 70
   128
 43
0.0
 10
94.9092861874
 20
277.5696113944
 10
94.3056701256
 20
277.7643392936
 10
93.7191729313
 20
277.8768288741
 10
93.1617339961
 20
277.9047901725
 10
92.644701169
 20
277.8476539774
 10
92.1785997476
 20
277.706583417
 10
91.7729182126
 20
277.4844502809
 10
91.4359150701
 20
277.1857765594
 10
91.1744507324
 20
276.8166423881
 10
90.9938478593
 20
276.3845622742
 10
90.8977830046
 20
275.8983321228
 10
90.8882117716
 20
275.3678501776
 10
90.965329003
 20
274.8039155212
 10
91.1275648143
 20
274.2180082371
 10
91.3716165525
 20
273.6220557078
 10
91.6925160277
 20
273.0281898083
 10
92.0837306521
 20
272.4484999358
 10
92.5372964242
 20
271.8947869043
 10
93.0439800527
 20
271.3783227145
 10
93.5934669202
 20
270.9096210877
 10
94.1745710586
 20
270.4982234376
 10
94.7754628634
 20
270.152504634
 10
95.3839099104
 20
269.8795025146
  0
LWPOLYLINE
  5
15F
330
1F
100
AcDbEntity
  8
0
  6
Continuous
 62
     7
 48
10.0
370
    15
100
AcDbPolyline
 90
       22
 70
   128
 43
0.0
 10
94.8529162367
 20
273.8378875216
 10
94.910360411
 20
273.5704685711
 10
95.04657694
 20
273.2944433735
 10
95.2494623871
 20
273.034337979
 10
95.5009894902
 20
272.8132638934
 10
95.7788089621
 20
272.6508645194
 10
96.0582353238
 20
272.5615697539
 10
96.3144403167
 20
272.5533138289
 10
96.5246590028
 20
272.6268303193
 10
96.6702125294
 20
272.7755869625
 10
96.7381678269
 20
272.986366078
 10
96.7224867688
 20
273.2404390162
 10
96.6245626861
 20
273.5152302816
 10
96.4530965631
 20
273.7863234645
 10
96.2233239174
 20
274.0296307458
 10
95.9556610569
 20
274.2235332059
 10
95.6738910013
 20
274.3508017603
 10
95.4030502567
 20
274.4001280393
 10
95.1672042118
 20
274.3671291867
 10
94.9873088225
 20
274.2547372953
 10
94.8793485838
 20
274.0729388779
 10
94.8529162367
 20
273.8378875216
  0
LINE
  5
160
330
1F
100
AcDbEntity
  8
0
  6
Continuous
 62
     7
 48
10.0
370
    15
100
AcDbLine
 10
91.3380846817
 20
277.8065050362
 30
0.0
 11
91.3886357525
 21
277.8612295956
 31
0.0
  0
LWPOLYLINE
  5
161
330
1F
100
AcDbEntity
  8
0
  6
Continuous
 62
     7
 48
10.0
370
    15
100
AcDbPolyline
 90
        9
 70
   128
 43
0.0
 10
91.9306135081
 20
278.4279082998
 10
92.0896124823
 20
278.5780654526
 10
92.4674301171
 20
278.8377724027
 10
92.9049991426
 20
279.0245348634
 10
93.3948326313
 20
279.1351572773
 10
93.9285493965
 20
279.1677468642
 10
94.4970173963
 20
279.1217460072
 10
95.0905099857
 20
278.9979417937
 10
95.6988723419
 20
278.7984525482
  0
ARC
  5
162
330
1F
100
AcDbEntity
  8
0
  6
Continuous
 62
     7
 48
100.0
370
    15
100
AcDbCircle
 10
97.2899033959
 20
275.0346653913
 30
0.0
 40
1.684855872577137
100
AcDbArc
 50
205.1851953583
 51
247.367490787
  0
ARC
  5
163
330
1F
100
AcDbEntity
  8
0
  6
Continuous
 62
     8
 48
100.0
370
    15
100
AcDbCircle
 10
124.3173921751
 20
256.3787212916
 30
0.0
 40
2.439066959182917
100
AcDbArc
 50
98.2243154902
 51
130.6362607718
  0
LWPOLYLINE
  5
164
330
1F
100
AcDbEntity
  8
0
  6
Continuous
 62
     8
 48
10.0
370
    15
100
AcDbPolyline
 90
       57
 70
   128
 43
0.0
 10
82.9309494921
 20
253.7233392365
 10
82.8966117602
 20
253.6265366831
 10
82.6265785221
 20
252.7135641469
 10
82.4512468817
 20
251.7940719771
 10
82.3714271226
 20
250.8723095467
 10
82.3874881266
 20
249.9525367206
 10
82.499355669
 20
249.0390041689
 10
82.706512761
 20
248.1359337225
 10
83.0080020398
 20
247.2474988626
 10
83.4024301923
 20
246.3778054328
 10
83.8879743946
 20
245.5308726647
 10
84.4623907359
 20
244.7106146025
 10
85.1230245885
 20
243.9208220154
 10
85.8668228763
 20
243.1651448784
 10
86.690348184
 20
242.4470755038
 10
87.5897946432
 20
241.7699324024
 10
88.5610055208
 20
241.136844947
 10
89.5994924292
 20
240.5507389097
 10
90.700456069
 20
240.0143229413
 10
91.8588084085
 20
239.5300760534
 10
93.0691961981
 20
239.1002361611
 10
94.3260257096
 20
238.7267897415
 10
95.6234885876
 20
238.4114626529
 10
96.9555886921
 20
238.1557121587
 10
98.3161698094
 20
237.9607201933
 10
99.6989441027
 20
237.8273878991
 10
101.097521171
 20
237.7563314628
 10
102.5054375817
 20
237.7478792671
 10
103.916186741
 20
237.802070373
 10
105.3232489637
 20
237.9186543401
 10
106.7201216038
 20
238.0970923832
 10
108.1003491055
 20
238.3365598623
 10
109.4575528376
 20
238.6359500944
 10
110.7854605716
 20
238.9938794668
 10
112.0779354686
 20
239.4086938325
 10
113.3290044404
 20
239.8784761539
 10
114.5328857534
 20
240.4010553627
 10
115.6840157487
 20
240.9740163932
 10
116.7770745542
 20
241.5947113434
 10
117.8070106699
 20
242.2602717122
 10
118.7690643135
 20
242.9676216557
 10
119.6587894168
 20
243.7134922024
 10
120.4720741734
 20
244.4944363603
 10
121.2051600408
 20
245.3068450469
 10
121.8546591107
 20
246.1469637685
 10
122.4175697653
 20
247.0109099714
 10
122.89129055
 20
247.8946909845
 10
123.2736321951
 20
248.7942224717
 10
123.5628277336
 20
249.7053473069
 10
123.7575406672
 20
250.6238547861
 10
123.8568711428
 20
251.5455000871
 10
123.8603601111
 20
252.4660238863
 10
123.7679914481
 20
253.381172043
 10
123.5801920295
 20
254.2867152598
 10
123.297829758
 20
255.1784686279
 10
122.9222095525
 20
256.0523109672
 10
122.8549824309
 20
256.1873996866
  0
LINE
  5
165
330
1F
100
AcDbEntity
  8
0
  6
Continuous
 62
     8
 48
10.0
370
    15
100
AcDbLine
 10
100.9706014529
 20
275.5110974601
 30
0.0
 11
102.7106754346
 21
270.2959068341
 31
0.0
  0
LWPOLYLINE
  5
166
330
1F
100
AcDbEntity
  8
0
  6
Continuous
 62
     8
 48
10.0
370
    15
100
AcDbPolyline
 90
       44
 70
   128
 43
0.0
 10
124.2447562575
 20
250.0357123202
 10
124.1041513818
 20
249.3881251506
 10
123.8227028298
 20
248.4664479299
 10
123.4482094691
 20
247.5558274068
 10
122.9823561691
 20
246.6603605212
 10
122.4272388336
 20
245.7840760359
 10
121.7853549711
 20
244.9309164109
 10
121.059592458
 20
244.1047200658
 10
120.2532165463
 20
243.3092041109
 10
119.3698551729
 20
242.5479476232
 10
118.413482637
 20
241.8243755445
 10
117.3884017198
 20
241.1417432717
 10
116.2992243259
 20
240.5031220111
 10
115.150850734
 20
239.9113849606
 10
113.9484475505
 20
239.3691943831
 10
112.697424464
 20
238.8789896285
 10
111.4034099074
 20
238.4429761595
 10
110.0722257351
 20
238.0631156285
 10
108.7098610296
 20
237.7411170524
 10
107.322445157
 20
237.4784291233
 10
105.9162201899
 20
237.2762336909
 10
104.4975128245
 20
237.1354404456
 10
103.0727059158
 20
237.0566828251
 10
101.6482097612
 20
237.0403151649
 10
100.2304332601
 20
237.0864111043
 10
98.8257550795
 20
237.1947632546
 10
97.4404949565
 20
237.3648841327
 10
96.0808852649
 20
237.5960083537
 10
94.7530429757
 20
237.887096075
 10
93.4629421362
 20
238.2368376744
 10
92.2163869925
 20
238.643659642
 10
91.0189858761
 20
239.1057316599
 10
89.876125971
 20
239.6209748364
 10
88.7929490772
 20
240.1870710595
 10
87.7743284766
 20
240.8014734262
 10
86.8248470085
 20
241.4614177008
 10
85.9487764508
 20
242.163934752
 10
85.1500583009
 20
242.9058639106
 10
84.4322860428
 20
243.6838671898
 10
83.7986889798
 20
244.4944443031
 10
83.2521177057
 20
245.3339484123
 10
82.7950312795
 20
246.1986025347
 10
82.4294861623
 20
247.0845165362
 10
82.3348960722
 20
247.3632396533
  0
ARC
  5
167
330
1F
100
AcDbEntity
  8
0
  6
Continuous
 62
     8
 48
100.0
370
    15
100
AcDbCircle
 10
122.6757058634
 20
256.6444650761
 30
0.0
 40
0.269588561312744
100
AcDbArc
 50
31.6431105263
 51
59.5245232152
  0
LWPOLYLINE
  5
168
330
1F
100
AcDbEntity
  8
0
  6
Continuous
 62
     8
 48
10.0
370
    15
100
AcDbPolyline
 90
       44
 70
   128
 43
0.0
 10
82.8167980479
 20
239.6506433252
 10
82.9041098852
 20
239.3944076564
 10
83.2696550024
 20
238.508493655
 10
83.7267414286
 20
237.6438395325
 10
84.2733127028
 20
236.8043354233
 10
84.9069097657
 20
235.99375831
 10
85.6246820238
 20
235.2157550308
 10
86.4234001737
 20
234.4738258722
 10
87.2994707315
 20
233.7713088211
 10
88.2489521995
 20
233.1113645464
 10
89.2675728001
 20
232.4969621797
 10
90.350749694
 20
231.9308659566
 10
91.493609599
 20
231.4156227801
 10
92.6910107155
 20
230.9535507623
 10
93.9375658591
 20
230.5467287946
 10
95.2276666986
 20
230.1969871952
 10
96.5555089879
 20
229.9058994739
 10
97.9151186795
 20
229.6747752529
 10
99.3003788025
 20
229.5046543749
 10
100.705056983
 20
229.3963022245
 10
102.1228334841
 20
229.3502062852
 10
103.5473296387
 20
229.3665739453
 10
104.9721365474
 20
229.4453315658
 10
106.3908439129
 20
229.5861248112
 10
107.79706888
 20
229.7883202435
 10
109.1844847526
 20
230.0510081726
 10
110.546849458
 20
230.3730067488
 10
111.8780336304
 20
230.7528672798
 10
113.1720481869
 20
231.1888807488
 10
114.4230712734
 20
231.6790855033
 10
115.625474457
 20
232.2212760809
 10
116.7738480488
 20
232.8130131313
 10
117.8630254427
 20
233.4516343919
 10
118.8881063599
 20
234.1342666647
 10
119.8444788958
 20
234.8578387434
 10
120.7278402693
 20
235.6190952311
 10
121.5342161809
 20
236.414611186
 10
122.259978694
 20
237.2408075311
 10
122.9018625565
 20
238.0939671561
 10
123.456979892
 20
238.9702516414
 10
123.922833192
 20
239.865718527
 10
124.2973265528
 20
240.7763390502
 10
124.5787751047
 20
241.6980162709
 10
124.7002931162
 20
242.2434238295
  0
LWPOLYLINE
  5
169
330
1F
100
AcDbEntity
  8
0
  6
Continuous
 62
     8
 48
10.0
370
    15
100
AcDbPolyline
 90
       18
 70
   128
 43
0.0
 10
144.4115299517
 20
259.2246187319
 10
145.0243528261
 20
258.9528577707
 10
145.6311506495
 20
258.6134749991
 10
146.2215409428
 20
258.2122773505
 10
146.7854219644
 20
257.7561294278
 10
147.3131455538
 20
257.2528360485
 10
147.7956822139
 20
256.7110087019
 10
148.2247756088
 20
256.139918204
 10
148.5930838315
 20
255.5493360717
 10
148.8943050262
 20
254.9493673289
 10
149.1232852147
 20
254.3502776072
 10
149.2761064826
 20
253.7623174979
 10
149.3501540155
 20
253.1955471613
 10
149.3441608397
 20
252.6596641952
 10
149.2582295
 20
252.1638377055
 10
149.0938303055
 20
251.7165514211
 10
148.853776172
 20
251.3254585343
 10
148.7517245372
 20
251.202132465
  0
ARC
  5
16A
330
1F
100
AcDbEntity
  8
0
  6
Continuous
 62
     8
 48
100.0
370
    15
100
AcDbCircle
 10
144.8308810949
 20
250.8537493359
 30
0.0
 40
0.1932329045711228
100
AcDbArc
 50
174.4769095967
 51
238.3907793962
  0
LWPOLYLINE
  5
16B
330
1F
100
AcDbEntity
  8
0
  6
Continuous
 62
     8
 48
10.0
370
    15
100
AcDbPolyline
 90
        8
 70
   128
 43
0.0
 10
124.096912001
 20
258.0990485046
 10
123.7694071543
 20
258.0166000943
 10
123.4728303513
 20
257.8910432577
 10
123.2210029445
 20
257.7282293131
 10
123.0256608325
 20
257.5357458699
 10
122.895907533
 20
257.3225632232
 10
122.8377899319
 20
257.0986163123
 10
122.8368016974
 20
256.9828341899
  0
LINE
  5
16C
330
1F
100
AcDbEntity
  8
0
  6
Continuous
 62
     8
 48
10.0
370
    15
100
AcDbLine
 10
124.4900230751
 20
250.3931357772
 30
0.0
 11
124.5715357239
 21
250.4089396249
 31
0.0
  0
LWPOLYLINE
  5
16D
330
1F
100
AcDbEntity
  8
0
  6
Continuous
 62
     8
 48
10.0
370
    15
100
AcDbPolyline
 90
        6
 70
   128
 43
0.0
 10
138.5341578844
 20
252.8644301318
 10
138.5367007725
 20
252.7965748269
 10
138.5351091047
 20
252.7434259934
 10
138.5294440478
 20
252.7070261113
 10
138.5199233069
 20
252.6887740076
 10
138.5157143936
 20
252.6868194611
  0
LWPOLYLINE
  5
16E
330
1F
100
AcDbEntity
  8
0
  6
Continuous
 62
     8
 48
10.0
370
    15
100
AcDbPolyline
 90
        6
 70
   128
 43
0.0
 10
124.5715357239
 20
250.4089396249
 10
124.574078612
 20
250.3410843199
 10
124.5724869442
 20
250.2879354864
 10
124.5668218873
 20
250.2515356043
 10
124.5573011465
 20
250.2332835006
 10
124.5530922331
 20
250.2313289542
  0
ARC
  5
16F
330
1F
100
AcDbEntity
  8
0
  6
Continuous
 62
     8
 48
100.0
370
    15
100
AcDbCircle
 10
139.9298641286
 20
252.7450684311
 30
0.0
 40
0.1932921574389381
100
AcDbArc
 50
174.4827535442
 51
238.3529450852
  0
LINE
  5
170
330
1F
100
AcDbEntity
  8
0
  6
Continuous
 62
     8
 48
10.0
370
    15
100
AcDbLine
 10
102.1002543879
 20
270.2673530255
 30
0.0
 11
100.5057004288
 21
275.046404346
 31
0.0
  0
LINE
  5
171
330
1F
100
AcDbEntity
  8
0
  6
Continuous
 62
     8
 48
10.0
370
    15
100
AcDbLine
 10
100.5057004288
 20
275.046404346
 30
0.0
 11
100.8068815121
 21
270.166506416
 31
0.0
  0
LINE
  5
172
330
1F
100
AcDbEntity
  8
0
  6
Continuous
 62
     8
 48
10.0
370
    15
100
AcDbLine
 10
100.1549757812
 20
270.0947212135
 30
0.0
 11
99.8103640281
 21
275.6783062199
 31
0.0
  0
LINE
  5
173
330
1F
100
AcDbEntity
  8
0
  6
Continuous
 62
     8
 48
10.0
370
    15
100
AcDbLine
 10
95.3839099104
 20
269.8795025146
 30
0.0
 11
96.5436589686
 21
269.4319602665
 31
0.0
  0
LWPOLYLINE
  5
174
330
1F
100
AcDbEntity
  8
0
  6
Continuous
 62
     8
 48
10.0
370
    15
100
AcDbPolyline
 90
        9
 70
   128
 43
0.0
 10
91.3886357525
 20
277.8612295956
 10
91.5476347266
 20
278.0113867484
 10
91.9254523615
 20
278.2710936985
 10
92.3630213869
 20
278.4578561592
 10
92.8528548756
 20
278.5684785731
 10
93.3865716408
 20
278.60106816
 10
93.9550396407
 20
278.555067303
 10
94.5485322301
 20
278.4312630895
 10
95.1568945863
 20
278.231773844
  0
ARC
  5
175
330
1F
100
AcDbEntity
  8
0
  6
Continuous
 62
     8
 48
100.0
370
    15
100
AcDbCircle
 10
95.5762910266
 20
269.8609148064
 30
0.0
 40
0.1932769949264999
100
AcDbArc
 50
174.4812584509
 51
238.362623338
  0
ENDSEC
  0
SECTION
  2
OBJECTS
  0
DICTIONARY
  5
C
330
0
100
AcDbDictionary
281
     1
  3
ACAD_GROUP
350
D
  3
ACAD_IMAGE_DICT
350
73
  3
ACAD_IMAGE_VARS
350
19A
  3
ACAD_LAYOUT
350
1A
  3
ACAD_MATERIAL
350
3B
  3
ACAD_MLEADERSTYLE
350
199
  3
ACAD_MLINESTYLE
350
17
  3
ACAD_PLOTSETTINGS
350
19
  3
ACAD_PLOTSTYLENAME
350
E
  3
ACAD_SCALELIST
350
4A
  3
ACAD_TABLESTYLE
350
198
  3
ACAD_VISUALSTYLE
350
2A
  3
AcDbVariableDictionary
350
176
  0
IMAGEDEF_REACTOR
  5
76
330
75
100
AcDbRasterImageDefReactor
 90
        2
330
75
  0
DICTIONARY
  5
D
102
{ACAD_REACTORS
330
C
102
}
330
C
100
AcDbDictionary
281
     1
  0
DICTIONARY
  5
73
102
{ACAD_REACTORS
330
C
102
}
330
C
100
AcDbDictionary
281
     1
  3
S:\MWDesign CLIENT L -Z\Marley NZ\RAINWATER PRODUCTS\12-501 illustration of rainwater products\12-501 Illustration\dxf6DA.bmp
350
74
  0
RASTERVARIABLES
  5
19A
102
{ACAD_REACTORS
330
C
102
}
330
C
100
AcDbRasterVariables
 90
        0
 70
     1
 71
     1
 72
     1
  0
DICTIONARY
  5
1A
102
{ACAD_REACTORS
330
C
102
}
330
C
100
AcDbDictionary
281
     1
  3
Layout1
350
1E
  3
Layout2
350
26
  3
Model
350
22
  0
DICTIONARY
  5
3B
102
{ACAD_REACTORS
330
C
102
}
330
C
100
AcDbDictionary
281
     1
  3
ByBlock
350
3D
  3
ByLayer
350
3C
  3
Global
350
3E
  0
DICTIONARY
  5
199
102
{ACAD_REACTORS
330
C
102
}
330
C
100
AcDbDictionary
281
     1
  0
DICTIONARY
  5
17
102
{ACAD_REACTORS
330
C
102
}
330
C
100
AcDbDictionary
281
     1
  3
Standard
350
18
  0
DICTIONARY
  5
19
102
{ACAD_REACTORS
330
C
102
}
330
C
100
AcDbDictionary
281
     1
  0
ACDBDICTIONARYWDFLT
  5
E
102
{ACAD_REACTORS
330
C
102
}
330
C
100
AcDbDictionary
281
     1
  3
Normal
350
F
100
AcDbDictionaryWithDefault
340
F
  0
DICTIONARY
  5
4A
102
{ACAD_REACTORS
330
C
102
}
330
C
100
AcDbDictionary
281
     1
  3
A0
350
4B
  3
A1
350
4C
  3
A2
350
4D
  3
A3
350
4E
  3
A4
350
4F
  3
A5
350
50
  3
A6
350
51
  3
A7
350
52
  3
A8
350
53
  3
A9
350
54
  3
B0
350
55
  3
B1
350
56
  3
B2
350
57
  3
B3
350
58
  3
B4
350
59
  3
B5
350
5A
  3
B6
350
5B
  3
B7
350
5C
  3
B8
350
5D
  3
B9
350
5E
  3
C0
350
5F
  3
C1
350
60
  3
C2
350
61
  3
C3
350
62
  3
C4
350
63
  3
C5
350
64
  3
C6
350
65
  3
C7
350
66
  3
C8
350
67
  3
C9
350
68
  3
D0
350
69
  3
D1
350
6A
  3
D2
350
6B
  0
DICTIONARY
  5
198
102
{ACAD_REACTORS
330
C
102
}
330
C
100
AcDbDictionary
281
     1
  0
DICTIONARY
  5
2A
102
{ACAD_REACTORS
330
C
102
}
330
C
100
AcDbDictionary
281
     1
  3
2dWireframe
350
2F
  3
3D Hidden
350
31
  3
3dWireframe
350
30
  3
Basic
350
32
  3
Brighten
350
36
  3
ColorChange
350
3A
  3
Conceptual
350
34
  3
Dim
350
35
  3
Facepattern
350
39
  3
Flat
350
2B
  3
FlatWithEdges
350
2C
  3
Gouraud
350
2D
  3
GouraudWithEdges
350
2E
  3
Linepattern
350
38
  3
Realistic
350
33
  3
Thicken
350
37
  0
DICTIONARY
  5
176
102
{ACAD_REACTORS
330
C
102
}
330
C
100
AcDbDictionary
281
     1
  3
CANNOSCALE
350
177
  0
IMAGEDEF
  5
74
102
{ACAD_REACTORS
330
73
330
76
102
}
330
73
100
AcDbRasterImageDef
 90
        0
  1
S:\MWDesign CLIENT L -Z\Marley NZ\RAINWATER PRODUCTS\12-501 illustration of rainwater products\12-501 Illustration\dxf6DA.bmp
 10
394.0
 20
64.0
 11
0.2645502645502645
 21
0.2645502645502645
280
     1
281
     3
  0
LAYOUT
  5
1E
102
{ACAD_REACTORS
330
1A
102
}
330
1A
100
AcDbPlotSettings
  1

  2
none_device
  4

  6

 40
0.0
 41
0.0
 42
0.0
 43
0.0
 44
0.0
 45
0.0
 46
0.0
 47
0.0
 48
0.0
 49
0.0
140
0.0
141
0.0
142
1.0
143
1.0
 70
   688
 72
     0
 73
     0
 74
     5
  7

 75
    16
 76
     0
 77
     2
 78
   300
147
1.0
148
0.0
149
0.0
100
AcDbLayout
  1
Layout1
 70
     1
 71
     1
 10
0.0
 20
0.0
 11
420.0
 21
297.0
 12
0.0
 22
0.0
 32
0.0
 14
1.0000000000E+20
 24
1.0000000000E+20
 34
1.0000000000E+20
 15
-1.0000000000E+20
 25
-1.0000000000E+20
 35
-1.0000000000E+20
146
0.0
 13
0.0
 23
0.0
 33
0.0
 16
1.0
 26
0.0
 36
0.0
 17
0.0
 27
1.0
 37
0.0
 76
     0
330
1B
  0
LAYOUT
  5
26
102
{ACAD_REACTORS
330
1A
102
}
330
1A
100
AcDbPlotSettings
  1

  2
none_device
  4

  6

 40
0.0
 41
0.0
 42
0.0
 43
0.0
 44
0.0
 45
0.0
 46
0.0
 47
0.0
 48
0.0
 49
0.0
140
0.0
141
0.0
142
1.0
143
1.0
 70
   688
 72
     0
 73
     0
 74
     5
  7

 75
    16
 76
     0
 77
     2
 78
   300
147
1.0
148
0.0
149
0.0
100
AcDbLayout
  1
Layout2
 70
     1
 71
     2
 10
0.0
 20
0.0
 11
0.0
 21
0.0
 12
0.0
 22
0.0
 32
0.0
 14
0.0
 24
0.0
 34
0.0
 15
0.0
 25
0.0
 35
0.0
146
0.0
 13
0.0
 23
0.0
 33
0.0
 16
1.0
 26
0.0
 36
0.0
 17
0.0
 27
1.0
 37
0.0
 76
     0
330
23
  0
LAYOUT
  5
22
102
{ACAD_REACTORS
330
1A
102
}
330
1A
100
AcDbPlotSettings
  1

  2
none_device
  4

  6

 40
0.0
 41
0.0
 42
0.0
 43
0.0
 44
0.0
 45
0.0
 46
0.0
 47
0.0
 48
0.0
 49
0.0
140
0.0
141
0.0
142
1.0
143
1.0
 70
  1712
 72
     0
 73
     0
 74
     0
  7

 75
     0
 76
     0
 77
     2
 78
   300
147
1.0
148
0.0
149
0.0
100
AcDbLayout
  1
Model
 70
     1
 71
     0
 10
0.0
 20
0.0
 11
210.0
 21
297.0
 12
0.0
 22
0.0
 32
0.0
 14
0.0
 24
0.0
 34
0.0
 15
210.0
 25
297.0
 35
0.0
146
0.0
 13
0.0
 23
0.0
 33
0.0
 16
1.0
 26
0.0
 36
0.0
 17
0.0
 27
1.0
 37
0.0
 76
     0
330
1F
331
29
  0
MATERIAL
  5
3D
102
{ACAD_REACTORS
330
3B
102
}
330
3B
100
AcDbMaterial
  1
ByBlock
 72
     1
 94
      127
  0
MATERIAL
  5
3C
102
{ACAD_REACTORS
330
3B
102
}
330
3B
100
AcDbMaterial
  1
ByLayer
 72
     1
 94
      127
  0
MATERIAL
  5
3E
102
{ACAD_REACTORS
330
3B
102
}
330
3B
100
AcDbMaterial
  1
Global
 72
     1
 94
      127
  0
MLINESTYLE
  5
18
102
{ACAD_REACTORS
330
17
102
}
330
17
100
AcDbMlineStyle
  2
Standard
 70
     0
  3

 62
   256
 51
90.0
 52
90.0
 71
     2
 49
0.5
 62
   256
  6
BYLAYER
 49
-0.5
 62
   256
  6
BYLAYER
  0
ACDBPLACEHOLDER
  5
F
102
{ACAD_REACTORS
330
E
102
}
330
E
  0
SCALE
  5
4B
102
{ACAD_REACTORS
330
4A
102
}
330
4A
100
AcDbScale
 70
     0
300
1:1
140
1.0
141
1.0
290
     1
  0
SCALE
  5
4C
102
{ACAD_REACTORS
330
4A
102
}
330
4A
100
AcDbScale
 70
     0
300
1:2
140
1.0
141
2.0
290
     0
  0
SCALE
  5
4D
102
{ACAD_REACTORS
330
4A
102
}
330
4A
100
AcDbScale
 70
     0
300
1:4
140
1.0
141
4.0
290
     0
  0
SCALE
  5
4E
102
{ACAD_REACTORS
330
4A
102
}
330
4A
100
AcDbScale
 70
     0
300
1:5
140
1.0
141
5.0
290
     0
  0
SCALE
  5
4F
102
{ACAD_REACTORS
330
4A
102
}
330
4A
100
AcDbScale
 70
     0
300
1:8
140
1.0
141
8.0
290
     0
  0
SCALE
  5
50
102
{ACAD_REACTORS
330
4A
102
}
330
4A
100
AcDbScale
 70
     0
300
1:10
140
1.0
141
10.0
290
     0
  0
SCALE
  5
51
102
{ACAD_REACTORS
330
4A
102
}
330
4A
100
AcDbScale
 70
     0
300
1:16
140
1.0
141
16.0
290
     0
  0
SCALE
  5
52
102
{ACAD_REACTORS
330
4A
102
}
330
4A
100
AcDbScale
 70
     0
300
1:20
140
1.0
141
20.0
290
     0
  0
SCALE
  5
53
102
{ACAD_REACTORS
330
4A
102
}
330
4A
100
AcDbScale
 70
     0
300
1:30
140
1.0
141
30.0
290
     0
  0
SCALE
  5
54
102
{ACAD_REACTORS
330
4A
102
}
330
4A
100
AcDbScale
 70
     0
300
1:40
140
1.0
141
40.0
290
     0
  0
SCALE
  5
55
102
{ACAD_REACTORS
330
4A
102
}
330
4A
100
AcDbScale
 70
     0
300
1:50
140
1.0
141
50.0
290
     0
  0
SCALE
  5
56
102
{ACAD_REACTORS
330
4A
102
}
330
4A
100
AcDbScale
 70
     0
300
1:100
140
1.0
141
100.0
290
     0
  0
SCALE
  5
57
102
{ACAD_REACTORS
330
4A
102
}
330
4A
100
AcDbScale
 70
     0
300
2:1
140
2.0
141
1.0
290
     0
  0
SCALE
  5
58
102
{ACAD_REACTORS
330
4A
102
}
330
4A
100
AcDbScale
 70
     0
300
4:1
140
4.0
141
1.0
290
     0
  0
SCALE
  5
59
102
{ACAD_REACTORS
330
4A
102
}
330
4A
100
AcDbScale
 70
     0
300
8:1
140
8.0
141
1.0
290
     0
  0
SCALE
  5
5A
102
{ACAD_REACTORS
330
4A
102
}
330
4A
100
AcDbScale
 70
     0
300
10:1
140
10.0
141
1.0
290
     0
  0
SCALE
  5
5B
102
{ACAD_REACTORS
330
4A
102
}
330
4A
100
AcDbScale
 70
     0
300
100:1
140
100.0
141
1.0
290
     0
  0
SCALE
  5
5C
102
{ACAD_REACTORS
330
4A
102
}
330
4A
100
AcDbScale
 70
     0
300
1/128" = 1'-0"
140
0.0078125
141
12.0
290
     0
  0
SCALE
  5
5D
102
{ACAD_REACTORS
330
4A
102
}
330
4A
100
AcDbScale
 70
     0
300
1/64" = 1'-0"
140
0.015625
141
12.0
290
     0
  0
SCALE
  5
5E
102
{ACAD_REACTORS
330
4A
102
}
330
4A
100
AcDbScale
 70
     0
300
1/32" = 1'-0"
140
0.03125
141
12.0
290
     0
  0
SCALE
  5
5F
102
{ACAD_REACTORS
330
4A
102
}
330
4A
100
AcDbScale
 70
     0
300
1/16" = 1'-0"
140
0.0625
141
12.0
290
     0
  0
SCALE
  5
60
102
{ACAD_REACTORS
330
4A
102
}
330
4A
100
AcDbScale
 70
     0
300
3/32" = 1'-0"
140
0.09375
141
12.0
290
     0
  0
SCALE
  5
61
102
{ACAD_REACTORS
330
4A
102
}
330
4A
100
AcDbScale
 70
     0
300
1/8" = 1'-0"
140
0.125
141
12.0
290
     0
  0
SCALE
  5
62
102
{ACAD_REACTORS
330
4A
102
}
330
4A
100
AcDbScale
 70
     0
300
3/16" = 1'-0"
140
0.1875
141
12.0
290
     0
  0
SCALE
  5
63
102
{ACAD_REACTORS
330
4A
102
}
330
4A
100
AcDbScale
 70
     0
300
1/4" = 1'-0"
140
0.25
141
12.0
290
     0
  0
SCALE
  5
64
102
{ACAD_REACTORS
330
4A
102
}
330
4A
100
AcDbScale
 70
     0
300
3/8" = 1'-0"
140
0.375
141
12.0
290
     0
  0
SCALE
  5
65
102
{ACAD_REACTORS
330
4A
102
}
330
4A
100
AcDbScale
 70
     0
300
1/2" = 1'-0"
140
0.5
141
12.0
290
     0
  0
SCALE
  5
66
102
{ACAD_REACTORS
330
4A
102
}
330
4A
100
AcDbScale
 70
     0
300
3/4" = 1'-0"
140
0.75
141
12.0
290
     0
  0
SCALE
  5
67
102
{ACAD_REACTORS
330
4A
102
}
330
4A
100
AcDbScale
 70
     0
300
1" = 1'-0"
140
1.0
141
12.0
290
     0
  0
SCALE
  5
68
102
{ACAD_REACTORS
330
4A
102
}
330
4A
100
AcDbScale
 70
     0
300
1-1/2" = 1'-0"
140
1.5
141
12.0
290
     0
  0
SCALE
  5
69
102
{ACAD_REACTORS
330
4A
102
}
330
4A
100
AcDbScale
 70
     0
300
3" = 1'-0"
140
3.0
141
12.0
290
     0
  0
SCALE
  5
6A
102
{ACAD_REACTORS
330
4A
102
}
330
4A
100
AcDbScale
 70
     0
300
6" = 1'-0"
140
6.0
141
12.0
290
     0
  0
SCALE
  5
6B
102
{ACAD_REACTORS
330
4A
102
}
330
4A
100
AcDbScale
 70
     0
300
1'-0" = 1'-0"
140
12.0
141
12.0
290
     0
  0
VISUALSTYLE
  5
2F
102
{ACAD_REACTORS
330
2A
102
}
102
{ACAD_XDICTIONARY
360
180
102
}
330
2A
100
AcDbVisualStyle
  2
2dWireframe
 70
     4
 71
     0
 72
     2
 73
     0
 90
        0
 40
-0.6
 41
-30.0
 62
     5
 63
     7
421
 16777215
 74
     1
 91
        4
 64
     7
 65
   257
 75
     1
175
     1
 42
1.0
 92
        0
 66
   257
 43
1.0
 76
     1
 77
     6
 78
     2
 67
     7
 79
     5
170
     0
171
     0
290
     0
174
     0
 93
        1
 44
0.0
173
     0
291
     0
 45
0.0
  0
VISUALSTYLE
  5
31
102
{ACAD_REACTORS
330
2A
102
}
102
{ACAD_XDICTIONARY
360
184
102
}
330
2A
100
AcDbVisualStyle
  2
3D Hidden
 70
     6
 71
     1
 72
     2
 73
     2
 90
        0
 40
-0.6
 41
-30.0
 62
     5
 63
     7
421
 16777215
 74
     2
 91
        2
 64
     7
 65
   257
 75
     2
175
     1
 42
40.0
 92
        0
 66
   257
 43
1.0
 76
     1
 77
     6
 78
     2
 67
     7
 79
     3
170
     0
171
     0
290
     0
174
     0
 93
        1
 44
0.0
173
     0
291
     0
 45
0.0
  0
VISUALSTYLE
  5
30
102
{ACAD_REACTORS
330
2A
102
}
102
{ACAD_XDICTIONARY
360
182
102
}
330
2A
100
AcDbVisualStyle
  2
3dWireframe
 70
     5
 71
     0
 72
     2
 73
     0
 90
        0
 40
-0.6
 41
-30.0
 62
     5
 63
     7
421
 16777215
 74
     1
 91
        4
 64
     7
 65
   257
 75
     1
175
     1
 42
1.0
 92
        0
 66
   257
 43
1.0
 76
     1
 77
     6
 78
     2
 67
     7
 79
     5
170
     0
171
     0
290
     0
174
     0
 93
        1
 44
0.0
173
     0
291
     0
 45
0.0
  0
VISUALSTYLE
  5
32
102
{ACAD_REACTORS
330
2A
102
}
102
{ACAD_XDICTIONARY
360
186
102
}
330
2A
100
AcDbVisualStyle
  2
Basic
 70
     7
 71
     1
 72
     0
 73
     1
 90
        0
 40
-0.6
 41
-30.0
 62
     5
 63
     7
421
 16777215
 74
     0
 91
        4
 64
     7
 65
   257
 75
     1
175
     1
 42
1.0
 92
        8
 66
     7
 43
1.0
 76
     1
 77
     6
 78
     2
 67
     7
 79
     5
170
     0
171
     0
290
     0
174
     0
 93
        1
 44
0.0
173
     0
291
     1
 45
0.0
  0
VISUALSTYLE
  5
36
102
{ACAD_REACTORS
330
2A
102
}
102
{ACAD_XDICTIONARY
360
18E
102
}
330
2A
100
AcDbVisualStyle
  2
Brighten
 70
    12
 71
     2
 72
     2
 73
     0
 90
        0
 40
-0.6
 41
-30.0
 62
     5
 63
     7
421
 16777215
 74
     1
 91
        4
 64
     7
 65
   257
 75
     1
175
     1
 42
1.0
 92
        8
 66
     7
 43
1.0
 76
     1
 77
     6
 78
     2
 67
     7
 79
     5
170
     0
171
     0
290
     0
174
     0
 93
        1
 44
50.0
173
     0
291
     1
 45
0.0
  0
VISUALSTYLE
  5
3A
102
{ACAD_REACTORS
330
2A
102
}
102
{ACAD_XDICTIONARY
360
196
102
}
330
2A
100
AcDbVisualStyle
  2
ColorChange
 70
    16
 71
     2
 72
     2
 73
     3
 90
        0
 40
-0.6
 41
-30.0
 62
     5
 63
     8
421
  8421504
 74
     1
 91
        4
 64
     7
 65
   257
 75
     1
175
     1
 42
1.0
 92
        8
 66
     8
424
  8421504
 43
1.0
 76
     1
 77
     6
 78
     2
 67
     7
 79
     5
170
     0
171
     0
290
     0
174
     0
 93
        1
 44
0.0
173
     0
291
     1
 45
0.0
  0
VISUALSTYLE
  5
34
102
{ACAD_REACTORS
330
2A
102
}
102
{ACAD_XDICTIONARY
360
18A
102
}
330
2A
100
AcDbVisualStyle
  2
Conceptual
 70
     9
 71
     3
 72
     2
 73
     0
 90
        0
 40
-0.6
 41
-30.0
 62
     5
 63
     7
421
 16777215
 74
     2
 91
        2
 64
     7
 65
   257
 75
     1
175
     1
 42
40.0
 92
        8
 66
     7
 43
1.0
 76
     1
 77
     6
 78
     2
 67
     7
 79
     3
170
     0
171
     0
290
     0
174
     0
 93
        1
 44
0.0
173
     0
291
     0
 45
0.0
  0
VISUALSTYLE
  5
35
102
{ACAD_REACTORS
330
2A
102
}
102
{ACAD_XDICTIONARY
360
18C
102
}
330
2A
100
AcDbVisualStyle
  2
Dim
 70
    11
 71
     2
 72
     2
 73
     0
 90
        0
 40
-0.6
 41
-30.0
 62
     5
 63
     7
421
 16777215
 74
     1
 91
        4
 64
     7
 65
   257
 75
     1
175
     1
 42
1.0
 92
        8
 66
     7
 43
1.0
 76
     1
 77
     6
 78
     2
 67
     7
 79
     5
170
     0
171
     0
290
     0
174
     0
 93
        1
 44
-50.0
173
     0
291
     1
 45
0.0
  0
VISUALSTYLE
  5
39
102
{ACAD_REACTORS
330
2A
102
}
102
{ACAD_XDICTIONARY
360
194
102
}
330
2A
100
AcDbVisualStyle
  2
Facepattern
 70
    15
 71
     2
 72
     2
 73
     0
 90
        0
 40
-0.6
 41
-30.0
 62
     5
 63
     7
421
 16777215
 74
     1
 91
        4
 64
     7
 65
   257
 75
     1
175
     1
 42
1.0
 92
        8
 66
     7
 43
1.0
 76
     1
 77
     6
 78
     2
 67
     7
 79
     5
170
     0
171
     0
290
     0
174
     0
 93
        1
 44
0.0
173
     0
291
     1
 45
0.0
  0
VISUALSTYLE
  5
2B
102
{ACAD_REACTORS
330
2A
102
}
102
{ACAD_XDICTIONARY
360
178
102
}
330
2A
100
AcDbVisualStyle
  2
Flat
 70
     0
 71
     2
 72
     1
 73
     1
 90
        2
 40
-0.6
 41
30.0
 62
     5
 63
     7
421
 16777215
 74
     0
 91
        4
 64
     7
 65
   257
 75
     1
175
     1
 42
1.0
 92
        8
 66
     7
 43
1.0
 76
     1
 77
     6
 78
     2
 67
     7
 79
     5
170
     0
171
     0
290
     0
174
     0
 93
       13
 44
0.0
173
     0
291
     1
 45
0.0
  0
VISUALSTYLE
  5
2C
102
{ACAD_REACTORS
330
2A
102
}
102
{ACAD_XDICTIONARY
360
17A
102
}
330
2A
100
AcDbVisualStyle
  2
FlatWithEdges
 70
     1
 71
     2
 72
     1
 73
     1
 90
        2
 40
-0.6
 41
30.0
 62
     5
 63
     7
421
 16777215
 74
     1
 91
        4
 64
     7
 65
   257
 75
     1
175
     1
 42
1.0
 92
        0
 66
   257
 43
1.0
 76
     1
 77
     6
 78
     2
 67
     7
 79
     5
170
     0
171
     0
290
     0
174
     0
 93
       13
 44
0.0
173
     0
291
     1
 45
0.0
  0
VISUALSTYLE
  5
2D
102
{ACAD_REACTORS
330
2A
102
}
102
{ACAD_XDICTIONARY
360
17C
102
}
330
2A
100
AcDbVisualStyle
  2
Gouraud
 70
     2
 71
     2
 72
     2
 73
     1
 90
        2
 40
-0.6
 41
30.0
 62
     5
 63
     7
421
 16777215
 74
     0
 91
        4
 64
     7
 65
   257
 75
     1
175
     1
 42
1.0
 92
        0
 66
     7
 43
1.0
 76
     1
 77
     6
 78
     2
 67
     7
 79
     5
170
     0
171
     0
290
     0
174
     0
 93
       13
 44
0.0
173
     0
291
     1
 45
0.0
  0
VISUALSTYLE
  5
2E
102
{ACAD_REACTORS
330
2A
102
}
102
{ACAD_XDICTIONARY
360
17E
102
}
330
2A
100
AcDbVisualStyle
  2
GouraudWithEdges
 70
     3
 71
     2
 72
     2
 73
     1
 90
        2
 40
-0.6
 41
30.0
 62
     5
 63
     7
421
 16777215
 74
     1
 91
        4
 64
     7
 65
   257
 75
     1
175
     1
 42
1.0
 92
        0
 66
   257
 43
1.0
 76
     1
 77
     6
 78
     2
 67
     7
 79
     5
170
     0
171
     0
290
     0
174
     0
 93
       13
 44
0.0
173
     0
291
     1
 45
0.0
  0
VISUALSTYLE
  5
38
102
{ACAD_REACTORS
330
2A
102
}
102
{ACAD_XDICTIONARY
360
192
102
}
330
2A
100
AcDbVisualStyle
  2
Linepattern
 70
    14
 71
     2
 72
     2
 73
     0
 90
        0
 40
-0.6
 41
-30.0
 62
     5
 63
     7
421
 16777215
 74
     1
 91
        4
 64
     7
 65
   257
 75
     7
175
     7
 42
1.0
 92
        8
 66
     7
 43
1.0
 76
     1
 77
     6
 78
     2
 67
     7
 79
     5
170
     0
171
     0
290
     0
174
     0
 93
        1
 44
0.0
173
     0
291
     1
 45
0.0
  0
VISUALSTYLE
  5
33
102
{ACAD_REACTORS
330
2A
102
}
102
{ACAD_XDICTIONARY
360
188
102
}
330
2A
100
AcDbVisualStyle
  2
Realistic
 70
     8
 71
     2
 72
     2
 73
     0
 90
        0
 40
-0.6
 41
-30.0
 62
     5
 63
     7
421
 16777215
 74
     1
 91
        0
 64
     7
 65
   257
 75
     1
175
     1
 42
1.0
 92
        8
 66
     8
424
  7895160
 43
1.0
 76
     1
 77
     6
 78
     2
 67
     7
 79
     5
170
     0
171
     0
290
     0
174
     0
 93
       13
 44
0.0
173
     0
291
     0
 45
0.0
  0
VISUALSTYLE
  5
37
102
{ACAD_REACTORS
330
2A
102
}
102
{ACAD_XDICTIONARY
360
190
102
}
330
2A
100
AcDbVisualStyle
  2
Thicken
 70
    13
 71
     2
 72
     2
 73
     0
 90
        0
 40
-0.6
 41
-30.0
 62
     5
 63
     7
421
 16777215
 74
     1
 91
        4
 64
     7
 65
   257
 75
     1
175
     1
 42
1.0
 92
       12
 66
     7
 43
1.0
 76
     1
 77
     6
 78
     2
 67
     7
 79
     5
170
     0
171
     0
290
     0
174
     0
 93
        1
 44
0.0
173
     0
291
     1
 45
0.0
  0
DICTIONARYVAR
  5
177
102
{ACAD_REACTORS
330
176
102
}
330
176
100
DictionaryVariables
280
     0
  1
1:1
  0
DICTIONARY
  5
180
330
2F
100
AcDbDictionary
280
     1
281
     1
  3
ACAD_XREC_ROUNDTRIP
360
181
  0
DICTIONARY
  5
184
330
31
100
AcDbDictionary
280
     1
281
     1
  3
ACAD_XREC_ROUNDTRIP
360
185
  0
DICTIONARY
  5
182
330
30
100
AcDbDictionary
280
     1
281
     1
  3
ACAD_XREC_ROUNDTRIP
360
183
  0
DICTIONARY
  5
186
330
32
100
AcDbDictionary
280
     1
281
     1
  3
ACAD_XREC_ROUNDTRIP
360
187
  0
DICTIONARY
  5
18E
330
36
100
AcDbDictionary
280
     1
281
     1
  3
ACAD_XREC_ROUNDTRIP
360
18F
  0
DICTIONARY
  5
196
330
3A
100
AcDbDictionary
280
     1
281
     1
  3
ACAD_XREC_ROUNDTRIP
360
197
  0
DICTIONARY
  5
18A
330
34
100
AcDbDictionary
280
     1
281
     1
  3
ACAD_XREC_ROUNDTRIP
360
18B
  0
DICTIONARY
  5
18C
330
35
100
AcDbDictionary
280
     1
281
     1
  3
ACAD_XREC_ROUNDTRIP
360
18D
  0
DICTIONARY
  5
194
330
39
100
AcDbDictionary
280
     1
281
     1
  3
ACAD_XREC_ROUNDTRIP
360
195
  0
DICTIONARY
  5
178
330
2B
100
AcDbDictionary
280
     1
281
     1
  3
ACAD_XREC_ROUNDTRIP
360
179
  0
DICTIONARY
  5
17A
330
2C
100
AcDbDictionary
280
     1
281
     1
  3
ACAD_XREC_ROUNDTRIP
360
17B
  0
DICTIONARY
  5
17C
330
2D
100
AcDbDictionary
280
     1
281
     1
  3
ACAD_XREC_ROUNDTRIP
360
17D
  0
DICTIONARY
  5
17E
330
2E
100
AcDbDictionary
280
     1
281
     1
  3
ACAD_XREC_ROUNDTRIP
360
17F
  0
DICTIONARY
  5
192
330
38
100
AcDbDictionary
280
     1
281
     1
  3
ACAD_XREC_ROUNDTRIP
360
193
  0
DICTIONARY
  5
188
330
33
100
AcDbDictionary
280
     1
281
     1
  3
ACAD_XREC_ROUNDTRIP
360
189
  0
DICTIONARY
  5
190
330
37
100
AcDbDictionary
280
     1
281
     1
  3
ACAD_XREC_ROUNDTRIP
360
191
  0
XRECORD
  5
181
102
{ACAD_REACTORS
330
180
102
}
330
180
100
AcDbXrecord
280
     1
102
RTVSPropertyOp0
 70
     1
102
RTVSPropertyOp1
 70
     1
102
RTVSPropertyOp2
 70
     1
102
RTVSPropertyOp3
 70
     1
102
RTVSPropertyOp4
 70
     1
102
RTVSPropertyOp5
 70
     1
102
RTVSPropertyOp6
 70
     1
102
RTVSPropertyOp7
 70
     1
102
RTVSPropertyOp8
 70
     1
102
RTVSPropertyOp9
 70
     1
102
RTVSPropertyOp10
 70
     1
102
RTVSPropertyOp11
 70
     1
102
RTVSPropertyOp12
 70
     1
102
RTVSPropertyOp13
 70
     1
102
RTVSPropertyOp14
 70
     1
102
RTVSPropertyOp15
 70
     1
102
RTVSPropertyOp16
 70
     1
102
RTVSPropertyOp17
 70
     1
102
RTVSPropertyOp18
 70
     1
102
RTVSPropertyOp19
 70
     1
102
RTVSPropertyOp20
 70
     1
102
RTVSPropertyOp21
 70
     1
102
RTVSPropertyOp22
 70
     1
102
RTVSPropertyOp23
 70
     1
102
RTVSPropertyOp24
 70
     1
102
RTVSPropertyOp25
 70
     1
102
RTVSPropertyOp26
 70
     1
102
RTVSPropertyOp27
 70
     1
  0
XRECORD
  5
185
102
{ACAD_REACTORS
330
184
102
}
330
184
100
AcDbXrecord
280
     1
102
RTVSPropertyOp0
 70
     1
102
RTVSPropertyOp1
 70
     1
102
RTVSPropertyOp2
 70
     1
102
RTVSPropertyOp3
 70
     1
102
RTVSPropertyOp4
 70
     1
102
RTVSPropertyOp5
 70
     1
102
RTVSPropertyOp6
 70
     1
102
RTVSPropertyOp7
 70
     1
102
RTVSPropertyOp8
 70
     1
102
RTVSPropertyOp9
 70
     1
102
RTVSPropertyOp10
 70
     1
102
RTVSPropertyOp11
 70
     1
102
RTVSPropertyOp12
 70
     1
102
RTVSPropertyOp13
 70
     1
102
RTVSPropertyOp14
 70
     1
102
RTVSPropertyOp15
 70
     1
102
RTVSPropertyOp16
 70
     1
102
RTVSPropertyOp17
 70
     1
102
RTVSPropertyOp18
 70
     1
102
RTVSPropertyOp19
 70
     1
102
RTVSPropertyOp20
 70
     1
102
RTVSPropertyOp21
 70
     1
102
RTVSPropertyOp22
 70
     1
102
RTVSPropertyOp23
 70
     1
102
RTVSPropertyOp24
 70
     1
102
RTVSPropertyOp25
 70
     1
102
RTVSPropertyOp26
 70
     1
102
RTVSPropertyOp27
 70
     1
  0
XRECORD
  5
183
102
{ACAD_REACTORS
330
182
102
}
330
182
100
AcDbXrecord
280
     1
102
RTVSPropertyOp0
 70
     1
102
RTVSPropertyOp1
 70
     1
102
RTVSPropertyOp2
 70
     1
102
RTVSPropertyOp3
 70
     1
102
RTVSPropertyOp4
 70
     1
102
RTVSPropertyOp5
 70
     1
102
RTVSPropertyOp6
 70
     1
102
RTVSPropertyOp7
 70
     1
102
RTVSPropertyOp8
 70
     1
102
RTVSPropertyOp9
 70
     1
102
RTVSPropertyOp10
 70
     1
102
RTVSPropertyOp11
 70
     1
102
RTVSPropertyOp12
 70
     1
102
RTVSPropertyOp13
 70
     1
102
RTVSPropertyOp14
 70
     1
102
RTVSPropertyOp15
 70
     1
102
RTVSPropertyOp16
 70
     1
102
RTVSPropertyOp17
 70
     1
102
RTVSPropertyOp18
 70
     1
102
RTVSPropertyOp19
 70
     1
102
RTVSPropertyOp20
 70
     1
102
RTVSPropertyOp21
 70
     1
102
RTVSPropertyOp22
 70
     1
102
RTVSPropertyOp23
 70
     1
102
RTVSPropertyOp24
 70
     1
102
RTVSPropertyOp25
 70
     1
102
RTVSPropertyOp26
 70
     1
102
RTVSPropertyOp27
 70
     1
  0
XRECORD
  5
187
102
{ACAD_REACTORS
330
186
102
}
330
186
100
AcDbXrecord
280
     1
102
RTVSPropertyOp0
 70
     1
102
RTVSPropertyOp1
 70
     1
102
RTVSPropertyOp2
 70
     1
102
RTVSPropertyOp3
 70
     1
102
RTVSPropertyOp4
 70
     1
102
RTVSPropertyOp5
 70
     1
102
RTVSPropertyOp6
 70
     1
102
RTVSPropertyOp7
 70
     1
102
RTVSPropertyOp8
 70
     1
102
RTVSPropertyOp9
 70
     1
102
RTVSPropertyOp10
 70
     1
102
RTVSPropertyOp11
 70
     1
102
RTVSPropertyOp12
 70
     1
102
RTVSPropertyOp13
 70
     1
102
RTVSPropertyOp14
 70
     1
102
RTVSPropertyOp15
 70
     1
102
RTVSPropertyOp16
 70
     1
102
RTVSPropertyOp17
 70
     1
102
RTVSPropertyOp18
 70
     1
102
RTVSPropertyOp19
 70
     1
102
RTVSPropertyOp20
 70
     1
102
RTVSPropertyOp21
 70
     1
102
RTVSPropertyOp22
 70
     1
102
RTVSPropertyOp23
 70
     1
102
RTVSPropertyOp24
 70
     1
102
RTVSPropertyOp25
 70
     1
102
RTVSPropertyOp26
 70
     1
102
RTVSPropertyOp27
 70
     1
  0
XRECORD
  5
18F
102
{ACAD_REACTORS
330
18E
102
}
330
18E
100
AcDbXrecord
280
     1
102
RTVSPropertyOp0
 70
     1
102
RTVSPropertyOp1
 70
     1
102
RTVSPropertyOp2
 70
     1
102
RTVSPropertyOp3
 70
     1
102
RTVSPropertyOp4
 70
     1
102
RTVSPropertyOp5
 70
     1
102
RTVSPropertyOp6
 70
     1
102
RTVSPropertyOp7
 70
     1
102
RTVSPropertyOp8
 70
     1
102
RTVSPropertyOp9
 70
     1
102
RTVSPropertyOp10
 70
     1
102
RTVSPropertyOp11
 70
     1
102
RTVSPropertyOp12
 70
     1
102
RTVSPropertyOp13
 70
     1
102
RTVSPropertyOp14
 70
     1
102
RTVSPropertyOp15
 70
     1
102
RTVSPropertyOp16
 70
     1
102
RTVSPropertyOp17
 70
     1
102
RTVSPropertyOp18
 70
     1
102
RTVSPropertyOp19
 70
     1
102
RTVSPropertyOp20
 70
     1
102
RTVSPropertyOp21
 70
     1
102
RTVSPropertyOp22
 70
     1
102
RTVSPropertyOp23
 70
     1
102
RTVSPropertyOp24
 70
     1
102
RTVSPropertyOp25
 70
     1
102
RTVSPropertyOp26
 70
     1
102
RTVSPropertyOp27
 70
     1
  0
XRECORD
  5
197
102
{ACAD_REACTORS
330
196
102
}
330
196
100
AcDbXrecord
280
     1
102
RTVSPropertyOp0
 70
     1
102
RTVSPropertyOp1
 70
     1
102
RTVSPropertyOp2
 70
     1
102
RTVSPropertyOp3
 70
     1
102
RTVSPropertyOp4
 70
     1
102
RTVSPropertyOp5
 70
     1
102
RTVSPropertyOp6
 70
     1
102
RTVSPropertyOp7
 70
     1
102
RTVSPropertyOp8
 70
     1
102
RTVSPropertyOp9
 70
     1
102
RTVSPropertyOp10
 70
     1
102
RTVSPropertyOp11
 70
     1
102
RTVSPropertyOp12
 70
     1
102
RTVSPropertyOp13
 70
     1
102
RTVSPropertyOp14
 70
     1
102
RTVSPropertyOp15
 70
     1
102
RTVSPropertyOp16
 70
     1
102
RTVSPropertyOp17
 70
     1
102
RTVSPropertyOp18
 70
     1
102
RTVSPropertyOp19
 70
     1
102
RTVSPropertyOp20
 70
     1
102
RTVSPropertyOp21
 70
     1
102
RTVSPropertyOp22
 70
     1
102
RTVSPropertyOp23
 70
     1
102
RTVSPropertyOp24
 70
     1
102
RTVSPropertyOp25
 70
     1
102
RTVSPropertyOp26
 70
     1
102
RTVSPropertyOp27
 70
     1
  0
XRECORD
  5
18B
102
{ACAD_REACTORS
330
18A
102
}
330
18A
100
AcDbXrecord
280
     1
102
RTVSPropertyOp0
 70
     1
102
RTVSPropertyOp1
 70
     1
102
RTVSPropertyOp2
 70
     1
102
RTVSPropertyOp3
 70
     1
102
RTVSPropertyOp4
 70
     1
102
RTVSPropertyOp5
 70
     1
102
RTVSPropertyOp6
 70
     1
102
RTVSPropertyOp7
 70
     1
102
RTVSPropertyOp8
 70
     1
102
RTVSPropertyOp9
 70
     1
102
RTVSPropertyOp10
 70
     1
102
RTVSPropertyOp11
 70
     1
102
RTVSPropertyOp12
 70
     1
102
RTVSPropertyOp13
 70
     1
102
RTVSPropertyOp14
 70
     1
102
RTVSPropertyOp15
 70
     1
102
RTVSPropertyOp16
 70
     1
102
RTVSPropertyOp17
 70
     1
102
RTVSPropertyOp18
 70
     1
102
RTVSPropertyOp19
 70
     1
102
RTVSPropertyOp20
 70
     1
102
RTVSPropertyOp21
 70
     1
102
RTVSPropertyOp22
 70
     1
102
RTVSPropertyOp23
 70
     1
102
RTVSPropertyOp24
 70
     1
102
RTVSPropertyOp25
 70
     1
102
RTVSPropertyOp26
 70
     1
102
RTVSPropertyOp27
 70
     1
  0
XRECORD
  5
18D
102
{ACAD_REACTORS
330
18C
102
}
330
18C
100
AcDbXrecord
280
     1
102
RTVSPropertyOp0
 70
     1
102
RTVSPropertyOp1
 70
     1
102
RTVSPropertyOp2
 70
     1
102
RTVSPropertyOp3
 70
     1
102
RTVSPropertyOp4
 70
     1
102
RTVSPropertyOp5
 70
     1
102
RTVSPropertyOp6
 70
     1
102
RTVSPropertyOp7
 70
     1
102
RTVSPropertyOp8
 70
     1
102
RTVSPropertyOp9
 70
     1
102
RTVSPropertyOp10
 70
     1
102
RTVSPropertyOp11
 70
     1
102
RTVSPropertyOp12
 70
     1
102
RTVSPropertyOp13
 70
     1
102
RTVSPropertyOp14
 70
     1
102
RTVSPropertyOp15
 70
     1
102
RTVSPropertyOp16
 70
     1
102
RTVSPropertyOp17
 70
     1
102
RTVSPropertyOp18
 70
     1
102
RTVSPropertyOp19
 70
     1
102
RTVSPropertyOp20
 70
     1
102
RTVSPropertyOp21
 70
     1
102
RTVSPropertyOp22
 70
     1
102
RTVSPropertyOp23
 70
     1
102
RTVSPropertyOp24
 70
     1
102
RTVSPropertyOp25
 70
     1
102
RTVSPropertyOp26
 70
     1
102
RTVSPropertyOp27
 70
     1
  0
XRECORD
  5
195
102
{ACAD_REACTORS
330
194
102
}
330
194
100
AcDbXrecord
280
     1
102
RTVSPropertyOp0
 70
     1
102
RTVSPropertyOp1
 70
     1
102
RTVSPropertyOp2
 70
     1
102
RTVSPropertyOp3
 70
     1
102
RTVSPropertyOp4
 70
     1
102
RTVSPropertyOp5
 70
     1
102
RTVSPropertyOp6
 70
     1
102
RTVSPropertyOp7
 70
     1
102
RTVSPropertyOp8
 70
     1
102
RTVSPropertyOp9
 70
     1
102
RTVSPropertyOp10
 70
     1
102
RTVSPropertyOp11
 70
     1
102
RTVSPropertyOp12
 70
     1
102
RTVSPropertyOp13
 70
     1
102
RTVSPropertyOp14
 70
     1
102
RTVSPropertyOp15
 70
     1
102
RTVSPropertyOp16
 70
     1
102
RTVSPropertyOp17
 70
     1
102
RTVSPropertyOp18
 70
     1
102
RTVSPropertyOp19
 70
     1
102
RTVSPropertyOp20
 70
     1
102
RTVSPropertyOp21
 70
     1
102
RTVSPropertyOp22
 70
     1
102
RTVSPropertyOp23
 70
     1
102
RTVSPropertyOp24
 70
     1
102
RTVSPropertyOp25
 70
     1
102
RTVSPropertyOp26
 70
     1
102
RTVSPropertyOp27
 70
     1
  0
XRECORD
  5
179
102
{ACAD_REACTORS
330
178
102
}
330
178
100
AcDbXrecord
280
     1
102
RTVSPropertyOp0
 70
     1
102
RTVSPropertyOp1
 70
     1
102
RTVSPropertyOp2
 70
     1
102
RTVSPropertyOp3
 70
     1
102
RTVSPropertyOp4
 70
     1
102
RTVSPropertyOp5
 70
     1
102
RTVSPropertyOp6
 70
     1
102
RTVSPropertyOp7
 70
     1
102
RTVSPropertyOp8
 70
     1
102
RTVSPropertyOp9
 70
     1
102
RTVSPropertyOp10
 70
     1
102
RTVSPropertyOp11
 70
     1
102
RTVSPropertyOp12
 70
     1
102
RTVSPropertyOp13
 70
     1
102
RTVSPropertyOp14
 70
     1
102
RTVSPropertyOp15
 70
     1
102
RTVSPropertyOp16
 70
     1
102
RTVSPropertyOp17
 70
     1
102
RTVSPropertyOp18
 70
     1
102
RTVSPropertyOp19
 70
     1
102
RTVSPropertyOp20
 70
     1
102
RTVSPropertyOp21
 70
     1
102
RTVSPropertyOp22
 70
     1
102
RTVSPropertyOp23
 70
     1
102
RTVSPropertyOp24
 70
     1
102
RTVSPropertyOp25
 70
     1
102
RTVSPropertyOp26
 70
     1
102
RTVSPropertyOp27
 70
     1
  0
XRECORD
  5
17B
102
{ACAD_REACTORS
330
17A
102
}
330
17A
100
AcDbXrecord
280
     1
102
RTVSPropertyOp0
 70
     1
102
RTVSPropertyOp1
 70
     1
102
RTVSPropertyOp2
 70
     1
102
RTVSPropertyOp3
 70
     1
102
RTVSPropertyOp4
 70
     1
102
RTVSPropertyOp5
 70
     1
102
RTVSPropertyOp6
 70
     1
102
RTVSPropertyOp7
 70
     1
102
RTVSPropertyOp8
 70
     1
102
RTVSPropertyOp9
 70
     1
102
RTVSPropertyOp10
 70
     1
102
RTVSPropertyOp11
 70
     1
102
RTVSPropertyOp12
 70
     1
102
RTVSPropertyOp13
 70
     1
102
RTVSPropertyOp14
 70
     1
102
RTVSPropertyOp15
 70
     1
102
RTVSPropertyOp16
 70
     1
102
RTVSPropertyOp17
 70
     1
102
RTVSPropertyOp18
 70
     1
102
RTVSPropertyOp19
 70
     1
102
RTVSPropertyOp20
 70
     1
102
RTVSPropertyOp21
 70
     1
102
RTVSPropertyOp22
 70
     1
102
RTVSPropertyOp23
 70
     1
102
RTVSPropertyOp24
 70
     1
102
RTVSPropertyOp25
 70
     1
102
RTVSPropertyOp26
 70
     1
102
RTVSPropertyOp27
 70
     1
  0
XRECORD
  5
17D
102
{ACAD_REACTORS
330
17C
102
}
330
17C
100
AcDbXrecord
280
     1
102
RTVSPropertyOp0
 70
     1
102
RTVSPropertyOp1
 70
     1
102
RTVSPropertyOp2
 70
     1
102
RTVSPropertyOp3
 70
     1
102
RTVSPropertyOp4
 70
     1
102
RTVSPropertyOp5
 70
     1
102
RTVSPropertyOp6
 70
     1
102
RTVSPropertyOp7
 70
     1
102
RTVSPropertyOp8
 70
     1
102
RTVSPropertyOp9
 70
     1
102
RTVSPropertyOp10
 70
     1
102
RTVSPropertyOp11
 70
     1
102
RTVSPropertyOp12
 70
     1
102
RTVSPropertyOp13
 70
     1
102
RTVSPropertyOp14
 70
     1
102
RTVSPropertyOp15
 70
     1
102
RTVSPropertyOp16
 70
     1
102
RTVSPropertyOp17
 70
     1
102
RTVSPropertyOp18
 70
     1
102
RTVSPropertyOp19
 70
     1
102
RTVSPropertyOp20
 70
     1
102
RTVSPropertyOp21
 70
     1
102
RTVSPropertyOp22
 70
     1
102
RTVSPropertyOp23
 70
     1
102
RTVSPropertyOp24
 70
     1
102
RTVSPropertyOp25
 70
     1
102
RTVSPropertyOp26
 70
     1
102
RTVSPropertyOp27
 70
     1
  0
XRECORD
  5
17F
102
{ACAD_REACTORS
330
17E
102
}
330
17E
100
AcDbXrecord
280
     1
102
RTVSPropertyOp0
 70
     1
102
RTVSPropertyOp1
 70
     1
102
RTVSPropertyOp2
 70
     1
102
RTVSPropertyOp3
 70
     1
102
RTVSPropertyOp4
 70
     1
102
RTVSPropertyOp5
 70
     1
102
RTVSPropertyOp6
 70
     1
102
RTVSPropertyOp7
 70
     1
102
RTVSPropertyOp8
 70
     1
102
RTVSPropertyOp9
 70
     1
102
RTVSPropertyOp10
 70
     1
102
RTVSPropertyOp11
 70
     1
102
RTVSPropertyOp12
 70
     1
102
RTVSPropertyOp13
 70
     1
102
RTVSPropertyOp14
 70
     1
102
RTVSPropertyOp15
 70
     1
102
RTVSPropertyOp16
 70
     1
102
RTVSPropertyOp17
 70
     1
102
RTVSPropertyOp18
 70
     1
102
RTVSPropertyOp19
 70
     1
102
RTVSPropertyOp20
 70
     1
102
RTVSPropertyOp21
 70
     1
102
RTVSPropertyOp22
 70
     1
102
RTVSPropertyOp23
 70
     1
102
RTVSPropertyOp24
 70
     1
102
RTVSPropertyOp25
 70
     1
102
RTVSPropertyOp26
 70
     1
102
RTVSPropertyOp27
 70
     1
  0
XRECORD
  5
193
102
{ACAD_REACTORS
330
192
102
}
330
192
100
AcDbXrecord
280
     1
102
RTVSPropertyOp0
 70
     1
102
RTVSPropertyOp1
 70
     1
102
RTVSPropertyOp2
 70
     1
102
RTVSPropertyOp3
 70
     1
102
RTVSPropertyOp4
 70
     1
102
RTVSPropertyOp5
 70
     1
102
RTVSPropertyOp6
 70
     1
102
RTVSPropertyOp7
 70
     1
102
RTVSPropertyOp8
 70
     1
102
RTVSPropertyOp9
 70
     1
102
RTVSPropertyOp10
 70
     1
102
RTVSPropertyOp11
 70
     1
102
RTVSPropertyOp12
 70
     1
102
RTVSPropertyOp13
 70
     1
102
RTVSPropertyOp14
 70
     1
102
RTVSPropertyOp15
 70
     1
102
RTVSPropertyOp16
 70
     1
102
RTVSPropertyOp17
 70
     1
102
RTVSPropertyOp18
 70
     1
102
RTVSPropertyOp19
 70
     1
102
RTVSPropertyOp20
 70
     1
102
RTVSPropertyOp21
 70
     1
102
RTVSPropertyOp22
 70
     1
102
RTVSPropertyOp23
 70
     1
102
RTVSPropertyOp24
 70
     1
102
RTVSPropertyOp25
 70
     1
102
RTVSPropertyOp26
 70
     1
102
RTVSPropertyOp27
 70
     1
  0
XRECORD
  5
189
102
{ACAD_REACTORS
330
188
102
}
330
188
100
AcDbXrecord
280
     1
102
RTVSPropertyOp0
 70
     1
102
RTVSPropertyOp1
 70
     1
102
RTVSPropertyOp2
 70
     1
102
RTVSPropertyOp3
 70
     1
102
RTVSPropertyOp4
 70
     1
102
RTVSPropertyOp5
 70
     1
102
RTVSPropertyOp6
 70
     1
102
RTVSPropertyOp7
 70
     1
102
RTVSPropertyOp8
 70
     1
102
RTVSPropertyOp9
 70
     1
102
RTVSPropertyOp10
 70
     1
102
RTVSPropertyOp11
 70
     1
102
RTVSPropertyOp12
 70
     1
102
RTVSPropertyOp13
 70
     1
102
RTVSPropertyOp14
 70
     1
102
RTVSPropertyOp15
 70
     1
102
RTVSPropertyOp16
 70
     1
102
RTVSPropertyOp17
 70
     1
102
RTVSPropertyOp18
 70
     1
102
RTVSPropertyOp19
 70
     1
102
RTVSPropertyOp20
 70
     1
102
RTVSPropertyOp21
 70
     1
102
RTVSPropertyOp22
 70
     1
102
RTVSPropertyOp23
 70
     1
102
RTVSPropertyOp24
 70
     1
102
RTVSPropertyOp25
 70
     1
102
RTVSPropertyOp26
 70
     1
102
RTVSPropertyOp27
 70
     1
  0
XRECORD
  5
191
102
{ACAD_REACTORS
330
190
102
}
330
190
100
AcDbXrecord
280
     1
102
RTVSPropertyOp0
 70
     1
102
RTVSPropertyOp1
 70
     1
102
RTVSPropertyOp2
 70
     1
102
RTVSPropertyOp3
 70
     1
102
RTVSPropertyOp4
 70
     1
102
RTVSPropertyOp5
 70
     1
102
RTVSPropertyOp6
 70
     1
102
RTVSPropertyOp7
 70
     1
102
RTVSPropertyOp8
 70
     1
102
RTVSPropertyOp9
 70
     1
102
RTVSPropertyOp10
 70
     1
102
RTVSPropertyOp11
 70
     1
102
RTVSPropertyOp12
 70
     1
102
RTVSPropertyOp13
 70
     1
102
RTVSPropertyOp14
 70
     1
102
RTVSPropertyOp15
 70
     1
102
RTVSPropertyOp16
 70
     1
102
RTVSPropertyOp17
 70
     1
102
RTVSPropertyOp18
 70
     1
102
RTVSPropertyOp19
 70
     1
102
RTVSPropertyOp20
 70
     1
102
RTVSPropertyOp21
 70
     1
102
RTVSPropertyOp22
 70
     1
102
RTVSPropertyOp23
 70
     1
102
RTVSPropertyOp24
 70
     1
102
RTVSPropertyOp25
 70
     1
102
RTVSPropertyOp26
 70
     1
102
RTVSPropertyOp27
 70
     1
  0
ENDSEC
  0
EOF
